Subcategories

David Orlowski, Singer Pur - Jeremiah (2010) {Hybride SACD}

Posted By: popsakov
David Orlowski, Singer Pur - Jeremiah (2010) {Hybride SACD}

David Orlowski, Singer Pur - Jeremiah (2010) {Hybride SACD}
EAC Rip | WV (Img) + Cue + Log ~ 260 Mb | MP3 CBR320 ~ 143 Mb
Scans (JPG, 400 dpi) ~ 36 Mb | RAR 5% Recovery
Classical, Renaissance, Contemporary | Sony Classical #88697564072

Clarinetist David Orlowsky is widely recognized as a musician of tremendous expressiveness and depth, and is acknowledged worldwide as one of today's leading interpreters of the clarinet repertoire ranging from Mozart to Golijov to klezmer. An exclusive Sony recording artist, David has recorded eight discs which have received three ECHO Klassik awards and won him a large and devoted following.
David Orlowsky has appeared both as a soloist and with his trio (the David Orlowsky Trio) at a number of major festivals and venues, including the Schleswig-Holstein Music Festival, Rheingau Music Festival, Lucerne Festival, Gidon Kremer’s Lockenhaus Chamber Music Festival, the Philhamonie Berlin, the Concertgebouw in Amsterdam and Carnegie Hall, with orchestras such as the Netherland Radio Philhamonic Orchestra and the German Chamber Orchestra.
An avid chamber musician, David collaborated with celebrated performers such as Vilde Frang, Igor Levit, the Danish String Quartet, the Calder Quartet and the vocal sextet Singur Pur, with whom he won the 2011 ECHO Klassik award "Classical Music without Boundaries" for their album JEREMIAH. He also collaborates regularly with the Vogler Quartet, with whom he recorded a critically acclaimed Sony album featuring the works of Mozart and Golijov. David maintains close relationships with major contemporary composers such as Torsten Rasch, Matan Porat and David Bruce.

Singer Pur is a German vocal sextet founded in 1991 by five former members of the Regensburger Domspatzen to sing jazz repertoire. In 1994 a soprano joined the group and since then Singer Pur focussed more and more on early and romantic music. But the vocal ensemble has no stylistic limitations and its programmes include anything performable by voices. Singer Pur has recorded more than 20 CDs, some of them highly awarded and a clear example of its versatility. Singer Pur has given concerts and workshops in more than 50 countries all over the world.
David Orlowski, Singer Pur - Jeremiah (2010) {Hybride SACD}


***************

David Orlowski, Singer Pur - Jeremiah (2010) {Hybride SACD}

David Orlowski, Singer Pur - Jeremiah (2010) {Hybride SACD}

Track List:

01. Giovanni Pierluigi da Palestrina: O bone Jesu [2:42]
02. Giovanni Pierluigi da Palestrina: LAMED. Matribus suis dixerunt - Feria VI in Parasceve, Lectio II [13:21]
03. Carlo Gesualdo: Tristis et anima mea [5:27]
04. Matan Porat: Tota pulchra es [1:47]
05. Giovanni Pierluigi da Palestrina: Surge amica mea [2:59]
06. Giovanni Pierluigi da Palestrina: Pulchra es, o Maria virgo [5:15]
07. Giovanni Pierluigi da Palestrina: ALEPH. Quomodo obscuratum est aurum - Sabbato Sancto, Lectio II [8:29]
08. Carlo Gesualdo: Sicut ovis ad accisionem [3:31]
09. Carlo Gesualdo: O vos omnes [2:42]
10. Matan Porat: Lux Aeterna [4:14]
11. Giovanni Pierluigi da Palestrina: ALEPH. Ego vir virens paupertatem meam - Feria VI in Parasceve, Lectio II [8:29]

Exact Audio Copy V1.0 beta 6 from 9. April 2015

EAC extraction logfile from 9. May 2016, 11:51

David Orlowski & Singer Pur / Jeremiah

Used drive : TSSTcorpCDDVDW SH-224DB Adapter: 1 ID: 0

Read mode : Secure
Utilize accurate stream : Yes
Defeat audio cache : Yes
Make use of C2 pointers : No

Read offset correction : 6
Overread into Lead-In and Lead-Out : No
Fill up missing offset samples with silence : Yes
Delete leading and trailing silent blocks : No
Null samples used in CRC calculations : Yes
Used interface : Native Win32 interface for Win NT & 2000

Used output format : User Defined Encoder
Selected bitrate : 1024 kBit/s
Quality : High
Add ID3 tag : No
Command line compressor : C:\Program Files (x86)\Exact Audio Copy\wavpack.exe
Additional command line options : -hm %source% %dest%


TOC of the extracted CD

Track | Start | Length | Start sector | End sector
––––––––––––––––––––––––––––-
1 | 0:00.00 | 2:41.41 | 0 | 12115
2 | 2:41.41 | 13:20.51 | 12116 | 72166
3 | 16:02.17 | 5:27.29 | 72167 | 96720
4 | 21:29.46 | 1:46.66 | 96721 | 104736
5 | 23:16.37 | 2:59.04 | 104737 | 118165
6 | 26:15.41 | 5:14.55 | 118166 | 141770
7 | 31:30.21 | 8:29.03 | 141771 | 179948
8 | 39:59.24 | 3:31.05 | 179949 | 195778
9 | 43:30.29 | 2:41.48 | 195779 | 207901
10 | 46:12.02 | 4:14.16 | 207902 | 226967
11 | 50:26.18 | 8:29.21 | 226968 | 265163


Range status and errors

Selected range

Filename G:\iso\David Orlowski & Singer Pur - Jeremiah\David Orlowski & Singer Pur - Jeremiah.wav

Peak level 100.0 %
Extraction speed 1.9 X
Range quality 100.0 %
Test CRC 528A4A58
Copy CRC 528A4A58
Copy OK

No errors occurred


AccurateRip summary

Track 1 accurately ripped (confidence 3) [B5A5F8C6] (AR v2)
Track 2 accurately ripped (confidence 3) [F643F154] (AR v2)
Track 3 accurately ripped (confidence 3) [6DD31042] (AR v2)
Track 4 accurately ripped (confidence 3) [A6DD0FF2] (AR v2)
Track 5 accurately ripped (confidence 3) [A362725D] (AR v2)
Track 6 accurately ripped (confidence 3) [3548637C] (AR v2)
Track 7 accurately ripped (confidence 3) [8197AB84] (AR v2)
Track 8 accurately ripped (confidence 3) [57923A2F] (AR v2)
Track 9 accurately ripped (confidence 3) [C286040F] (AR v2)
Track 10 accurately ripped (confidence 3) [2FE70559] (AR v2)
Track 11 accurately ripped (confidence 18) [71F9BF2C] (AR v2)

All tracks accurately ripped

End of status report

–– CUETools DB Plugin V2.1.6

[CTDB TOCID: 6sMr5x6S46rIQ1h8HWryxLYWlB4-] found
Submit result: 6sMr5x6S46rIQ1h8HWryxLYWlB4- has been confirmed
Track | CTDB Status
1 | ( 3/28) Accurately ripped, or (25/28) differs in 3765 samples @02:36:56-02:36:59
2 | ( 3/28) Accurately ripped, or (25/28) differs in 3647 samples @13:15:04-13:15:07
3 | ( 3/28) Accurately ripped, or (25/28) differs in 3573 samples @05:23:37-05:23:40
4 | ( 3/28) Accurately ripped, or (25/28) differs in 3647 samples @01:42:63-01:42:66
5 | ( 3/28) Accurately ripped, or (25/28) differs in 3565 samples @02:54:21-02:54:24
6 | ( 3/28) Accurately ripped, or (25/28) differs in 3858 samples @05:08:63-05:08:66
7 | ( 3/28) Accurately ripped, or (25/28) differs in 3706 samples @08:24:02-08:24:05
8 | ( 3/28) Accurately ripped, or (25/28) differs in 3651 samples @03:26:21-03:26:24
9 | ( 3/28) Accurately ripped, or (25/28) differs in 3666 samples @02:35:69-02:35:72
10 | ( 3/28) Accurately ripped, or (25/28) differs in 3874 samples @04:08:57-04:08:60
11 | (28/28) Accurately ripped
If you are sure that your rip contains errors, you can use CUETools to repair it.


==== Log checksum DD44832797C0D04FA61DA0E5F7104D613B12464F2621C5F52A32BCF2F973670C ====

foobar2000 1.2.6 / Dynamic Range Meter 1.1.1
log date: 2017-06-22 20:17:13

––––––––––––––––––––––––––––––––––––––––
Analyzed: David Orlowski & Singer Pur / Jeremiah
––––––––––––––––––––––––––––––––––––––––

DR Peak RMS Duration Track
––––––––––––––––––––––––––––––––––––––––
DR10 -1.33 dB -17.32 dB 2:42 01-Giovanni Pierluigi da Palestrina: O bone Jesu
DR12 -1.10 dB -19.01 dB 13:21 02-Giovanni Pierluigi da Palestrina: LAMED. Matribus suis dixerunt - Feria VI in Parasceve, Lectio II
DR12 -2.14 dB -19.54 dB 5:27 03-Carlo Gesualdo: Tristis et anima mea
DR12 0.00 dB -16.78 dB 1:47 04-Matan Porat: Tota pulchra es
DR12 0.00 dB -16.44 dB 2:59 05-Giovanni Pierluigi da Palestrina: Surge amica mea
DR12 -4.10 dB -22.23 dB 5:15 06-Giovanni Pierluigi da Palestrina: Pulchra es, o Maria virgo
DR11 -1.28 dB -18.64 dB 8:29 07-Giovanni Pierluigi da Palestrina: ALEPH. Quomodo obscuratum est aurum - Sabbato Sancto, Lectio II
DR12 -0.22 dB -18.04 dB 3:31 08-Carlo Gesualdo: Sicut ovis ad accisionem
DR12 -1.92 dB -19.40 dB 2:42 09-Carlo Gesualdo: O vos omnes
DR12 -2.05 dB -20.62 dB 4:14 10-Matan Porat: Lux Aeterna
DR12 -1.10 dB -20.12 dB 8:29 11-Giovanni Pierluigi da Palestrina: ALEPH. Ego vir virens paupertatem meam - Feria VI in Parasceve, Lectio II
––––––––––––––––––––––––––––––––––––––––

Number of tracks: 11
Official DR value: DR12

Samplerate: 44100 Hz
Channels: 2
Bits per sample: 16
Bitrate: 582 kbps
Codec: WavPack
================================================================================

[CUETools log; Date: 22.06.2017 20:16:23; Version: 2.1.5]
[CTDB TOCID: 6sMr5x6S46rIQ1h8HWryxLYWlB4-] found.
Track | CTDB Status
1 | ( 4/39) Accurately ripped, or (35/39) differs in 3765 samples @02:36:56-02:36:59
2 | ( 4/39) Accurately ripped, or (35/39) differs in 3647 samples @13:15:04-13:15:07
3 | ( 4/39) Accurately ripped, or (35/39) differs in 3573 samples @05:23:37-05:23:40
4 | ( 4/39) Accurately ripped, or (35/39) differs in 3647 samples @01:42:63-01:42:66
5 | ( 4/39) Accurately ripped, or (35/39) differs in 3565 samples @02:54:21-02:54:24
6 | ( 4/39) Accurately ripped, or (35/39) differs in 3858 samples @05:08:63-05:08:66
7 | ( 4/39) Accurately ripped, or (35/39) differs in 3706 samples @08:24:02-08:24:05
8 | ( 4/39) Accurately ripped, or (35/39) differs in 3651 samples @03:26:21-03:26:24
9 | ( 4/39) Accurately ripped, or (35/39) differs in 3666 samples @02:35:69-02:35:72
10 | ( 4/39) Accurately ripped, or (35/39) differs in 3874 samples @04:08:57-04:08:60
11 | (39/39) Accurately ripped
[AccurateRip ID: 0018bdc0-00d2c0df-9c0dcf0b] found.
Track [ CRC | V2 ] Status
01 [21cdb69a|b5a5f8c6] (00+03/28) Accurately ripped
02 [f7883051|f643f154] (00+03/28) Accurately ripped
03 [9a62e4c6|6dd31042] (00+03/28) Accurately ripped
04 [e31aa4c0|a6dd0ff2] (00+03/28) Accurately ripped
05 [a648f3ab|a362725d] (00+03/28) Accurately ripped
06 [99cd7b39|3548637c] (00+03/28) Accurately ripped
07 [142357a5|8197ab84] (00+03/28) Accurately ripped
08 [0f323b97|57923a2f] (00+03/28) Accurately ripped
09 [e6e1c698|c286040f] (00+03/28) Accurately ripped
10 [66769155|2fe70559] (00+03/28) Accurately ripped
11 [a19b98eb|71f9bf2c] (07+21/28) Accurately ripped

Track Peak [ CRC32 ] [W/O NULL] [ LOG ]
– 100,0 [528A4A58] [74DCD90E] CRC32
01 85,8 [50EAFB42] [4BA78F1E]
02 88,0 [0C338A51] [73698136]
03 78,1 [C17E7242] [A101A573]
04 99,9 [C432D9AC] [81015D53]
05 100,0 [B58E0DFC] [F6FD84D9]
06 62,3 [EEDDDA88] [29CA7F66]
07 86,2 [24700EFC] [ACD203F6]
08 97,4 [517C5089] [3CCDAD5D]
09 80,1 [2DA86859] [865FBB57]
10 78,9 [00EE03DB] [CFAADF1A]
11 88,1 [49D8CE46] [FE2B26C9]

David Orlowski, Singer Pur - Jeremiah (2010) {Hybride SACD}

All thanks go to shatterhand

>>> My Blog <<<

Download from icerbox.com: