Subcategories

David Sanborn - Voyeur (1981) Japanese Remastered 2014 [Re-Up]

Posted By: Designol
David Sanborn - Voyeur (1981) Japanese Remastered 2014 [Re-Up]

David Sanborn - Voyeur (1981) Japanese Remastered 2014
EAC | FLAC | Image (Cue&Log) ~ 219 Mb | Mp3 (CBR320) ~ 97 Mb
Label: Warner Bros. | # WPCR-28022 | Time: 00:29:47 | Scans included
Genre: Crossover Jazz, Smooth Jazz, Jazz-Funk

This 1981 recording is an excellent example of David Sanborn's music. The highly influential altoist is joined by familiar studio veterans (including guitarist Hiram Bullock and drummer Steve Gadd) with bassist/composer Marcus Miller being a key figure in creating the funky rhythms and colorful backgrounds. Miller, who shared the writing chores with Sanborn, not only contributed his powerful bass, but backed the altoist during a duet version of "Just for You" on piano. Easily recommended to fans of R&B-ish jazz.

Review by Scott Yanow, Allmusic.com

David Sanborn - Voyeur (1981) Japanese Remastered 2014 [Re-Up]



David Sanborn - alto saxophone, Fender Rhodes, Wurlitzer electric piano, saxello, percussion
Steve Gadd - drums
Buddy Williams - drums, percussion
Marcus Miller - bass, Moog bass, drums, Fender Rhodes, electric guitar, Prophet synthesizer, bells
Buzzy Feiten - electric guitar, acoustic guitar
Hiram Bullock - electric guitar, percussion
Tom Scott - flute, tenor saxophone
Lenny Castro - percussion, congas, timbales
Ralph MacDonald - percussion
Michael Colina - OBX synthesiser, Prophet synthesizer
Ray Bardani - gong
Valerie Simpson, Patti Austin, Kacey Cisyk, Lani Groves, Diva Gray, Gordon Grody, Hamish Stuart - background vocals

Recorded at Minot Sound Studio, White Plains, NY; Warner Bros. Recording Studios, North Hollywood, CA;
Westlake Recording Studios, Los Angeles, CA; Jennifudy Recording Studios, Los Angeles, CA.

Tracklist:

01. Let's Just Say Goodbye (04:37)
02. It's You (05:11)
03. Wake Me When It's Over (05:41)
04. One in a Million (03:41)
05. Run for Cover (03:14)
06. All I Need Is You (05:47)
07. Just for You (01:33)


Exact Audio Copy V1.0 beta 3 from 29. August 2011

Отчёт EAC об извлечении, выполненном 21. февраля 2016, 19:04

David Sanborn / Voyeur

Дисковод: Optiarc DVD RW AD-7203S Adapter: 1 ID: 0

Режим чтения : Достоверность
Использование точного потока : Да
Отключение кэша аудио : Да
Использование указателей C2 : Нет

Коррекция смещения при чтении : 48
Способность читать области Lead-in и Lead-out : Нет
Заполнение пропущенных сэмплов тишиной : Да
Удаление блоков с тишиной в начале и конце : Нет
При вычислениях CRC использовались нулевые сэмплы : Да
Интерфейс : Встроенный Win32-интерфейс для Win NT/2000

Выходной формат : Пользовательский кодировщик
Выбранный битрейт : 128 kBit/s
Качество : Высокий
Добавление ID3-тега : Нет
Утилита сжатия : C:\Program Files (x86)\Exact Audio Copy\Flac\flac.exe
Дополнительные параметры : -V -8 -T "Date=%year%" -T "Genre=%genre%" %source%


TOC извлечённого CD

Трек | Старт | Длительность | Начальный сектор | Конечный сектор
––––––––––––––––––––––––––––––––––-
1 | 0:00.00 | 4:37.34 | 0 | 20808
2 | 4:37.34 | 5:11.51 | 20809 | 44184
3 | 9:49.10 | 5:41.59 | 44185 | 69818
4 | 15:30.69 | 3:41.01 | 69819 | 86394
5 | 19:11.70 | 3:14.36 | 86395 | 100980
6 | 22:26.31 | 5:47.09 | 100981 | 127014
7 | 28:13.40 | 1:33.71 | 127015 | 134060


Характеристики диапазона извлечения и сообщения об ошибках

Выбранный диапазон

Имя файла D:\Music\_Egor from PTZ_04_2\David Sunborn\David Sanborn - Voyeur (1981)\David Sanborn - Voyeur (1981).wav

Пиковый уровень 100.0 %
Скорость извлечения 3.3 X
Качество диапазона 99.9 %
CRC теста 12B96663
CRC копии 12B96663
Копирование… OK

Ошибок не произошло


AccurateRip: сводка

Трек 1 : извлечено точно (доверие 7) [E95E0EA5] (AR v2)
Трек 2 : извлечено точно (доверие 7) [35507304] (AR v2)
Трек 3 : извлечено точно (доверие 7) [A7BBD536] (AR v2)
Трек 4 : извлечено точно (доверие 7) [0DD943C5] (AR v2)
Трек 5 : извлечено точно (доверие 7) [85A3F5C1] (AR v2)
Трек 6 : извлечено точно (доверие 7) [75DDB407] (AR v2)
Трек 7 : извлечено точно (доверие 7) [23AE2DD3] (AR v2)

Все треки извлечены точно

Конец отчёта

==== Контрольная сумма отчёта 0B310ED6086D0B021F2BC2634173A62BC0E85942625EAA758A6F3013786EAD30 ====

foobar2000 1.2 / Dynamic Range Meter 1.1.1
log date: 2016-03-16 15:17:57

––––––––––––––––––––––––––––––––––––––––
Analyzed: David Sanborn / Voyeur
––––––––––––––––––––––––––––––––––––––––

DR Peak RMS Duration Track
––––––––––––––––––––––––––––––––––––––––
DR11 0.00 dB -13.10 dB 4:37 01-Let's Just Say Goodbye
DR12 0.00 dB -15.17 dB 5:12 02-It's You
DR13 0.00 dB -14.35 dB 5:42 03-Wake Me When It's Over
DR11 0.00 dB -13.23 dB 3:41 04-One in a Million
DR11 0.00 dB -12.73 dB 3:14 05-Run for Cover
DR12 0.00 dB -14.12 dB 5:47 06-All I Need Is You
DR13 -2.30 dB -19.93 dB 1:34 07-Just for You
––––––––––––––––––––––––––––––––––––––––

Number of tracks: 7
Official DR value: DR12

Samplerate: 44100 Hz
Channels: 2
Bits per sample: 16
Bitrate: 894 kbps
Codec: FLAC
================================================================================

David Sanborn - Voyeur (1981) Japanese Remastered 2014 [Re-Up]

David Sanborn - Voyeur (1981) Japanese Remastered 2014 [Re-Up]