Subcategories

David Lee Murphy - Out With A Bang (1994)

Posted By: countryfreak
David Lee Murphy - Out With A Bang (1994)

David Lee Murphy - Out With A Bang (1994)
EAC Rip | FLAC (Image) + CUE + LOG | Covers | 234 MB
Genre: Country | Label: MCA | Release Date: August 30, 1994 | Catalog Number: AAMCAD11044
Hoster: Uploaded + DepositFiles | RAR 5% Rec.

Out With a Bang should have had one extra word added to the front of its title – "Starting." This debut solo recording did start things out with a bang for country singer/songwriter and guitarist David Lee Murphy. This first full-length offering was finished a year after he signed with MCA. The album carries ten tracks, including major hits like "Party Crowd" and "Dust on the Bottle," both of which went on to become signature songs for Murphy. You'll also find his first hit, "Just Once," from the movie 8 Seconds, on this one. Many of his songs are simple country-rocking fun that will find your toes tapping and your lips following the words. Since he wrote or co-wrote every number on this album, the lyrics give fans a peek into the world that survives inside Murphy's mind; a little taste of what he thinks of life and what he has found that he feels is worth sharing.– by Charlotte Dillon


––––––––-
Tracklist
––––––––-
1. Can't Turn It Off 3:23
2. Party Crowd 3:18
3. Mama 'N Them 3:23
4. High Weeds And Rust 2:56
5. Fish Ain't Bitin' 2:46
6. Out With A Bang 2:28
7. Greatest Show On Earth 4:11
8. Dust On The Bottle 3:44
9. Just Once 2:59
10. Why Can't People Just Get Along 3:52

Personnel:
David Lee Murphy - Vocals,Acoustic Guitar
Mike Brignardello - Bass
Chad Cromwell - Drums
Kenny Edwards - Acoustic Guitar
Paul Franklin - Steel,Pedabro
Brent Mason - Electric Guitar
Terry McMillan - Harp,Tambourine
Steve Nathan - Organ,Piano
David Lee Murphy,Liana Manis,Kim Tribble - Background Vocals

David Lee Murphy - Out With A Bang (1994)


Exact Audio Copy V1.0 beta 3 from 29. August 2011

EAC extraction logfile from 29. June 2013, 8:33

David Lee Murphy / Out With A Bang

Used drive : HL-DT-STDVDRAM GT30N Adapter: 0 ID: 0

Read mode : Secure
Utilize accurate stream : Yes
Defeat audio cache : Yes
Make use of C2 pointers : No

Read offset correction : 103
Overread into Lead-In and Lead-Out : No
Fill up missing offset samples with silence : Yes
Delete leading and trailing silent blocks : No
Null samples used in CRC calculations : Yes
Used interface : Native Win32 interface for Win NT & 2000

Used output format : User Defined Encoder
Selected bitrate : 1024 kBit/s
Quality : High
Add ID3 tag : No
Command line compressor : C:\Program Files (x86)\Exact Audio Copy\FLAC\FLAC.EXE
Additional command line options : -6 -V -T "ARTIST=%artist%" -T "TITLE=%title%" -T "ALBUM=%albumtitle%" -T "DATE=%year%" -T "TRACKNUMBER=%tracknr%" -T "GENRE=%genre%" -T "COMMENT=%comment%" -T "BAND=%albuminterpret%" -T "ALBUMARTIST=%albuminterpret%" -T "COMPOSER=%composer%" %haslyrics%–tag-from-file=LYRICS="%lyricsfile%"%haslyrics% -T "DISCNUMBER=%cdnumber%" -T "TOTALDISCS=%totalcds%" -T "TOTALTRACKS=%numtracks%" %hascover%–picture="%coverfile%"%hascover% %source% -o %dest%


TOC of the extracted CD

Track | Start | Length | Start sector | End sector
––––––––––––––––––––––––––––-
1 | 0:00.00 | 3:24.00 | 0 | 15299
2 | 3:24.00 | 3:18.40 | 15300 | 30189
3 | 6:42.40 | 3:23.15 | 30190 | 45429
4 | 10:05.55 | 2:56.03 | 45430 | 58632
5 | 13:01.58 | 2:46.37 | 58633 | 71119
6 | 15:48.20 | 2:28.05 | 71120 | 82224
7 | 18:16.25 | 4:11.13 | 82225 | 101062
8 | 22:27.38 | 3:44.67 | 101063 | 117929
9 | 26:12.30 | 2:59.73 | 117930 | 131427
10 | 29:12.28 | 3:53.05 | 131428 | 148907


Range status and errors

Selected range

Filename F:\David Lee Murphy - Out With A Bang [FLAC] (1994)\David Lee Murphy - Out With A Bang.wav

Peak level 100.0 %
Extraction speed 4.1 X
Range quality 100.0 %
Copy CRC EBACE2C4
Copy OK

No errors occurred


AccurateRip summary

Track 1 not present in database
Track 2 not present in database
Track 3 not present in database
Track 4 not present in database
Track 5 not present in database
Track 6 not present in database
Track 7 not present in database
Track 8 not present in database
Track 9 not present in database
Track 10 not present in database

None of the tracks are present in the AccurateRip database

End of status report

==== Log checksum FAD79D2A67E85C559AC37562B6D12FCC7004694D90B6B3FF246831C09BC675F6 ====


foobar2000 1.2.8 / Dynamic Range Meter 1.1.1
log date: 2013-06-29 08:34:12

––––––––––––––––––––––––––––––––––––––––
Analyzed: David Lee Murphy / Out With A Bang
––––––––––––––––––––––––––––––––––––––––

DR Peak RMS Duration Track
––––––––––––––––––––––––––––––––––––––––
DR12 -0.40 dB -14.54 dB 3:24 01-Can't Turn It Off
DR13 -0.40 dB -15.59 dB 3:19 02-Party Crowd
DR14 -0.40 dB -15.35 dB 3:23 03-Mama 'N Them
DR13 -0.40 dB -14.60 dB 2:56 04-High Weeds And Rust
DR13 0.00 dB -15.04 dB 2:46 05-Fish Ain't Bitin'
DR13 -0.40 dB -14.94 dB 2:28 06-Out With A Bang
DR13 -0.40 dB -15.55 dB 4:11 07-Greatest Show On Earth
DR14 -0.40 dB -15.82 dB 3:45 08-Dust On The Bottle
DR14 -0.40 dB -15.93 dB 3:00 09-Just Once
DR14 -0.40 dB -16.25 dB 3:53 10-Why Can't People Just Get Along
––––––––––––––––––––––––––––––––––––––––

Number of tracks: 10
Official DR value: DR13

Samplerate: 44100 Hz
Channels: 2
Bits per sample: 16
Bitrate: 853 kbps
Codec: FLAC
================================================================================


BIO: David Lee Murphy's polished blend of neo-traditional country and mainstream rock flourishes made the vocalist a star in the mid-'90s. Murphy moved to Nashville with hopes of become a star in 1983. For ten years he struggled in the Music City, honing his craft but never catching the attention of the music industry. By the early '90s, he had gained a reputation in Nashville and in 1992 signed with MCA Records. Murphy's first recording was a contribution to the soundtrack of the Luke Perry rodeo movie Eight Seconds.Out With a Bang, his first album, was released in early 1995. "Party Crowd" became the most-played song on country radio in 1995, and the record's second single, "Dust on the Bottle," spent two weeks at number one. Out With a Bang would go platinum become the best-selling debut album by a male country single for the entire year of 1995. The Academy of Country Music nominated him for Top New Male Vocalist at the end of the year.– by Stephen Thomas Erlewine



In case you encounter dead links in any of my posts, please send me a private message !!!!

NO mirrors and/or direct links in your comments, please !!!!

****Visit My Blog****
Uploaded

DepositFiles

***** Pass: countryfreak *****