Subcategories

David Rawlings - Poor David's Almanack (2017)

Posted By: SERTiL
David Rawlings - Poor David's Almanack (2017)

David Rawlings - Poor David's Almanack
EAC Rip | FLAC (tracks)+cue, log, m3u, front cover | 38:12 min | 226 MB
Label: Acony Records – ACNY 1713 | Tracks: 10 | Rls.date: 2017
Folk, Alt-Country, Americana

Guitar man David Rawlings leaves the Machine moniker behind for his third album, Poor David's Almanack, a wry mixture of acoustic and electric performances rich in ageless American vernacular.

Gloriously captured on analog tape by studio wizards Ken Scott and Matt Andrews, the ten new songs took shape in a rollicking weeklong session at Woodland Sound Studios in Nashville, Tennessee where Rawlings and longtime compatriot Gillian Welch joined together with Willie Watson, Paul Kowert, Brittany Haas, Ketch Secor, and Taylor and Griffin Goldsmith to produce an album for all seasons.

David Rawlings is a guitarist, songwriter, producer, and singer – mostly in that order – who plies his trade on a 1935 Epiphone Olympic, for which he's gained a devoted following for getting more action out of the small arch top guitar than most guitarists get out of modern electrics. Rawlings first came to prominence in 1996 with the release of musical partner Gillian Welch's debut album, Revival. He and Welch met while studying together at the prestigious Berklee College of Music in Boston. Together they crafted an old-timey blend of country, folk, and blues, built around Rawlings' exceptional guitar picking and Welch's haunting vocals. In 1998, Rawlings and Welch teamed up again on Hell Among the Yearlings which, like their first effort, was produced by T-Bone Burnett. In 2000, Rawlings and Welch joined Ryan Adams on the latter's solo debut, Heartbreaker. The album opens with an argument between Rawlings and Adams concerning a Morrissey song and is followed by the lively "To Be Young (Is to Be Sad, Is to Be High)," which Adams and Rawlings wrote together. The two also co-wrote "Touch, Feel & Lose," which appears on Adams' 2001 follow-up album, Gold. That same year saw Rawlings make his first foray into producing. He replaced Burnett as producer for his and Welch's third album, Time (The Revelator) and produced their fourth, 2003's Soul Journey, as well. In 2004, he produced Old Crow Medicine Show's commercial debut O.C.M.S., and contributed his guitar work to the album's finale "Wagon Wheel." He even toured with the band to help promote the album in guitar and banjo player Critter Fuqua's absence. Two years later, Rawlings produced the band's follow-up, Big Iron World, sharing writing credits on nearly half of the album's songs. In 2007, he contributed to the Bright Eyes album Cassadaga, and the following year, he continued his relationship with Old Crow Medicine Show, co-writing "Methamphetamine" with Ketch Secor.

Rawlings and Welch began playing live shows with various musician friends in 2006 under the moniker the David Rawlings Machine, featuring Rawlings as frontman for the first time. That experiment led to the 2009 debut under that moniker of A Friend of a Friend, released on his and Welch's Acony Records label. Over the next six years, he and Welch toured but didn't record, though he worked on albums by Damien Rice and Willie Watson. In 2015, the David Rawlings Machine re-emerged with the seven-track mini-album Nashville Obsolete. Two years later the guitarist and Welch took a crack studio band that included Watson, Paul Kowert, Brittany Haas, Ketch Secor, and Taylor and Griffin Goldsmith of Dawes into Nashville's Woodland Studio. Recording on analog tape, the week-long sessions were engineered by Ken Scott and Matt Andrews, and netted the ten-cut Poor David's Almanack, released by Acony in August and immediately followed by a tour with the David Rawlings Machine. ~ Chris Berggren

TRACKLIST
01. Midnight Train (03:18)
02. Money Is the Meat In the Coconut (02:23)
03. Cumberland Gap (02:55)
04. Airplane (04:44)
05. Lindsey Button (05:03)
06. Come On Over My House (03:42)
07. Guitar Man (03:30)
08. Yup (04:33)
09. Good God a Woman (03:31)
10. Put 'Em Up Solid (04:33)

Exact Audio Copy V1.0 beta 4 from 7. December 2014

EAC extraction logfile from 17. August 2017, 13:35

David Rawlings / Poor David's Almanack

Used drive : PIONEER DVD-RW DVR-116D Adapter: 1 ID: 0

Read mode : Secure
Utilize accurate stream : Yes
Defeat audio cache : Yes
Make use of C2 pointers : No

Read offset correction : 96
Overread into Lead-In and Lead-Out : No
Fill up missing offset samples with silence : Yes
Delete leading and trailing silent blocks : No
Null samples used in CRC calculations : Yes
Used interface : Native Win32 interface for Win NT & 2000
Gap handling : Appended to previous track

Used output format : User Defined Encoder
Selected bitrate : 1024 kBit/s
Quality : High
Add ID3 tag : No
Command line compressor : C:\Program Files (x86)\Exact Audio Copy\Flac\flac.exe
Additional command line options : -8 -V -T "ARTIST=%artist%" -T "TITLE=%title%" -T "ALBUM=%albumtitle%" -T "DATE=%year%" -T "TRACKNUMBER=%tracknr%" -T "GENRE=%genre%" -T "PERFORMER=%albuminterpret%" -T "COMPOSER=%composer%" %haslyrics%–tag-from-file=LYRICS="%lyricsfile%"%haslyrics% -T "ALBUMARTIST=%albumartist%" -T "DISCNUMBER=%cdnumber%" -T "TOTALDISCS=%totalcds%" -T "TOTALTRACKS=%numtracks%" -T "COMMENT=%comment%" %source% -o %dest%


TOC of the extracted CD

Track | Start | Length | Start sector | End sector
––––––––––––––––––––––––––––-
1 | 0:00.00 | 3:18.33 | 0 | 14882
2 | 3:18.33 | 2:23.57 | 14883 | 25664
3 | 5:42.15 | 2:55.73 | 25665 | 38862
4 | 8:38.13 | 4:44.23 | 38863 | 60185
5 | 13:22.36 | 5:03.52 | 60186 | 82962
6 | 18:26.13 | 3:42.59 | 82963 | 99671
7 | 22:08.72 | 3:30.52 | 99672 | 115473
8 | 25:39.49 | 4:33.01 | 115474 | 135949
9 | 30:12.50 | 3:31.22 | 135950 | 151796
10 | 33:43.72 | 4:33.57 | 151797 | 172328


Track 1

Filename C:\new flac rips\David Rawlings - 2017 - Poor David's Almanack (ACNY-1713)\01 Midnight Train.wav

Pre-gap length 0:00:02.00

Peak level 100.0 %
Extraction speed 4.1 X
Track quality 100.0 %
Test CRC 54F2D6FC
Copy CRC 54F2D6FC
Track not present in AccurateRip database
Copy OK

Track 2

Filename C:\new flac rips\David Rawlings - 2017 - Poor David's Almanack (ACNY-1713)\02 Money is the Meat in the Coconut.wav

Peak level 100.0 %
Extraction speed 3.4 X
Track quality 99.9 %
Test CRC 68BDCC24
Copy CRC 68BDCC24
Track not present in AccurateRip database
Copy OK

Track 3

Filename C:\new flac rips\David Rawlings - 2017 - Poor David's Almanack (ACNY-1713)\03 Cumberland Gap.wav

Peak level 100.0 %
Extraction speed 3.9 X
Track quality 99.9 %
Test CRC 38763895
Copy CRC 38763895
Track not present in AccurateRip database
Copy OK

Track 4

Filename C:\new flac rips\David Rawlings - 2017 - Poor David's Almanack (ACNY-1713)\04 Airplane.wav

Peak level 100.0 %
Extraction speed 5.2 X
Track quality 100.0 %
Test CRC 09A79155
Copy CRC 09A79155
Track not present in AccurateRip database
Copy OK

Track 5

Filename C:\new flac rips\David Rawlings - 2017 - Poor David's Almanack (ACNY-1713)\05 Lindsey Button.wav

Peak level 100.0 %
Extraction speed 5.6 X
Track quality 100.0 %
Test CRC BFFDE1B8
Copy CRC BFFDE1B8
Track not present in AccurateRip database
Copy OK

Track 6

Filename C:\new flac rips\David Rawlings - 2017 - Poor David's Almanack (ACNY-1713)\06 Come on Over My House.wav

Peak level 100.0 %
Extraction speed 5.1 X
Track quality 99.9 %
Test CRC E32689D1
Copy CRC E32689D1
Track not present in AccurateRip database
Copy OK

Track 7

Filename C:\new flac rips\David Rawlings - 2017 - Poor David's Almanack (ACNY-1713)\07 Guitar Man.wav

Peak level 100.0 %
Extraction speed 5.9 X
Track quality 100.0 %
Test CRC 31D57DDC
Copy CRC 31D57DDC
Track not present in AccurateRip database
Copy OK

Track 8

Filename C:\new flac rips\David Rawlings - 2017 - Poor David's Almanack (ACNY-1713)\08 Yup.wav

Peak level 100.0 %
Extraction speed 6.4 X
Track quality 100.0 %
Test CRC 823C1501
Copy CRC 823C1501
Track not present in AccurateRip database
Copy OK

Track 9

Filename C:\new flac rips\David Rawlings - 2017 - Poor David's Almanack (ACNY-1713)\09 Good God a Woman.wav

Peak level 100.0 %
Extraction speed 6.5 X
Track quality 100.0 %
Test CRC BACF5396
Copy CRC BACF5396
Track not present in AccurateRip database
Copy OK

Track 10

Filename C:\new flac rips\David Rawlings - 2017 - Poor David's Almanack (ACNY-1713)\10 Put 'Em Up Solid.wav

Peak level 100.0 %
Extraction speed 6.9 X
Track quality 100.0 %
Test CRC EB46E51D
Copy CRC EB46E51D
Track not present in AccurateRip database
Copy OK


None of the tracks are present in the AccurateRip database

No errors occurred

End of status report

–– CUETools DB Plugin V2.1.4

[CTDB TOCID: wnHJfOj233Jhk4qQjj4dmE6ZdBM-] found
Submit result: wnHJfOj233Jhk4qQjj4dmE6ZdBM- has been confirmed
Track | CTDB Status
1 | (11/11) Accurately ripped
2 | (11/11) Accurately ripped
3 | (11/11) Accurately ripped
4 | (11/11) Accurately ripped
5 | (11/11) Accurately ripped
6 | (11/11) Accurately ripped
7 | (11/11) Accurately ripped
8 | (11/11) Accurately ripped
9 | (11/11) Accurately ripped
10 | (11/11) Accurately ripped


==== Log checksum 3A2CE478B3A17F7F903CA54B3E233DE72A7B5561D10007A0586E063EB69AFA77 ====


Thanks to the Original customer.