Subcategories

David Benoit - Fuzzy Logic (2002) {Verve} [Repost]

Posted By: tiburon
David Benoit - Fuzzy Logic (2002) {Verve} [Repost]

David Benoit - Fuzzy Logic (2002) {Verve}
EAC 0.99pb5 | FLAC tracks level 8 | Cue+Log+M3U+MD5 | Scans 300dpi | 271MB + 5% Recovery
MP3 CBR 320 Kbps | 105MB + 5% Recovery
Genre: Jazz Funk,Smooth Jazz,Fusion

Pianist David Benoit once again delivers a consummate jazz-pop release produced by trumpeter Rick Braun. Braun, who played on Benoit's 1999 Professional Dreamer, does a nice job of updating the piano man's trademark keyboard sound by addressing hip-hop and Latin rhythms. Despite the requisite candlelight noodlings and semi-funk party tracks that Benoit has admittedly popularized, there is much to appreciate here.
Track List

01. Snap! (4:28)
02. Fuzzy Logic (5:10)
03. Someday Soon (4:58)
04. Then the Morning Comes (3:38)
05. Reflections (4:07)
06. Coming up for Air (4:59)
07. You Read My Mind (4:54)
08. War of the S.U.V.'s (4:46)
09. Tango in Barbados (4:15)
10. One Dream at a Time (2:51)

musicians

David Benoit - piano, Hammond B3
Rick Braun - trumpet
Paul Jackson,Jr. - guitar
Steve Ferrone - drums
Richard Todd - french horn
Andy Suzuki - sax
Neil Angilley - keyboards
Tim Weisberg - flute
Jeff Olson - drums
Mick Wilson - timbales
Scott Breadman - percussion
Brad Dutz - percussion
Jonathan Clark - oboe
Larry Bunker - vibraphone
Steve Holtman - trombone
Nick Lane - trombone
Rick Baptist - trumpet
Ross Bolton - guitar
Pat Kelley - guitar

Produced by David Benoit, Rick Braun and Stuart Wade


Exact Audio Copy V0.99 prebeta 5 from 4. May 2009

Отчёт EAC об извлечении, выполненном 21. января 2010, 18:48

David Benoit / Fuzzy Logic

Дисковод: PIONEER DVD-RW DVR-111D Adapter: 0 ID: 0

Режим чтения : Достоверность
Использование точного потока : Да
Отключение кэша аудио : Да
Использование указателей C2 : Нет

Коррекция смещения при чтении : 48
Способность читать области Lead-in и Lead-out : Нет
Заполнение пропущенных сэмплов тишиной : Да
Удаление блоков с тишиной в начале и конце : Нет
При вычислениях CRC использовались нулевые сэмплы : Да
Интерфейс : Встроенный Win32-интерфейс для Win NT/2000

Выходной формат : Внутренние WAV-операции
Формат сэмплов : 44.100 Гц; 16 бит; стерео


TOC извлечённого CD

Трек | Старт | Длительность | Начальный сектор | Конечный сектор
––––––––––––––––––––––––––––––––––-
1 | 0:00.00 | 4:27.70 | 0 | 20094
2 | 4:27.70 | 5:09.67 | 20095 | 43336
3 | 9:37.62 | 4:58.00 | 43337 | 65686
4 | 14:35.62 | 3:37.40 | 65687 | 82001
5 | 18:13.27 | 4:06.63 | 82002 | 100514
6 | 22:20.15 | 4:58.47 | 100515 | 122911
7 | 27:18.62 | 4:54.18 | 122912 | 144979
8 | 32:13.05 | 4:46.37 | 144980 | 166466
9 | 36:59.42 | 4:15.33 | 166467 | 185624
10 | 41:15.00 | 2:51.32 | 185625 | 198481


Характеристики диапазона извлечения и сообщения об ошибках

Выбранный диапазон

Имя файла C:\Documents and Settings\Владелец\Рабочий стол\David Benoit - Fuzzy Logic (2002)\David Benoit - Fuzzy Logic.wav

Пиковый уровень 98.8 %
Качество диапазона 100.0 %
CRC теста 0B936D2B
CRC копии 0B936D2B
Копирование… OK

Ошибок не произошло


AccurateRip: сводка

Трек 1 точность не определена (достоверность 20) [D15E678D], AccurateRip вернул [ACC2F60D]
Трек 2 точность не определена (достоверность 18) [FE0A2F00], AccurateRip вернул [97F88308]
Трек 3 точность не определена (достоверность 19) [AF48F7B0], AccurateRip вернул [24F9E708]
Трек 4 точность не определена (достоверность 19) [356EB204], AccurateRip вернул [844F1424]
Трек 5 точность не определена (достоверность 19) [567E5CA4], AccurateRip вернул [7EC723A4]
Трек 6 точность не определена (достоверность 19) [D9D04CD0], AccurateRip вернул [AAFE68D8]
Трек 7 точность не определена (достоверность 19) [38A15A1D], AccurateRip вернул [B9DE988D]
Трек 8 точность не определена (достоверность 19) [C06A17A3], AccurateRip вернул [12EBCA2B]
Трек 9 точность не определена (достоверность 17) [D0AE1862], AccurateRip вернул [94361CBA]
Трек 10 точность не определена (достоверность 17) [D6B59FFB], AccurateRip вернул [9D45F81F]

Ни один трек не прошёл проверки на точность
В вашей базе может быть иной вариант штамповки диска

Конец отчёта
David Benoit - Fuzzy Logic (2002) {Verve} [Repost]
David Benoit - Fuzzy Logic (2002) {Verve} [Repost]




The Files Are Interchangeable

Special thanks to dm-71 for the rip!!!

Lossless conversion from FLAC Image to FLAC tracks level 8 with foobar2000
Cue and M3u files are generated again.The Gap structure of the CD is reserved.

Visit My Blog