Subcategories

David Bowie - David Live 1974 (2005 Remix and Remastered Edition 2017)

Posted By: Pisulik
David Bowie - David Live 1974 (2005 Remix and Remastered Edition 2017)

David Bowie - David Live 1974 (2005 Remix and Remastered Edition 2017)
XLD | FLAC (Tracks) +cue, log - 616 MB | MP3 CBR 320 kbps - 236 MB | 01:42:50
Rock, Classic Rock, Glam Rock, Blue-Eyed Soul | Label: Parlophone UK | Release Year: 2017

David Bowie is not a man one would expect to revel in the accidental. It is as much of a cliché to divine cold strategy in his every move as it is to pretend that strategy didn't exist for, say, Janis Joplin. For those preferring to see Bowie as a contortionist auto-Svengali, the main revelation of the reissued live albums David Live and Stage will be how unafraid of imperfections he could be. These panoramic snapshots of 1970s Bowie (David Live came out in 1974, with Stage following mere four years later) mostly sound surprise like a good rock band at work, not a collection of virtuoso day laborers supplicating at the feet of the Artiste.


For one thing, the singing remains gloriously unsweetened, not by studio overdubs for the original release nor by digital trickery save a spit polish of the highs and fattening of the lows this time. Bowie's is not exactly a golden throat, but by the mid-70s he could will his untrained voice into a soulful squeal, a come-hither lounge croon, and so on; he misses some notes but never the dramatic pitch of the line. He also used to be one of those singers who need half a set to get entirely comfortable on stage, and, as a result, Disc Two of both David Live and Stage is the stronger one by far. If by the beginning of each concert, Bowie simply performs the songs, by the end he is twisting them into entirely new creatures. David Live contains arguably the all-time greatest display of Bowie's voice as he lets loose on an r&b; version of "Rock'n'Roll Suicide", festooned with James Brownian stops, croaks, pregnant pauses, and beat-chasing rephrasings, as well as a completely sudden detonation of a very, very high falsetto.

TRACKLIST

CD1

01. 1984 (Live) [2005 Mix] [2016 Remastered Version]
02. Rebel Rebel (Live) [2005 Mix] [2016 Remastered Version]
03. Moonage Daydream (Live) [2005 Mix] [2016 Remastered Version]
04. Sweet Thing (Live) [2005 Mix] [2016 Remastered Version]
05. Changes (Live) [2005 Mix] [2016 Remastered Version]
06. Suffragette City (Live) [2005 Mix] [2016 Remastered Version]
07. Aladdin Sane (Live) [2005 Mix] [2016 Remastered Version]
08. All The Young Dudes (Live) [2005 Mix] [2016 Remastered Version]
09. Cracked Actor (Live) [2005 Mix] [2016 Remastered Version]
10. Rock 'N' Roll With Me (Live) [2005 Mix] [2016 Remastered Version]
11. Watch That Man (Live) [2005 Mix] [2016 Remastered Version]

X Lossless Decoder version 20161007 (149.3)

XLD extraction logfile from 2017-03-01 09:48:33 +0100

David Bowie / David Live [Disc 1]

Used drive : MATSHITA DVD-R UJ-868 (revision KB19)
Media type : Pressed CD

Ripper mode : XLD Secure Ripper
Disable audio cache : OK for the drive with a cache less than 1375KiB
Make use of C2 pointers : NO
Read offset correction : 102
Max retry count : 20
Gap status : Analyzed, Appended (except HTOA)

TOC of the extracted CD
Track | Start | Length | Start sector | End sector
––––––––––––––––––––––––––––-
1 | 00:00:00 | 03:22:19 | 0 | 15168
2 | 03:22:19 | 02:41:14 | 15169 | 27257
3 | 06:03:33 | 05:08:27 | 27258 | 50384
4 | 11:11:60 | 08:35:54 | 50385 | 89063
5 | 19:47:39 | 03:35:53 | 89064 | 105241
6 | 23:23:17 | 03:42:39 | 105242 | 121930
7 | 27:05:56 | 05:02:11 | 121931 | 144591
8 | 32:07:67 | 04:14:52 | 144592 | 163693
9 | 36:22:44 | 03:26:15 | 163694 | 179158
10 | 39:48:59 | 04:16:34 | 179159 | 198392
11 | 44:05:18 | 05:05:70 | 198393 | 221337

AccurateRip Summary (DiscID: 00141581-00af8915-980b870b)
Track 01 : OK (v2, confidence 13/13)
Track 02 : OK (v2, confidence 13/13)
Track 03 : OK (v2, confidence 13/13)
Track 04 : OK (v2, confidence 13/13)
Track 05 : OK (v2, confidence 13/13)
Track 06 : OK (v2, confidence 13/13)
Track 07 : OK (v2, confidence 13/13)
Track 08 : OK (v2, confidence 13/13)
Track 09 : OK (v2, confidence 13/13)
Track 10 : OK (v2, confidence 13/13)
Track 11 : OK (v2, confidence 13/13)
->All tracks accurately ripped.

All Tracks
Album gain : -1.80 dB
Peak : 0.949219
Statistics
Read error : 0
Jitter error (maybe fixed) : 0
Retry sector count : 0
Damaged sector count : 0

Track 01
Filename : /Users/Lily/[FLAC]/David Bowie - 1974 - David Live [Disc 1] - FLAC/01 - 1984.flac
Pre-gap length : 00:02:00

Track gain : -2.62 dB
Peak : 0.913879
CRC32 hash (test run) : D9ACAE9C
CRC32 hash : D9ACAE9C
CRC32 hash (skip zero) : DC5B5D3F
AccurateRip v1 signature : 011E5C46
AccurateRip v2 signature : 58BF4FEA
->Accurately ripped (v2, confidence 13/13)
Statistics
Read error : 0
Jitter error (maybe fixed) : 0
Retry sector count : 0
Damaged sector count : 0

Track 02
Filename : /Users/Lily/[FLAC]/David Bowie - 1974 - David Live [Disc 1] - FLAC/02 - Rebel Rebel.flac

Track gain : -2.37 dB
Peak : 0.949219
CRC32 hash (test run) : 1606C0E4
CRC32 hash : 1606C0E4
CRC32 hash (skip zero) : EE3B6586
AccurateRip v1 signature : 59D4AA24
AccurateRip v2 signature : 7CECD05E
->Accurately ripped (v2, confidence 13/13)
Statistics
Read error : 0
Jitter error (maybe fixed) : 0
Retry sector count : 0
Damaged sector count : 0

Track 03
Filename : /Users/Lily/[FLAC]/David Bowie - 1974 - David Live [Disc 1] - FLAC/03 - Moonage Daydream.flac

Track gain : -0.44 dB
Peak : 0.749786
CRC32 hash (test run) : C68BC7B4
CRC32 hash : C68BC7B4
CRC32 hash (skip zero) : 9E1BB021
AccurateRip v1 signature : 917CDCC5
AccurateRip v2 signature : B674622F
->Accurately ripped (v2, confidence 13/13)
Statistics
Read error : 0
Jitter error (maybe fixed) : 0
Retry sector count : 0
Damaged sector count : 0

Track 04
Filename : /Users/Lily/[FLAC]/David Bowie - 1974 - David Live [Disc 1] - FLAC/04 - Sweet Thing.flac

Track gain : 0.03 dB
Peak : 0.739380
CRC32 hash (test run) : C6D789F3
CRC32 hash : C6D789F3
CRC32 hash (skip zero) : 741AEAC4
AccurateRip v1 signature : D00EEE67
AccurateRip v2 signature : B9FF1C7F
->Accurately ripped (v2, confidence 13/13)
Statistics
Read error : 0
Jitter error (maybe fixed) : 0
Retry sector count : 0
Damaged sector count : 0

Track 05
Filename : /Users/Lily/[FLAC]/David Bowie - 1974 - David Live [Disc 1] - FLAC/05 - Changes.flac

Track gain : 0.09 dB
Peak : 0.697998
CRC32 hash (test run) : 67B4AEBC
CRC32 hash : 67B4AEBC
CRC32 hash (skip zero) : 28FB4504
AccurateRip v1 signature : EBA52AC0
AccurateRip v2 signature : 3D1C15B8
->Accurately ripped (v2, confidence 13/13)
Statistics
Read error : 0
Jitter error (maybe fixed) : 0
Retry sector count : 0
Damaged sector count : 0

Track 06
Filename : /Users/Lily/[FLAC]/David Bowie - 1974 - David Live [Disc 1] - FLAC/06 - Suffragette City.flac

Track gain : -0.79 dB
Peak : 0.705780
CRC32 hash (test run) : DA3A41D8
CRC32 hash : DA3A41D8
CRC32 hash (skip zero) : 6A29D255
AccurateRip v1 signature : 3CFFD474
AccurateRip v2 signature : A3E0CB4E
->Accurately ripped (v2, confidence 13/13)
Statistics
Read error : 0
Jitter error (maybe fixed) : 0
Retry sector count : 0
Damaged sector count : 0

Track 07
Filename : /Users/Lily/[FLAC]/David Bowie - 1974 - David Live [Disc 1] - FLAC/07 - Aladdin Sane.flac

Track gain : -1.46 dB
Peak : 0.770447
CRC32 hash (test run) : 54C96A66
CRC32 hash : 54C96A66
CRC32 hash (skip zero) : EA7B0BB4
AccurateRip v1 signature : 60B3B13E
AccurateRip v2 signature : 55FAFBD2
->Accurately ripped (v2, confidence 13/13)
Statistics
Read error : 0
Jitter error (maybe fixed) : 0
Retry sector count : 0
Damaged sector count : 0

Track 08
Filename : /Users/Lily/[FLAC]/David Bowie - 1974 - David Live [Disc 1] - FLAC/08 - All The Young Dudes.flac

Track gain : -1.17 dB
Peak : 0.753265
CRC32 hash (test run) : 349F40BE
CRC32 hash : 349F40BE
CRC32 hash (skip zero) : D6FC9C68
AccurateRip v1 signature : 493FDAAC
AccurateRip v2 signature : 4CC5AC31
->Accurately ripped (v2, confidence 13/13)
Statistics
Read error : 0
Jitter error (maybe fixed) : 0
Retry sector count : 0
Damaged sector count : 0

Track 09
Filename : /Users/Lily/[FLAC]/David Bowie - 1974 - David Live [Disc 1] - FLAC/09 - Cracked Actor.flac

Track gain : -0.43 dB
Peak : 0.745728
CRC32 hash (test run) : EF1C0E80
CRC32 hash : EF1C0E80
CRC32 hash (skip zero) : AF4E6B7D
AccurateRip v1 signature : 9F42F32A
AccurateRip v2 signature : 65AF65D8
->Accurately ripped (v2, confidence 13/13)
Statistics
Read error : 0
Jitter error (maybe fixed) : 0
Retry sector count : 0
Damaged sector count : 0

Track 10
Filename : /Users/Lily/[FLAC]/David Bowie - 1974 - David Live [Disc 1] - FLAC/10 - Rock 'N' Roll With Me.flac

Track gain : -2.45 dB
Peak : 0.902466
CRC32 hash (test run) : 0BFE4CD9
CRC32 hash : 0BFE4CD9
CRC32 hash (skip zero) : 2F1BDFAE
AccurateRip v1 signature : 397D9BBF
AccurateRip v2 signature : 2DE00FBF
->Accurately ripped (v2, confidence 13/13)
Statistics
Read error : 0
Jitter error (maybe fixed) : 0
Retry sector count : 0
Damaged sector count : 0

Track 11
Filename : /Users/Lily/[FLAC]/David Bowie - 1974 - David Live [Disc 1] - FLAC/11 - Watch That Man.flac

Track gain : -2.77 dB
Peak : 0.885742
CRC32 hash (test run) : 973AD487
CRC32 hash : 973AD487
CRC32 hash (skip zero) : A0571C3A
AccurateRip v1 signature : 3DB4C3E4
AccurateRip v2 signature : D38BD1E7
->Accurately ripped (v2, confidence 13/13)
Statistics
Read error : 0
Jitter error (maybe fixed) : 0
Retry sector count : 0
Damaged sector count : 0

No errors occurred

End of status report

––-BEGIN XLD SIGNATURE––-
TwaRr57xmKfswSggYmv2gs4duyOL7tHKz55E1e3jksOguhQmose0p5ajOQP5izAOKD___Ytj4GdniwJpMLK0S_6zwvkkGBwupT1viUu
––-END XLD SIGNATURE––-


CD2

01. Knock On Wood (Live) [2005 Mix] [2016 Remastered Version]
02. Here Today Gone Tomorrow (Live) [2005 Mix] [2016 Remastered Version]
03. Space Oddity (Live) [2005 Mix] [2016 Remastered Version]
04. Diamond Dogs (Live) [2005 Mix] [2016 Remastered Version]
05. Panic In Detroit (Live) [2005 Mix] [2016 Remastered Version]
06. Big Brother (Live) [2005 Mix] [2016 Remastered Version]
07. Time (Live) [2005 Mix] [2016 Remastered Version]
08. The Width Of A Circle (Live) [2005 Mix] [2016 Remastered Version]
09. The Jean Genie (Live) [2005 Mix] [2016 Remastered Version]
10. Rock 'N' Roll Suicide (Live) [2005 Mix] [2016 Remastered Version]

X Lossless Decoder version 20161007 (149.3)

XLD extraction logfile from 2017-03-01 10:16:29 +0100

David Bowie / David Live [Disc 2]

Used drive : MATSHITA DVD-R UJ-868 (revision KB19)
Media type : Pressed CD

Ripper mode : XLD Secure Ripper
Disable audio cache : OK for the drive with a cache less than 1375KiB
Make use of C2 pointers : NO
Read offset correction : 102
Max retry count : 20
Gap status : Analyzed, Appended (except HTOA)

TOC of the extracted CD
Track | Start | Length | Start sector | End sector
––––––––––––––––––––––––––––-
1 | 00:00:00 | 03:24:69 | 0 | 15368
2 | 03:24:69 | 03:48:00 | 15369 | 32468
3 | 07:12:69 | 06:26:36 | 32469 | 61454
4 | 13:39:30 | 06:26:55 | 61455 | 90459
5 | 20:06:10 | 05:39:43 | 90460 | 115927
6 | 25:45:53 | 04:14:02 | 115928 | 134979
7 | 29:59:55 | 05:23:21 | 134980 | 159225
8 | 35:23:01 | 08:10:59 | 159226 | 196034
9 | 43:33:60 | 05:19:21 | 196035 | 219980
10 | 48:53:06 | 04:46:51 | 219981 | 241481

AccurateRip Summary (DiscID: 001356b9-009e1861-710c930a)
Track 01 : OK (v2, confidence 13/13)
Track 02 : OK (v2, confidence 13/13)
Track 03 : OK (v2, confidence 13/13)
Track 04 : OK (v2, confidence 13/13)
Track 05 : OK (v2, confidence 13/13)
Track 06 : OK (v2, confidence 13/13)
Track 07 : OK (v2, confidence 13/13)
Track 08 : OK (v2, confidence 13/13)
Track 09 : OK (v2, confidence 13/13)
Track 10 : OK (v2, confidence 13/13)
->All tracks accurately ripped.

All Tracks
Album gain : -1.36 dB
Peak : 1.000000
Statistics
Read error : 0
Jitter error (maybe fixed) : 0
Retry sector count : 0
Damaged sector count : 0

Track 01
Filename : /Users/Lily/[FLAC]/David Bowie - 1974 - David Live [Disc 2] - FLAC/01 - Knock On Wood.flac
Pre-gap length : 00:02:00

Track gain : -0.59 dB
Peak : 0.740601
CRC32 hash (test run) : 5E039BF7
CRC32 hash : 5E039BF7
CRC32 hash (skip zero) : D1D059D3
AccurateRip v1 signature : EAD4094B
AccurateRip v2 signature : B80AA452
->Accurately ripped (v2, confidence 13/13)
Statistics
Read error : 0
Jitter error (maybe fixed) : 0
Retry sector count : 0
Damaged sector count : 0

Track 02
Filename : /Users/Lily/[FLAC]/David Bowie - 1974 - David Live [Disc 2] - FLAC/02 - Here Today Gone Tomorrow.flac

Track gain : -2.39 dB
Peak : 1.000000
CRC32 hash (test run) : 55A5CB8D
CRC32 hash : 55A5CB8D
CRC32 hash (skip zero) : 69DBC1F1
AccurateRip v1 signature : 170EBE9E
AccurateRip v2 signature : 3254AAE8
->Accurately ripped (v2, confidence 13/13)
Statistics
Read error : 0
Jitter error (maybe fixed) : 0
Retry sector count : 0
Damaged sector count : 0

Track 03
Filename : /Users/Lily/[FLAC]/David Bowie - 1974 - David Live [Disc 2] - FLAC/03 - Space Oddity.flac

Track gain : -1.04 dB
Peak : 0.795685
CRC32 hash (test run) : E0344113
CRC32 hash : E0344113
CRC32 hash (skip zero) : AE474EF7
AccurateRip v1 signature : EFFCF132
AccurateRip v2 signature : 78D78B53
->Accurately ripped (v2, confidence 13/13)
Statistics
Read error : 0
Jitter error (maybe fixed) : 0
Retry sector count : 0
Damaged sector count : 0

Track 04
Filename : /Users/Lily/[FLAC]/David Bowie - 1974 - David Live [Disc 2] - FLAC/04 - Diamond Dogs.flac

Track gain : -0.97 dB
Peak : 0.817963
CRC32 hash (test run) : 0419BB13
CRC32 hash : 0419BB13
CRC32 hash (skip zero) : FDADCD2A
AccurateRip v1 signature : F9242A21
AccurateRip v2 signature : E6CE3BA4
->Accurately ripped (v2, confidence 13/13)
Statistics
Read error : 0
Jitter error (maybe fixed) : 0
Retry sector count : 0
Damaged sector count : 0

Track 05
Filename : /Users/Lily/[FLAC]/David Bowie - 1974 - David Live [Disc 2] - FLAC/05 - Panic In Detroit.flac

Track gain : -1.81 dB
Peak : 0.786499
CRC32 hash (test run) : 133D002D
CRC32 hash : 133D002D
CRC32 hash (skip zero) : 942DC665
AccurateRip v1 signature : 9B4CC469
AccurateRip v2 signature : 17296022
->Accurately ripped (v2, confidence 13/13)
Statistics
Read error : 0
Jitter error (maybe fixed) : 0
Retry sector count : 0
Damaged sector count : 0

Track 06
Filename : /Users/Lily/[FLAC]/David Bowie - 1974 - David Live [Disc 2] - FLAC/06 - Big Brother.flac

Track gain : -0.10 dB
Peak : 0.815613
CRC32 hash (test run) : 336528AA
CRC32 hash : 336528AA
CRC32 hash (skip zero) : B2A39102
AccurateRip v1 signature : 7F725327
AccurateRip v2 signature : 35C57325
->Accurately ripped (v2, confidence 13/13)
Statistics
Read error : 0
Jitter error (maybe fixed) : 0
Retry sector count : 0
Damaged sector count : 0

Track 07
Filename : /Users/Lily/[FLAC]/David Bowie - 1974 - David Live [Disc 2] - FLAC/07 - Time.flac

Track gain : -0.95 dB
Peak : 0.766846
CRC32 hash (test run) : 0DA6768C
CRC32 hash : 0DA6768C
CRC32 hash (skip zero) : 769CBA3E
AccurateRip v1 signature : C496D655
AccurateRip v2 signature : 94946E76
->Accurately ripped (v2, confidence 13/13)
Statistics
Read error : 0
Jitter error (maybe fixed) : 0
Retry sector count : 0
Damaged sector count : 0

Track 08
Filename : /Users/Lily/[FLAC]/David Bowie - 1974 - David Live [Disc 2] - FLAC/08 - The Width Of A Circle.flac

Track gain : -0.51 dB
Peak : 0.800690
CRC32 hash (test run) : 5FA0F343
CRC32 hash : 5FA0F343
CRC32 hash (skip zero) : 261A9D1A
AccurateRip v1 signature : AEFDECC9
AccurateRip v2 signature : 673707FC
->Accurately ripped (v2, confidence 13/13)
Statistics
Read error : 0
Jitter error (maybe fixed) : 0
Retry sector count : 0
Damaged sector count : 0

Track 09
Filename : /Users/Lily/[FLAC]/David Bowie - 1974 - David Live [Disc 2] - FLAC/09 - The Jean Genie.flac

Track gain : -2.01 dB
Peak : 0.815063
CRC32 hash (test run) : DFAD64E8
CRC32 hash : DFAD64E8
CRC32 hash (skip zero) : 232DA19A
AccurateRip v1 signature : E59CF503
AccurateRip v2 signature : 27443EF1
->Accurately ripped (v2, confidence 13/13)
Statistics
Read error : 0
Jitter error (maybe fixed) : 0
Retry sector count : 0
Damaged sector count : 0

Track 10
Filename : /Users/Lily/[FLAC]/David Bowie - 1974 - David Live [Disc 2] - FLAC/10 - Rock 'N' Roll Suicide.flac

Track gain : -2.04 dB
Peak : 0.800232
CRC32 hash (test run) : F3569B1E
CRC32 hash : F3569B1E
CRC32 hash (skip zero) : 222AAEBB
AccurateRip v1 signature : EAAE11F0
AccurateRip v2 signature : 13AAF057
->Accurately ripped (v2, confidence 13/13)
Statistics
Read error : 0
Jitter error (maybe fixed) : 0
Retry sector count : 0
Damaged sector count : 0

No errors occurred

End of status report

––-BEGIN XLD SIGNATURE––-
TZ4em6rbjx0igMAQI2_YtUfnOtym0iDsN1ugdFuzPZMAYP.1WvITWukGWsVl7g.bYFBbVyAI0D_bi2UTHQvRvaJKtTAxJsLOylDL824
––-END XLD SIGNATURE––-


All thanks go to the original releaser