Subcategories
Tags
Language
Tags

David Cassidy - Home Is Where The Heart Is (1976) & Gettin' It In The Street (1977) [2012, Remastered Reissue]

Posted By: BlondStyle
David Cassidy - Home Is Where The Heart Is (1976) & Gettin' It In The Street (1977) [2012, Remastered Reissue]

David Cassidy - Home Is Where The Heart Is (1976) & Gettin' It In The Street (1977)
Pop/Rock, Soft Rock, AM Pop, Ballad | EAC Rip | FLAC, Img+CUE+LOG+Scans (JPEG) | 65:25 Min | 507,01 Mb
Label: 7T's Records (UK) | Cat.# GLAM CD 139 | Released: 2012-09-18 (1976/1977)
David Cassidy - Home Is Where The Heart Is (1976) & Gettin' It In The Street (1977) [2012, Remastered Reissue]

"Home Is Where the Heart Is" is the second album released on RCA Records by David Cassidy. It was released in 1976 and was produced by Cassidy and Bruce Johnston. Although critically well received, the album did not chart in any country. "Gettin' It in the Street" is the third and final release by David Cassidy on RCA Records and would also be the last album David Cassidy released in the United States until 1990 (with the release of David Cassidy). Gettin' it in the Street was released in Germany and Japan in November 1976, but did not reach the album charts. The few copies that were pressed for the U.S. were released in January 1977.
~Wikipedia

David Cassidy - Home Is Where The Heart Is (1976) & Gettin' It In The Street (1977) [2012, Remastered Reissue]

David Cassidy - Home Is Where The Heart Is (1976) & Gettin' It In The Street (1977) [2012, Remastered Reissue]


Release of these albums: "Home Is Where The Heart Is" - 1976, March [LP RCA Victor, Cat.# APL1 1309, USA]; "Gettin' It In The Street" - 1977, January [LP RCA Victor, Cat.# APL1-1852, USA]
Release of this CD: 2012, September, 18 [CD 7T's Records (UK), Cat.# GLAM CD 139 / UPC: 5013929053922]
Issued under licence from Sony Music Entertainment UK Limited.
This compilation © 2012 7T's Records, a division of Cherry Red Records Ltd.
Made in EU

Credits:

Mastered By – Tim Turan
Produced By – David Cassidy, Bruce Johnston ("Home Is Where The Heart Is"); David Cassidy, Gerry Beckley ("Gettin' It In The Street")


Tracklist:

"Home Is Where The Heart Is" (1976)

01. On Fire (02:38)
02. Damned If This Ain't Love (03:25)
03. January (02:57)
04. A Fool In Love (02:48)
05. Tomorrow (04:40)
06. Breakin' Down Again (03:44)
07. Run And Hide (02:22)
08. Take This Heart (03:27)
09. Goodbye Blues (02:17)
10. Half Past Your Bedtime (02:46)

"Gettin' It In The Street" (1977)

11. Gettin' It In The Street (04:08)
12. Cruise To Harlem (03:09)
13. I'll Have To Go Away (Saying Goodbye) (04:13)
14. The Story Of Rock 'n' Roll (05:02)
15. I Never Saw You Coming (03:34)
16. Living A Lie (03:49)
17. Rosa's Cantina (02:41)
18. Love, Love The Lady (04:10)
19. Junked Heart Blues (03:33)

Exact Audio Copy V1.3 from 2. September 2016

EAC extraction logfile from 26. November 2017, 13:12

David Cassidy / Home Is Where The Heart Is (1976) & Gettin' It In The Street (1977)

Used drive : PIONEER BD-RW BDR-208D Adapter: 1 ID: 0

Read mode : Secure
Utilize accurate stream : Yes
Defeat audio cache : Yes
Make use of C2 pointers : No

Read offset correction : 667
Overread into Lead-In and Lead-Out : No
Fill up missing offset samples with silence : Yes
Delete leading and trailing silent blocks : No
Null samples used in CRC calculations : Yes
Used interface : Native Win32 interface for Win NT & 2000

Used output format : Internal WAV Routines
Sample format : 44.100 Hz; 16 Bit; Stereo


TOC of the extracted CD

Track | Start | Length | Start sector | End sector
––––––––––––––––––––––––––––-
1 | 0:00.00 | 2:38.30 | 0 | 11879
2 | 2:38.30 | 3:24.44 | 11880 | 27223
3 | 6:02.74 | 2:57.24 | 27224 | 40522
4 | 9:00.23 | 2:48.31 | 40523 | 53153
5 | 11:48.54 | 4:40.31 | 53154 | 74184
6 | 16:29.10 | 3:43.72 | 74185 | 90981
7 | 20:13.07 | 2:21.62 | 90982 | 101618
8 | 22:34.69 | 3:27.15 | 101619 | 117158
9 | 26:02.09 | 2:16.59 | 117159 | 127417
10 | 28:18.68 | 2:46.12 | 127418 | 139879
11 | 31:05.05 | 4:07.59 | 139880 | 158463
12 | 35:12.64 | 3:09.31 | 158464 | 172669
13 | 38:22.20 | 4:13.32 | 172670 | 191676
14 | 42:35.52 | 5:01.66 | 191677 | 214317
15 | 47:37.43 | 3:34.20 | 214318 | 230387
16 | 51:11.63 | 3:49.04 | 230388 | 247566
17 | 55:00.67 | 2:41.07 | 247567 | 259648
18 | 57:41.74 | 4:10.15 | 259649 | 278413
19 | 61:52.14 | 3:32.47 | 278414 | 294360


Range status and errors

Selected range

Filename D:\BlondStyle\David Cassidy - Home Is Where The Heart Is (1976) & Gettin' It In The Street (1977).wav

Peak level 97.7 %
Extraction speed 4.4 X
Range quality 100.0 %
Test CRC 6DA2968A
Copy CRC 6DA2968A
Copy OK

No errors occurred


AccurateRip summary

Track 1 accurately ripped (confidence 3) [0A2EA3AC] (AR v2)
Track 2 accurately ripped (confidence 4) [6B64AF03] (AR v2)
Track 3 accurately ripped (confidence 4) [AD210FDE] (AR v2)
Track 4 accurately ripped (confidence 4) [FEF11C0C] (AR v2)
Track 5 accurately ripped (confidence 4) [483E7696] (AR v2)
Track 6 accurately ripped (confidence 4) [4C3C8B77] (AR v2)
Track 7 accurately ripped (confidence 3) [42170D7E] (AR v2)
Track 8 accurately ripped (confidence 4) [8DF7087E] (AR v2)
Track 9 accurately ripped (confidence 4) [875FFE98] (AR v2)
Track 10 accurately ripped (confidence 4) [FDD4052C] (AR v2)
Track 11 accurately ripped (confidence 3) [1EC24831] (AR v2)
Track 12 accurately ripped (confidence 3) [27EFB726] (AR v2)
Track 13 accurately ripped (confidence 3) [2BD372F4] (AR v2)
Track 14 accurately ripped (confidence 3) [C14706B9] (AR v2)
Track 15 accurately ripped (confidence 3) [46BF6F2D] (AR v2)
Track 16 accurately ripped (confidence 3) [7CC455D6] (AR v2)
Track 17 accurately ripped (confidence 3) [81385C2A] (AR v2)
Track 18 accurately ripped (confidence 3) [24987219] (AR v2)
Track 19 accurately ripped (confidence 3) [61CCCF43] (AR v2)

All tracks accurately ripped

End of status report

–– CUETools DB Plugin V2.1.6

[CTDB TOCID: O_ThYd0sfRHdhNuqV.RCK5kNxnA-] found
Submit result: O_ThYd0sfRHdhNuqV.RCK5kNxnA- has been confirmed
Track | CTDB Status
1 | (2/2) Accurately ripped
2 | (2/2) Accurately ripped
3 | (2/2) Accurately ripped
4 | (2/2) Accurately ripped
5 | (2/2) Accurately ripped
6 | (2/2) Accurately ripped
7 | (2/2) Accurately ripped
8 | (2/2) Accurately ripped
9 | (2/2) Accurately ripped
10 | (2/2) Accurately ripped
11 | (2/2) Accurately ripped
12 | (2/2) Accurately ripped
13 | (2/2) Accurately ripped
14 | (2/2) Accurately ripped
15 | (2/2) Accurately ripped
16 | (2/2) Accurately ripped
17 | (2/2) Accurately ripped
18 | (2/2) Accurately ripped
19 | (2/2) Accurately ripped


==== Log checksum FCFB22C9E6ABBC97294EF3CBDDB9F6D09ADA6AE40A06F46F8F466ED116F0E818 ====

––––––––––––––––––––––––––––––––––––––––
Analyzed: David Cassidy / Home Is Where The Heart Is (1976) & Gettin' It In The Street (1977)
––––––––––––––––––––––––––––––––––––––––

DR Peak RMS Duration Track
––––––––––––––––––––––––––––––––––––––––
DR8 -0.20 dB -10.25 dB 2:38 01-On Fire
DR8 -0.20 dB -8.96 dB 3:25 02-Damned If This Ain't Love
DR8 -0.20 dB -10.19 dB 2:57 03-January
DR8 -0.20 dB -9.76 dB 2:48 04-A Fool In Love
DR7 -0.20 dB -8.42 dB 4:40 05-Tomorrow
DR8 -0.20 dB -10.26 dB 3:44 06-Breakin' Down Again
DR8 -0.20 dB -9.04 dB 2:22 07-Run And Hide
DR8 -0.20 dB -10.28 dB 3:27 08-Take This Heart
DR9 -0.20 dB -10.14 dB 2:17 09-Goodbye Blues
DR9 -0.20 dB -12.48 dB 2:46 10-Half Past Your Bedtime
DR9 -0.20 dB -10.96 dB 4:08 11-Gettin' It In The Street
DR7 -0.20 dB -9.61 dB 3:09 12-Cruise To Harlem
DR7 -0.20 dB -9.94 dB 4:13 13-I'll Have To Go Away (Saying Goodbye)
DR8 -0.20 dB -11.46 dB 5:02 14-The Story Of Rock 'n' Roll
DR8 -0.20 dB -10.20 dB 3:34 15-I Never Saw You Coming
DR9 -0.20 dB -11.42 dB 3:49 16-Living A Lie
DR8 -0.20 dB -9.99 dB 2:41 17-Rosa's Cantina
DR8 -0.20 dB -9.92 dB 4:10 18-Love, Love The Lady
DR9 -0.20 dB -11.75 dB 3:33 19-Junked Heart Blues
––––––––––––––––––––––––––––––––––––––––

Number of tracks: 19
Official DR value: DR8

Samplerate: 44100 Hz
Channels: 2
Bits per sample: 16
Bitrate: 971 kbps
Codec: FLAC
================================================================================

See also:

password: BlondStyle