Subcategories

David Fray plays Schubert and Liszt

Posted By: DentonW
David Fray plays Schubert and Liszt

David Fray - Schubert: Wanderer Fantasia - Schubert/Liszt: 2 Song Transcriptions - Liszt: Sonata
EAC (FLAC, IMG+CUE, LOG) | Scans 300/600 dpi | 1CD, 217 MB + 20,9 MB (.rar 3% rec.) | FS & RS
Classical | ATMA Classique ACD22360, Canada 2006



David Fray Plays Schubert and Liszt

01. Franz Schubert / Fantasia in C Wanderer - 1 Allegro con fuoco ma non troppo [06:04]
02. Franz Schubert / Fantasia in C Wanderer - 2 Adagio [06:43]
03. Franz Schubert / Fantasia in C Wanderer - 3 Presto [04:59]
04. Franz Schubert / Fantasia in C Wanderer - 4 Allegro [03:53]
05. Schubert/Liszt / Du bist die Ruh [06:20]
06. Schubert/Liszt / Der Doppelgaenger [05:14]
07. Franz Liszt / Sonate in B minor - 1 Lento assai - Allegro energico [12:33]
08. Franz Liszt / Sonate in B minor - 2 Andante sostenuto [08:09]
09. Franz Liszt / Sonate in B minor - 3 Allegro energico - Lento sostenuto - Lento assai [11:34]

Recorded: Salle Françoys-Bernier, Domaine Forget St-Irénée, Quebec, Canada, 7-9 February 2005

Exact Audio Copy V1.0 beta 2 from 29. April 2011

EAC extraction logfile from 10. August 2011, 17:32

Schubert Liszt / David Fray Plays Schubert Liszt

Used drive : ATAPI DVD A DH16A6S Adapter: 1 ID: 1

Read mode : Secure
Utilize accurate stream : Yes
Defeat audio cache : No
Make use of C2 pointers : Yes

Read offset correction : 6
Overread into Lead-In and Lead-Out : No
Fill up missing offset samples with silence : Yes
Delete leading and trailing silent blocks : No
Null samples used in CRC calculations : No
Used interface : Native Win32 interface for Win NT & 2000

Used output format : User Defined Encoder
Selected bitrate : 896 kBit/s
Quality : High
Add ID3 tag : No
Command line compressor : D:\Exact Audio Copy\flac.exe
Additional command line options : -5 -V -T "ARTIST=%artist%" -T "TITLE=%title%" -T "ALBUM=%albumtitle%" -T "DATE=%year%" -T "TRACKNUMBER=%tracknr%" -T "GENRE=%genre%" -T "COMMENT=%comment%" -T "BAND=%albuminterpret%" -T "COMPOSER=%composer%" %haslyrics%–ta


TOC of the extracted CD

Track | Start | Length | Start sector | End sector
––––––––––––––––––––––––––––-
1 | 0:00.00 | 6:04.49 | 0 | 27348
2 | 6:04.49 | 6:43.32 | 27349 | 57605
3 | 12:48.06 | 4:59.44 | 57606 | 80074
4 | 17:47.50 | 3:53.74 | 80075 | 97623
5 | 21:41.49 | 6:20.35 | 97624 | 126158
6 | 28:02.09 | 5:14.37 | 126159 | 149745
7 | 33:16.46 | 12:33.38 | 149746 | 206258
8 | 45:50.09 | 8:09.74 | 206259 | 243007
9 | 54:00.08 | 11:34.13 | 243008 | 295070


Range status and errors

Selected range

Filename D:\Uploads\David Fray\ACD22360\David Fray Plays Schubert Liszt.wav

Peak level 94.4 %
Extraction speed 11.3 X
Range quality 99.9 %
Copy CRC 6F49FCD6
Copy OK

No errors occurred


AccurateRip summary

Track 1 accurately ripped (confidence 1) [7B3FD15B] (AR v1)
Track 2 accurately ripped (confidence 1) [CB9F3314] (AR v1)
Track 3 accurately ripped (confidence 1) [EA04D289] (AR v1)
Track 4 accurately ripped (confidence 1) [B9DC3A46] (AR v1)
Track 5 accurately ripped (confidence 1) [B564E4AF] (AR v1)
Track 6 accurately ripped (confidence 1) [46042CAB] (AR v1)
Track 7 accurately ripped (confidence 1) [1BC18E10] (AR v1)
Track 8 cannot be verified as accurate (confidence 1) [98C6805F], AccurateRip returned [51505CE9] (AR v2)
Track 9 cannot be verified as accurate (confidence 1) [2510E05C], AccurateRip returned [207CEA0F] (AR v2)

7 track(s) accurately ripped
2 track(s) could not be verified as accurate

Some tracks could not be verified as accurate

End of status report

==== Log checksum 7E0406E68695617142023A1DF0BBBE9A2F5E7987DABDB828D283803099A40BBA ====


Just a few months after this session Fray again went into the studios. This time to record his first CD for Virgin Classics (division of EMI Records Ltd), a label with whom he had closed an exclusive agreement. For this release (Virgin 385787) he played Bach's Partita no. 4 and the French Suite no. 1 as well as the 12 Notations by Pierre Boulez. This programm, or parts of it, still remained in his repertoire for the next concert season. As a 'promising young artist' he was invited to give a recital during the Piano Festival Rhine-Ruhr in Germany on July 15, 2006, where he also played - amongst other pieces - the Partita and the Notations. For several years now the German magazine Fono Forum is giving supplement CDs to its subscribers, every second or third month consisting of a release of the Initiativkreis Ruhrgebiet with live recordings from the mentioned piano festival. This supplement CD has been added as a bonus.

1 CD in a simple card pocket (front, back, CD scanned, 300/600 dpi)
EAC (FLAC, IMG+CUE, LOG), 170 MB (.rar 3% rec.)
Initiativkreis Ruhrgebiet, Cat. No. 553056

Bach Boulez Beethoven - Edition Klavier-Festival Ruhr

01. Johann Sebastian Bach / Partita 4 BWV 828 - 1 Ouverture [06:23]
02. Johann Sebastian Bach / Partita 4 BWV 828 - 2 Allemande [11:17]
03. Johann Sebastian Bach / Partita 4 BWV 828 - 3 Courante [03:25]
04. Johann Sebastian Bach / Partita 4 BWV 828 - 4 Aria [01:59]
05. Johann Sebastian Bach / Partita 4 BWV 828 - 5 Sarabande [06:19]
06. Johann Sebastian Bach / Partita 4 BWV 828 - 6 Menuet [01:17]
07. Johann Sebastian Bach / Partita 4 BWV 828 - 7 Gigue [03:28]
08. Pierre Boulez / Douze Notations - 1 Fantasque - Modéré [00:55]
09. Pierre Boulez / Douze Notations - 2 Très vif [00:19]
10. Pierre Boulez / Douze Notations - 3 Assez lent [00:57]
11. Pierre Boulez / Douze Notations - 4 Rythmique [00:28]
12. Pierre Boulez / Douze Notations - 5 Doux et improvisé [00:45]
13. Pierre Boulez / Douze Notations - 6 Rapide [00:22]
14. Pierre Boulez / Douze Notations - 7 Hiératique [01:12]
15. Pierre Boulez / Douze Notations - 8 Modéré jusqu'à très vif [00:37]
16. Pierre Boulez / Douze Notations - 9 Lointain - Calme [01:43]
17. Pierre Boulez / Douze Notations - 10 Mécanique et très sec [00:19]
18. Pierre Boulez / Douze Notations - 11 Scintillant [00:47]
19. Pierre Boulez / Douze Notations - 12 Lent - puissant et âpre [01:13]
20. Ludwig van Beethoven / Sonata 7 op10 no3 - 1 Presto [06:27]
21. Ludwig van Beethoven / Sonata 7 op10 no3 - 2 Largo e mesto [09:13]
22. Ludwig van Beethoven / Sonata 7 op10 no3 - 3 Menuetto [02:43]
23. Ludwig van Beethoven / Sonata 7 op10 no3 - 4 Rondo [04:07]

Recorded: Schloss Hagen-Hohenlimburg, 15 July 2006

Exact Audio Copy V1.0 beta 2 from 29. April 2011

EAC extraction logfile from 10. August 2011, 18:38

Bach Boulez Beethoven / Edition Klavier-Festival Ruhr

Used drive : ATAPI DVD A DH16A6S Adapter: 1 ID: 1

Read mode : Secure
Utilize accurate stream : Yes
Defeat audio cache : No
Make use of C2 pointers : Yes

Read offset correction : 6
Overread into Lead-In and Lead-Out : No
Fill up missing offset samples with silence : Yes
Delete leading and trailing silent blocks : No
Null samples used in CRC calculations : No
Used interface : Native Win32 interface for Win NT & 2000

Used output format : User Defined Encoder
Selected bitrate : 896 kBit/s
Quality : High
Add ID3 tag : No
Command line compressor : D:\Exact Audio Copy\flac.exe
Additional command line options : -5 -V -T "ARTIST=%artist%" -T "TITLE=%title%" -T "ALBUM=%albumtitle%" -T "DATE=%year%" -T "TRACKNUMBER=%tracknr%" -T "GENRE=%genre%" -T "COMMENT=%comment%" -T "BAND=%albuminterpret%" -T "COMPOSER=%composer%" %haslyrics%–ta


TOC of the extracted CD

Track | Start | Length | Start sector | End sector
––––––––––––––––––––––––––––-
1 | 0:00.00 | 6:23.45 | 0 | 28769
2 | 6:23.45 | 11:17.63 | 28770 | 79607
3 | 17:41.33 | 3:25.61 | 79608 | 95043
4 | 21:07.19 | 1:59.50 | 95044 | 104018
5 | 23:06.69 | 6:19.48 | 104019 | 132491
6 | 29:26.42 | 1:17.34 | 132492 | 138300
7 | 30:44.01 | 3:28.28 | 138301 | 153928
8 | 34:12.29 | 0:55.25 | 153929 | 158078
9 | 35:07.54 | 0:19.37 | 158079 | 159540
10 | 35:27.16 | 0:57.42 | 159541 | 163857
11 | 36:24.58 | 0:28.22 | 163858 | 165979
12 | 36:53.05 | 0:45.09 | 165980 | 169363
13 | 37:38.14 | 0:22.38 | 169364 | 171051
14 | 38:00.52 | 1:12.53 | 171052 | 176504
15 | 39:13.30 | 0:37.46 | 176505 | 179325
16 | 39:51.01 | 1:43.06 | 179326 | 187056
17 | 41:34.07 | 0:19.03 | 187057 | 188484
18 | 41:53.10 | 0:47.02 | 188485 | 192011
19 | 42:40.12 | 1:13.24 | 192012 | 197510
20 | 43:53.36 | 6:27.24 | 197511 | 226559
21 | 50:20.60 | 9:13.06 | 226560 | 268040
22 | 59:33.66 | 2:43.62 | 268041 | 280327
23 | 62:17.53 | 4:07.23 | 280328 | 298875


Range status and errors

Selected range

Filename D:\Uploads\David Fray\Bonus\Edition Klavier-Festival Ruhr.wav

Peak level 96.5 %
Extraction speed 11.3 X
Range quality 100.0 %
Copy CRC F48A59B3
Copy OK

No errors occurred


AccurateRip summary

Track 1 accurately ripped (confidence 3) [BDEF73EB] (AR v1)
Track 2 accurately ripped (confidence 3) [00401B6C] (AR v1)
Track 3 accurately ripped (confidence 3) [B43EA8C0] (AR v1)
Track 4 accurately ripped (confidence 3) [F2394D84] (AR v1)
Track 5 accurately ripped (confidence 3) [9A64CB37] (AR v1)
Track 6 accurately ripped (confidence 3) [C3FA1DB0] (AR v1)
Track 7 accurately ripped (confidence 3) [B2A4DB26] (AR v1)
Track 8 accurately ripped (confidence 3) [71C82333] (AR v1)
Track 9 accurately ripped (confidence 3) [B309901E] (AR v1)
Track 10 accurately ripped (confidence 3) [5B9C03A2] (AR v1)
Track 11 accurately ripped (confidence 3) [11DB5031] (AR v1)
Track 12 accurately ripped (confidence 3) [ED170649] (AR v1)
Track 13 accurately ripped (confidence 3) [21E3FD41] (AR v1)
Track 14 accurately ripped (confidence 3) [EA831C32] (AR v1)
Track 15 accurately ripped (confidence 3) [A7333A29] (AR v1)
Track 16 accurately ripped (confidence 3) [1C959F8E] (AR v1)
Track 17 accurately ripped (confidence 3) [B5E4CC17] (AR v1)
Track 18 accurately ripped (confidence 3) [767AEE44] (AR v1)
Track 19 accurately ripped (confidence 3) [D0143340] (AR v1)
Track 20 accurately ripped (confidence 3) [D07A1987] (AR v1)
Track 21 accurately ripped (confidence 3) [E3430DEB] (AR v1)
Track 22 accurately ripped (confidence 3) [A5302E22] (AR v1)
Track 23 accurately ripped (confidence 3) [B0062590] (AR v1)

All tracks accurately ripped

End of status report

==== Log checksum D23B79BBD9ADF187C6DBCF63C25A6322EE05EFDA70B9B55959A2DC314E849C71 ====





David Fray plays Schubert and Liszt