Subcategories

David Virelles - Gnosis (2017) {ECM 2526}

Posted By: tiburon
David Virelles - Gnosis (2017) {ECM 2526}

David Virelles - Gnosis (2017) {ECM 2526}
WEB | FLAC tracks | Digital Booklet | 174MB + 5% Recovery
Genre: Avant-Garde Jazz, Afro-Cuban Jazz

In "Gnosis", the Santiago de Cuba-raised and New York-based pianist-composer David Virelles looks towards one melting pot from the vantage point of another. At one level an autobiographical album, a sequence of images conveyed through sound, Gnosis is a far- reaching work with deep roots. Transculturation and traditions are among the subjects under consideration, and the complex tapestry of Cuba’s music: the sacred, the secular, and the ritualistic. It’s an exciting, vivid and multi-faceted project of rapidly changing temperament, in which pulsating ensemble music and pristine, meditative solo piano both have their places. And it is enveloped in a feeling of mystery and magic that has made each of Virelles’s albums special.
Track List
01. Del Tabaco Y El Azúcar (4:01)
02. Fitití Ñongo (2:25)
03. Lengua (Pt. 1) (3:27)
04. Erume Kondó (2:03)
05. Benkomo (5:25)
06. Tierra (6:16)
07. De Ida Y Vuelta (Pt. 1) (3:43)
08. Lengua (Pt. 2) (1:35)
09. De Ida Y Vuelta (Pt. 2) (2:33)
10. Nuná (2:40)
11. Epílogo (1:56)
12. Dos (4:04)
13. Caracola (1:28)
14. Visiones Sonoras (1:19)
15. De Portal (2:36)
16. De Tres (0:41)
17. De Cuando Era Chiquita (2:50)
18. De Coral (3:16)

musicians
David Virelles - Piano, Marímbula, Background Vocals
Román Díaz - Lead Vocals and Percussion (Bonkó Enchemiyá, Ekón, Nkomos, Erikundi, Itones, Nkaniká, Marímbula, Claves, Mayohuacán, Pilón, Carapacho de Jicotea, Coconut Shells)
Allison Loggins-Hull - Piccolo, Flute
Rane Moore - Clarinet, Bass Clarinet
Adam Cruz - Percussion (Steel Pan, Claves)
Alex Lipowski - Percussion (Orchestral Bass Drum, Temple Blocks, Bongos, Gong)
Matthew Gold - Percussion (Marimba, Glockenspiel)
Mauricio Herrera - Percussion (Ekón, Nkomos, Erikundi, Claves), Background Vocals
Thomas Morgan - Double Bass
Yunior Lopez - Viola
Christine Chen - Violoncello
Samuel DeCaprio - Violoncello
Melvis Santa - Background Vocals

Produced by Manfred Eicher


AUDIOCHECKER v2.0 beta (build 457) - by Dester - opdester@freemail.hu
~~~~~~~~~~~~~~~~~~~~~~~~~~~~~~~~~~
-=== DO NOT EDIT THIS FILE! ===-

Path: …\David Virelles - Gnosis (2017) [FLAC]

01 -=- 01. Del Tabaco Y El Azucar.flac -=- CDDA (100%)
02 -=- 02. Fititi Nongo.flac -=- CDDA (100%)
03 -=- 03. Lengua (Pt. 1).flac -=- CDDA (100%)
04 -=- 04. Erume Kondo.flac -=- CDDA (100%)
05 -=- 05. Benkomo.flac -=- CDDA (99%)
06 -=- 06. Tierra.flac -=- CDDA (100%)
07 -=- 07. De Ida Y Vuelta (Pt. 1).flac -=- CDDA (100%)
08 -=- 08. Lengua (Pt. 2).flac -=- CDDA (100%)
09 -=- 09. De Ida Y Vuelta (Pt. 2).flac -=- CDDA (100%)
10 -=- 10. Nuna.flac -=- CDDA (100%)
11 -=- 11. Epilogo.flac -=- CDDA (99%)
12 -=- 12. Dos.flac -=- CDDA (100%)
13 -=- 13. Caracola.flac -=- CDDA (100%)
14 -=- 14. Visiones Sonoras.flac -=- CDDA (100%)
15 -=- 15. De Portal.flac -=- CDDA (100%)
16 -=- 16. De Tres.flac -=- CDDA (100%)
17 -=- 17. De Cuando Era Chiquita.flac -=- CDDA (100%)
18 -=- 18. De Coral.flac -=- CDDA (100%)

Summary 99,89% CDDA

63308676


––––––––––––––––––––––––––––––––––––––––
Analyzed: David Virelles / Gnosis
––––––––––––––––––––––––––––––––––––––––

DR Peak RMS Duration Track
––––––––––––––––––––––––––––––––––––––––
DR12 -2.35 dB -21.61 dB 4:01 01-Del Tabaco Y El Azúcar
DR14 -2.32 dB -18.07 dB 2:25 02-Fitití Ñongo
DR14 -6.73 dB -25.55 dB 3:27 03-Lengua (Pt. 1)
DR12 -1.36 dB -16.92 dB 2:03 04-Erume Kondó
DR15 -4.15 dB -23.87 dB 5:25 05-Benkomo
DR14 -0.48 dB -15.82 dB 6:16 06-Tierra
DR14 -2.33 dB -25.17 dB 3:43 07-De Ida Y Vuelta (Pt. 1)
DR13 -7.27 dB -23.59 dB 1:35 08-Lengua (Pt. 2)
DR15 -7.19 dB -24.46 dB 2:33 09-De Ida Y Vuelta (Pt. 2)
DR16 -3.93 dB -28.65 dB 2:40 10-Nuná
DR14 -2.75 dB -23.90 dB 1:56 11-Epílogo
DR17 -5.93 dB -30.62 dB 4:04 12-Dos
DR13 -10.97 dB -26.81 dB 1:28 13-Caracola
DR14 -3.52 dB -21.19 dB 1:19 14-Visiones Sonoras
DR14 -4.25 dB -25.15 dB 2:36 15-De Portal
DR12 -7.61 dB -23.11 dB 0:41 16-De Tres
DR14 -5.93 dB -27.00 dB 2:50 17-De Cuando Era Chiquita
DR14 -5.57 dB -26.04 dB 3:16 18-De Coral
––––––––––––––––––––––––––––––––––––––––

Number of tracks: 18
Official DR value: DR14

Samplerate: 44100 Hz
Channels: 2
Bits per sample: 16
Bitrate: 348 kbps
Codec: FLAC
================================================================================


Thanks to the original customer