Subcategories

DeBarge - Bad Boys (1987)

Posted By: BlondStyle
DeBarge - Bad Boys (1987)

DeBarge - Bad Boys (1987)
R&B, Soul/Funk, Electronic, Synth-Pop | EAC Rip | FLAC, Img+CUE+LOG+Full Scans-600dpi (JPEG) | 36:27 Min | 231,96 Mb
Label: Striped Horse Records, Inc. (USA) | Released: 1987, November, 25
DeBarge - Bad Boys (1987)

Bad Boys is the fifth studio album released by R&B group DeBarge in 1987, after both El DeBarge and Bunny DeBarge had left the lineup. When El and Bunny DeBarge left the group, remaining members James, Mark and Randy left Motown Records after a seven-year tenure in 1986 and signed with the local Striped Horse label. They then called on eldest brother Bobby (formerly of the group Switch) to join the lineup and produce their album. With James and Bobby DeBarge now alternating as the lead vocalists, the group released the album in 1987 and released two singles: "Dance All Night", which became the group's last R&B hit, peaking at number 33, and the ballad "I Got You Babe", which fizzled at number 73. The group would later appear on the Punky Brewster show with brother Chico tagging along (Chico, then having a hit with "Talk to Me", opened for his brothers during a tour). Because of limited promotion from the little label and no other attention brought into the El-less lineup, the album fizzled, and after Bobby and Chico were arrested for drug possession (eventually serving six years in prison), the remaining trio disbanded altogether in 1989.
DeBarge - Bad Boys (1987)

DeBarge - Bad Boys (1987)


Release of the album: 1977, March [LP Striped Horse Records, Cat.# SHL 2004, USA]
Release of this CD: 1992, May, 22 [CD Striped Horse Records, Inc. (USA), Cat.# SHCD 5004 (No barcode)]
℗ & © 1987 Striped Horse Records, Inc.

Arranged By – DeBarge (tracks: 2, 3, 6 to 9), Richard Gibbs (tracks: 1, 4, 6)
Bass – James Johnson, Kerry Hatch, Leon Gaer, Louis Johnson
Co-producer – Galen Senogles (tracks: 1), Ralph Benatar (tracks: 1), Richard Gibbs
Drums – Michael Jochum
Edited By – Bill Giolando
Engineer – Gabe Veltri, Gaylen Sengoles, John X
Engineer [Assistant] – Judy Clapp, Ken Adessi, Peter Doell, Saul Raye, Steve Krause, Troy Mathisen, Will Rogers
Guitar – Eric Williams, Paul Jackson, Roland Batiste
Keyboards – Bobby DeBarge, James DeBarge, Lorenzo Pryor, Randy Kerber
Keyboards, Synthesizer – Richard Gibbs
Mastered By – Wally Traugott
Percussion – Peter Michael Escovedo
Producer – Carlo Nasi, DeBarge
Programmed By – Ralph Benatar, Richard Gibbs


Tracklist:

01. "Dance All Night" (03:42)
(G. Senogles, H. Payne, L. Pryor, R. Benatar)
02. "We're Having Fun" (03:35)
(Claude Allen, Bobby DeBarge, James DeBarge, Mark DeBarge, Randy DeBarge)
03. "You're A Big Boy" (04:34)
(Claude Allen, James DeBarge)
04. "You're Not The Only One" (03:12)
(Eric Williams, Richard Gibbs)
05. "All Over" (04:27)
(James DeBarge)
06. "Say You Do" (04:27)
(James DeBarge, Randy DeBarge)
07. "I Got You Babe" (04:41)
(Bobby DeBarge)
08. "Take It To The Top" (03:19)
(Lorenzo Pryor, Mark DeBarge)
09. "Every Time I Think Of You" (04:30)
(James DeBarge)

Exact Audio Copy V1.0 beta 3 from 29. August 2011

EAC extraction logfile from 30. January 2016, 19:56

DeBarge / Bad Boys

Used drive : PIONEER BD-RW BDR-208D Adapter: 1 ID: 0

Read mode : Secure
Utilize accurate stream : Yes
Defeat audio cache : Yes
Make use of C2 pointers : No

Read offset correction : 667
Overread into Lead-In and Lead-Out : No
Fill up missing offset samples with silence : Yes
Delete leading and trailing silent blocks : No
Null samples used in CRC calculations : Yes
Used interface : Native Win32 interface for Win NT & 2000

Used output format : Internal WAV Routines
Sample format : 44.100 Hz; 16 Bit; Stereo


TOC of the extracted CD

Track | Start | Length | Start sector | End sector
––––––––––––––––––––––––––––-
1 | 0:00.00 | 3:42.23 | 0 | 16672
2 | 3:42.23 | 3:34.55 | 16673 | 32777
3 | 7:17.03 | 4:33.42 | 32778 | 53294
4 | 11:50.45 | 3:12.28 | 53295 | 67722
5 | 15:02.73 | 4:26.62 | 67723 | 87734
6 | 19:29.60 | 4:27.15 | 87735 | 107774
7 | 23:57.00 | 4:40.43 | 107775 | 128817
8 | 28:37.43 | 3:19.25 | 128818 | 143767
9 | 31:56.68 | 4:30.25 | 143768 | 164042


Range status and errors

Selected range

Filename D:\BlondStyle\DeBarge - Bad Boys.wav

Peak level 97.6 %
Extraction speed 6.3 X
Range quality 99.9 %
Test CRC 76B66DA6
Copy CRC 76B66DA6
Copy OK

No errors occurred


AccurateRip summary

Track 1 accurately ripped (confidence 1) [E6BD0A76] (AR v2)
Track 2 accurately ripped (confidence 1) [283D2F7F] (AR v2)
Track 3 accurately ripped (confidence 1) [F80D9505] (AR v2)
Track 4 accurately ripped (confidence 1) [D09DEB37] (AR v2)
Track 5 accurately ripped (confidence 1) [0E50F958] (AR v2)
Track 6 accurately ripped (confidence 1) [A0CFFBF5] (AR v2)
Track 7 accurately ripped (confidence 1) [6C6CEE06] (AR v2)
Track 8 accurately ripped (confidence 1) [A51B3F9D] (AR v2)
Track 9 accurately ripped (confidence 1) [E21B0421] (AR v2)

All tracks accurately ripped

End of status report

–– CUETools DB Plugin V2.1.3

[CTDB TOCID: OnevCOkibi_p8tIHBFg1e.1O5GI-] found, Submit result: OnevCOkibi_p8tIHBFg1e.1O5GI- has been confirmed
[f36ff2eb] (1/1) Accurately ripped


==== Log checksum 2CA344384AE200F56B0E339A825B7553B4F0E12BACD9AF92586C48B459EC7FD0 ====

foobar2000 1.3.7 / Dynamic Range Meter 1.1.1
log date: 2016-01-30 20:43:44

––––––––––––––––––––––––––––––––––––––––
Analyzed: DeBarge / Bad Boys
––––––––––––––––––––––––––––––––––––––––

DR Peak RMS Duration Track
––––––––––––––––––––––––––––––––––––––––
DR16 -1.00 dB -18.73 dB 3:42 01-Dance All Night
DR17 -0.21 dB -19.82 dB 3:35 02-We're Havin' Fun
DR14 -5.65 dB -21.70 dB 4:34 03-You're A Big Boy
DR16 -1.12 dB -19.16 dB 3:12 04-You're Not The Only One
DR15 -3.05 dB -20.00 dB 4:27 05-All Over
DR13 -2.00 dB -18.17 dB 4:27 06-Say You Do
DR15 -0.97 dB -20.43 dB 4:41 07-I Got You Babe
DR14 -1.42 dB -18.19 dB 3:19 08-Take It To The Top
DR15 -2.24 dB -19.68 dB 4:30 09-Every Time I Think Of You
––––––––––––––––––––––––––––––––––––––––

Number of tracks: 9
Official DR value: DR15

Samplerate: 44100 Hz
Channels: 2
Bits per sample: 16
Bitrate: 833 kbps
Codec: FLAC
================================================================================
Nitroflare
password: BlondStyle