Subcategories

Michael Jackson / Jackson 5 - Dear Michael: The Motown Collection (2011) [12SHM-CD Box Set]

Posted By: v3122
Michael Jackson / Jackson 5 - Dear Michael: The Motown Collection (2011) [12SHM-CD Box Set]

Michael Jackson / Jackson 5 - Dear Michael: The Motown Collection (2011)
EAC | Flac(Image) + Cue + Log & MP3 CBR 320Kbps
Universal Music, UICY-75070/81 | ~ 6096 or 2650 Mb | Artwork(png) -> 1104 Mb
Pop, Funk, Soul, R&B

The Jackson 5 (stylized as the Jackson 5ive), later known as the Jacksons, is an American pop band composed of members of the Jackson family. The group was founded in 1965 in Gary, Indiana, by brothers Jackie, Tito, and Jermaine, with younger brothers Marlon and Michael joining soon after.

The Jackson 5 performed in talent shows and clubs on the Chitlin' Circuit, then signed with Steeltown Records in 1967 and released two singles. In 1968, they left Steeltown Records and signed with Motown, where they were first group to debut with four consecutive number one hits on the Billboard Hot 100 with the songs "I Want You Back", "ABC", "The Love You Save", and "I'll Be There". They also achieved 16 top-40 singles on the chart. The group left Motown for Epic Records in early 1976, with the exception of Jermaine, who was replaced by Randy. At Epic, they released four studio albums and one live album between 1976 and 1981, including the successful albums Destiny (1978) and Triumph (1980) and the singles "Enjoy Yourself", "Shake Your Body (Down to the Ground)", and "Can You Feel It".

The brothers also released solo albums, most successfully Michael. In 1983, Jermaine reunited with the band to perform on the Motown 25: Yesterday, Today, Forever TV special. They released the Victory album the following year, followed by an extensive tour which also featured songs from Michael's solo albums. After the Victory tour, Michael and Randy Jackson left the group. The remaining four released the poorly received 2300 Jackson Street album in 1989 before being dropped from their label. In 2001, the Jacksons reunited on Michael's 30th Anniversary Celebration TV special. The four eldest of the brothers embarked on their Unity Tour in 2012 following Michael's death, and they planned several major performances for 2017.

The Jackson 5 have sold more than 100 million records worldwide, making them one of the best-selling bands of all time. In 1980 the brothers were honored with a star on the Hollywood Walk of Fame as the Jacksons. They were inducted to the Rock and Roll Hall of Fame in 1997 and the Vocal Group Hall of Fame in 1999. Two of the band's recordings ("ABC" and "I Want You Back") are among the Rock and Roll Hall of Fame's 500 Songs that Shaped Rock and Roll and, alongside "I'll Be There", were also inducted into the Grammy Hall of Fame…

~ wiki
Michael Jackson / Jackson 5 - Dear Michael: The Motown Collection (2011):


Tracklist CD 1 Got To Be There / Ben Hello Wold: The Solo Motown Collection CD1 (UICY-75070):

01. Ain't No Sunshine
02. I Wanna Be Where You Are
03. Girl Don't Take Your Love From Me
04. In Our Small Way
05. Got To Be There
06. Rockin Robin
07. Wings Of My Love
08. Maria (You Were The Only One)
09. Love Is Here And Now You're Gone
10. You've Got A Friend
11. Ben
12. Greatest Show On Earth
13. People Make The World Go 'Round
14. We've Got A Good Thing Going
15. Everybody's Somebody's Fool
16. My Girl
17. What Goes Around Comes Around
18. In Our Small Way
19. Shoo Be Doo Be Doo Da Day
20. You Can Cry On My Shoulder
21. Don't Let It Get You Down
22. You've Really Got A Hold On Me
23. Melodie
24. Touch The One You Love

* Tracks 1-10 from Got To Be There
* Tracks 11-20 from Ben
* Tracks 21 & 23 originally released on Anthology: The Best Of Michael Jackson

Exact Audio Copy V1.0 beta 2 from 29. April 2011

EAC extraction logfile from 2. July 2011, 17:32

Michael Jackson / Got To Be There / Ben

Used drive : HL-DT-STDVDRAM GSA-H60N Adapter: 2 ID: 0

Read mode : Secure
Utilize accurate stream : Yes
Defeat audio cache : Yes
Make use of C2 pointers : No

Read offset correction : 667
Overread into Lead-In and Lead-Out : No
Fill up missing offset samples with silence : Yes
Delete leading and trailing silent blocks : No
Null samples used in CRC calculations : Yes
Used interface : Native Win32 interface for Win NT & 2000

Used output format : Internal WAV Routines
Sample format : 44.100 Hz; 16 Bit; Stereo


TOC of the extracted CD

Track | Start | Length | Start sector | End sector
––––––––––––––––––––––––––––-
1 | 0:00.00 | 4:13.35 | 0 | 19009
2 | 4:13.35 | 3:02.59 | 19010 | 32718
3 | 7:16.19 | 3:51.01 | 32719 | 50044
4 | 11:07.20 | 3:41.70 | 50045 | 66689
5 | 14:49.15 | 3:24.68 | 66690 | 82057
6 | 18:14.08 | 2:34.63 | 82058 | 93670
7 | 20:48.71 | 3:25.02 | 93671 | 109047
8 | 24:13.73 | 3:42.66 | 109048 | 125763
9 | 27:56.64 | 2:54.06 | 125764 | 138819
10 | 30:50.70 | 4:58.72 | 138820 | 161241
11 | 35:49.67 | 2:47.29 | 161242 | 173795
12 | 38:37.21 | 2:49.43 | 173796 | 186513
13 | 41:26.64 | 3:20.40 | 186514 | 201553
14 | 44:47.29 | 3:05.47 | 201554 | 215475
15 | 47:53.01 | 3:01.39 | 215476 | 229089
16 | 50:54.40 | 3:13.09 | 229090 | 243573
17 | 54:07.49 | 3:31.69 | 243574 | 259467
18 | 57:39.43 | 3:45.04 | 259468 | 276346
19 | 61:24.47 | 3:21.63 | 276347 | 291484
20 | 64:46.35 | 2:39.65 | 291485 | 303474
21 | 67:26.25 | 2:49.37 | 303475 | 316186
22 | 70:15.62 | 3:23.35 | 316187 | 331446
23 | 73:39.22 | 3:08.15 | 331447 | 345561
24 | 76:47.37 | 2:50.21 | 345562 | 358332


Range status and errors

Selected range

Filename C:\Documents and Settings\Администратор\Рабочий стол\Rip by ALLexxess\2011 Dear Michael 12 SHM-CD\Disc 1 Got To Be There - Ben\Got To Be There - Ben.wav

Peak level 100.0 %
Extraction speed 6.3 X
Range quality 100.0 %
Test CRC AA42151D
Copy CRC AA42151D
Copy OK

No errors occurred


AccurateRip summary

Track 1 accurately ripped (confidence 2) [DF9D1EA8] (AR v1)
Track 2 accurately ripped (confidence 2) [66D55254] (AR v1)
Track 3 accurately ripped (confidence 2) [2F3CC92E] (AR v1)
Track 4 accurately ripped (confidence 2) [6784F10D] (AR v1)
Track 5 accurately ripped (confidence 2) [0F9496D4] (AR v1)
Track 6 accurately ripped (confidence 2) [780A6298] (AR v1)
Track 7 accurately ripped (confidence 2) [B459F3EB] (AR v1)
Track 8 accurately ripped (confidence 2) [34A3D621] (AR v1)
Track 9 accurately ripped (confidence 2) [EE301B6A] (AR v1)
Track 10 accurately ripped (confidence 2) [06AD60F8] (AR v1)
Track 11 accurately ripped (confidence 2) [F17AF1B0] (AR v1)
Track 12 accurately ripped (confidence 2) [1DBAEC4B] (AR v1)
Track 13 accurately ripped (confidence 2) [F85D5182] (AR v1)
Track 14 accurately ripped (confidence 2) [D2569DC8] (AR v1)
Track 15 accurately ripped (confidence 2) [1CEC27A4] (AR v1)
Track 16 accurately ripped (confidence 2) [306BF304] (AR v1)
Track 17 accurately ripped (confidence 2) [06FCA79E] (AR v1)
Track 18 accurately ripped (confidence 2) [5C55B7C3] (AR v1)
Track 19 accurately ripped (confidence 2) [A21722F6] (AR v1)
Track 20 accurately ripped (confidence 2) [5ED41FFB] (AR v1)
Track 21 accurately ripped (confidence 2) [87903F89] (AR v1)
Track 22 accurately ripped (confidence 2) [7E123533] (AR v1)
Track 23 accurately ripped (confidence 2) [3FDE6535] (AR v1)
Track 24 accurately ripped (confidence 2) [7FEDDA01] (AR v1)

All tracks accurately ripped

End of status report


==== Log checksum 7C3FB3712258019FEF13068DF8AA3E31871F36406CB1B9DC58F3FFF938DF9AC1 ====


[CUETools log; Date: 07.04.2020 19:06:49; Version: 2.1.4]
[AccurateRip ID: 00465d2f-04ba2993-8b12a918] found.
Track [ CRC | V2 ] Status
01 [df9d1ea8|956075f8] (03+04/50) Accurately ripped
02 [66d55254|375904b9] (03+03/48) Accurately ripped
03 [2f3cc92e|92a498f0] (03+03/49) Accurately ripped
04 [6784f10d|420a6a57] (03+03/49) Accurately ripped
05 [0f9496d4|1eb411b9] (03+03/49) Accurately ripped
06 [780a6298|8bbdbd71] (03+03/50) Accurately ripped
07 [b459f3eb|688455c7] (03+03/50) Accurately ripped
08 [34a3d621|1a86aa46] (03+03/50) Accurately ripped
09 [ee301b6a|2fd27790] (03+03/50) Accurately ripped
10 [06ad60f8|796039ac] (03+03/50) Accurately ripped
11 [f17af1b0|57662581] (03+03/50) Accurately ripped
12 [1dbaec4b|300fb488] (03+03/50) Accurately ripped
13 [f85d5182|5479c0ca] (03+03/49) Accurately ripped
14 [d2569dc8|50e1f5dd] (03+03/50) Accurately ripped
15 [1cec27a4|49d62acc] (03+03/48) Accurately ripped
16 [306bf304|de13026f] (03+03/47) Accurately ripped
17 [06fca79e|c92ad094] (03+03/50) Accurately ripped
18 [5c55b7c3|4f8e9f99] (03+03/50) Accurately ripped
19 [a21722f6|9a7fec9e] (03+03/48) Accurately ripped
20 [5ed41ffb|12693fde] (03+03/49) Accurately ripped
21 [87903f89|c4da5b85] (03+03/49) Accurately ripped
22 [7e123533|859a2d84] (03+03/48) Accurately ripped
23 [3fde6535|cee34f0c] (03+03/46) Accurately ripped
24 [7fedda01|86ccf247] (02+03/45) Accurately ripped
Offsetted by 18:
01 [aa45658c] (20/50) Accurately ripped
02 [9e19bdca] (20/48) Accurately ripped
03 [113a3124] (21/49) Accurately ripped
04 [1b6f3d27] (21/49) Accurately ripped
05 [88b46cb0] (20/49) Accurately ripped
06 [95082f9c] (21/50) Accurately ripped
07 [4bc83997] (21/50) Accurately ripped
08 [bd88f1d7] (21/50) Accurately ripped
09 [ad7d4e62] (21/50) Accurately ripped
10 [3cbe8f82] (21/50) Accurately ripped
11 [00f9ca56] (21/50) Accurately ripped
12 [649cbc9d] (21/50) Accurately ripped
13 [ef68f506] (20/49) Accurately ripped
14 [891896c6] (21/50) Accurately ripped
15 [566503b6] (20/48) Accurately ripped
16 [06af1b30] (21/47) Accurately ripped
17 [40b53d4a] (21/50) Accurately ripped
18 [af1c9cf3] (21/50) Accurately ripped
19 [a9e3de4c] (20/48) Accurately ripped
20 [ea2eda93] (20/49) Accurately ripped
21 [31d9c7b1] (20/49) Accurately ripped
22 [46a404df] (18/48) Accurately ripped
23 [d3ddf667] (19/46) Accurately ripped
24 [cf3ec069] (19/45) Accurately ripped

Track Peak [ CRC32 ] [W/O NULL] [ LOG ]
– 100,0 [AA42151D] [CF4453CC] CRC32
01 100,0 [69671B61] [AEC71489]
02 99,1 [0933B5EE] [4EFE2E4F]
03 100,0 [47C234F1] [0C391BC4]
04 99,6 [787E46F1] [74C27199]
05 95,4 [48257E21] [9151A47F]
06 100,0 [2C370AF4] [B04296DB]
07 98,6 [E6C5131C] [1292A199]
08 100,0 [ED007F96] [FF8C2252]
09 98,3 [2F522A80] [59C5E535]
10 99,0 [C350391D] [70677BD3]
11 100,0 [8861716E] [A49D5D6A]
12 89,0 [227FCE73] [8DB233DE]
13 89,0 [259CB1F2] [93EBDD91]
14 88,6 [B2B23070] [FE1B4A7C]
15 89,0 [9B03ABCA] [169B36A1]
16 79,3 [24670AC7] [AA7E869A]
17 79,3 [82C92FB0] [D4C250AC]
18 88,7 [37A6D0C2] [2E8D7732]
19 89,1 [6025948E] [CB349E94]
20 100,0 [6FADCDCE] [29A03594]
21 100,0 [09B9C0F1] [FAEB4760]
22 100,0 [67C57BB9] [26834A88]
23 100,0 [BB811EDF] [5BFEF992]
24 100,0 [3BE94E73] [F0D1940E]


Tracklist CD 2 Music & Me / Forever, Michael Hello Wold: The Solo Motown Collection CD2 (UICY-75071):

01. With A Child's Heart
02. Up Again
03. All The Things You Are
04. Happy (Love Theme From 'Lady Sings The Blues')
05. Too Young
06. Doggin' Around
07. Johnny Raven
08. Euphoria
09. Morning Glow
10. Music And Me
11. We're Almost There
12. Take Me Back
13. One Day In Your Life
14. Cinderella Stay Awhile
15. We've Got Forever
16. Just A Little Bit Of You
17. You Are There
18. Dapper-Dan
19. Dear Michael
20. I'll Come Home To You
21. Girl You're So Together
22. Farewell My Summer Love
23. Call On Me

* Tracks 1-10 from Music & Me
* Tracks 11-20 from Forever, Michael
* Track 23 originally released on Anthology: The Best Of Michael Jackson

Exact Audio Copy V1.0 beta 2 from 29. April 2011

EAC extraction logfile from 2. July 2011, 18:52

Michael Jackson / Music & Me / Forever, Michael

Used drive : HL-DT-STDVDRAM GSA-H60N Adapter: 2 ID: 0

Read mode : Secure
Utilize accurate stream : Yes
Defeat audio cache : Yes
Make use of C2 pointers : No

Read offset correction : 667
Overread into Lead-In and Lead-Out : No
Fill up missing offset samples with silence : Yes
Delete leading and trailing silent blocks : No
Null samples used in CRC calculations : Yes
Used interface : Native Win32 interface for Win NT & 2000

Used output format : Internal WAV Routines
Sample format : 44.100 Hz; 16 Bit; Stereo


TOC of the extracted CD

Track | Start | Length | Start sector | End sector
––––––––––––––––––––––––––––-
1 | 0:00.00 | 3:34.24 | 0 | 16073
2 | 3:34.24 | 2:51.23 | 16074 | 28921
3 | 6:25.47 | 2:59.22 | 28922 | 42368
4 | 9:24.69 | 3:27.62 | 42369 | 57955
5 | 12:52.56 | 3:39.55 | 57956 | 74435
6 | 16:32.36 | 2:54.03 | 74436 | 87488
7 | 19:26.39 | 3:36.61 | 87489 | 103749
8 | 23:03.25 | 2:49.46 | 103750 | 116470
9 | 25:52.71 | 3:38.64 | 116471 | 132884
10 | 29:31.60 | 2:42.39 | 132885 | 145073
11 | 32:14.24 | 3:47.11 | 145074 | 162109
12 | 36:01.35 | 3:30.11 | 162110 | 177870
13 | 39:31.46 | 4:18.12 | 177871 | 197232
14 | 43:49.58 | 3:13.24 | 197233 | 211731
15 | 47:03.07 | 3:12.64 | 211732 | 226195
16 | 50:15.71 | 3:14.54 | 226196 | 240799
17 | 53:30.50 | 3:25.25 | 240800 | 256199
18 | 56:56.00 | 3:12.41 | 256200 | 270640
19 | 60:08.41 | 2:41.47 | 270641 | 282762
20 | 62:50.13 | 3:04.42 | 282763 | 296604
21 | 65:54.55 | 2:59.20 | 296605 | 310049
22 | 68:54.00 | 3:37.22 | 310050 | 326346
23 | 72:31.22 | 3:21.28 | 326347 | 341449


Range status and errors

Selected range

Filename C:\Documents and Settings\Администратор\Рабочий стол\Rip by ALLexxess\2011 Dear Michael 12 SHM-CD\Disc 2 Music & Me - Forever, Michael\Music & Me - Forever, Michael.wav

Peak level 100.0 %
Extraction speed 6.2 X
Range quality 100.0 %
Test CRC C478569A
Copy CRC C478569A
Copy OK

No errors occurred


AccurateRip summary

Track 1 accurately ripped (confidence 19) [B776BCCC] (AR v1)
Track 2 accurately ripped (confidence 19) [9A0222E2] (AR v1)
Track 3 accurately ripped (confidence 20) [7939B60D] (AR v1)
Track 4 accurately ripped (confidence 20) [7A9382E0] (AR v1)
Track 5 accurately ripped (confidence 20) [EB7E063D] (AR v1)
Track 6 accurately ripped (confidence 20) [F63B74E7] (AR v1)
Track 7 accurately ripped (confidence 20) [4ECCA2CC] (AR v1)
Track 8 accurately ripped (confidence 20) [C027CC0B] (AR v1)
Track 9 accurately ripped (confidence 20) [F376EAB3] (AR v1)
Track 10 accurately ripped (confidence 20) [45AE132C] (AR v1)
Track 11 accurately ripped (confidence 20) [3E1BE8E5] (AR v1)
Track 12 accurately ripped (confidence 20) [DB89D42B] (AR v1)
Track 13 accurately ripped (confidence 20) [70CB23E0] (AR v1)
Track 14 accurately ripped (confidence 20) [764C49EE] (AR v1)
Track 15 accurately ripped (confidence 20) [9D0FF1F2] (AR v1)
Track 16 accurately ripped (confidence 19) [2FEEABA5] (AR v1)
Track 17 accurately ripped (confidence 19) [5D4129C7] (AR v1)
Track 18 accurately ripped (confidence 19) [D1B313F6] (AR v1)
Track 19 accurately ripped (confidence 20) [0A08F444] (AR v1)
Track 20 accurately ripped (confidence 20) [37C4C3A0] (AR v1)
Track 21 accurately ripped (confidence 20) [E06A813F] (AR v1)
Track 22 accurately ripped (confidence 20) [D888CF28] (AR v1)
Track 23 accurately ripped (confidence 20) [56151894] (AR v1)

All tracks accurately ripped

End of status report


==== Log checksum 4FC5E981A40F66B6786FB8C84757FAE45BA3B6CAB3EB9E8548D2079983E37AD7 ====


[CUETools log; Date: 07.04.2020 19:10:27; Version: 2.1.4]
[AccurateRip ID: 003ea4d0-041556df-5811c817] found.
Track [ CRC | V2 ] Status
01 [b776bccc|755666d2] (22+26/48) Accurately ripped
02 [9a0222e2|2217f582] (22+26/48) Accurately ripped
03 [7939b60d|dbbd8a60] (23+26/49) Accurately ripped
04 [7a9382e0|54bd1018] (23+26/49) Accurately ripped
05 [eb7e063d|cef78a99] (23+26/49) Accurately ripped
06 [f63b74e7|7896e8ad] (23+25/48) Accurately ripped
07 [4ecca2cc|079264a6] (23+25/48) Accurately ripped
08 [c027cc0b|a6c18ee7] (23+26/49) Accurately ripped
09 [f376eab3|90abd195] (23+26/49) Accurately ripped
10 [45ae132c|b430a4b1] (23+26/49) Accurately ripped
11 [3e1be8e5|0736e0cc] (23+26/49) Accurately ripped
12 [db89d42b|1a1fe10d] (23+26/49) Accurately ripped
13 [70cb23e0|599bac0b] (23+26/49) Accurately ripped
14 [764c49ee|9757e2a4] (23+26/49) Accurately ripped
15 [9d0ff1f2|6cbb9715] (23+26/49) Accurately ripped
16 [2feeaba5|53be0919] (22+26/48) Accurately ripped
17 [5d4129c7|44e7a3e0] (22+26/48) Accurately ripped
18 [d1b313f6|95820e1c] (22+26/48) Accurately ripped
19 [0a08f444|cede279c] (23+25/48) Accurately ripped
20 [37c4c3a0|2b14cfe2] (23+25/48) Accurately ripped
21 [e06a813f|b81dfb4e] (23+25/48) Accurately ripped
22 [d888cf28|8cd1e141] (23+24/47) Accurately ripped
23 [56151894|e948697f] (22+26/48) Accurately ripped

Track Peak [ CRC32 ] [W/O NULL] [ LOG ]
– 100,0 [C478569A] [02537A43] CRC32
01 99,1 [CA0896C6] [2B85DD37]
02 100,0 [96AFC751] [D4DF8160]
03 100,0 [3CC71976] [6BF4CC05]
04 100,0 [368CBE30] [0322EDE8]
05 98,8 [18108397] [A28AD3FE]
06 100,0 [D3D190E4] [A7B6ECC5]
07 94,3 [3F00E96B] [E6D98E8E]
08 100,0 [249CAA3E] [4600AFE6]
09 99,9 [714819D6] [0C137733]
10 100,0 [060FF91E] [F25C26D6]
11 99,5 [31918E5C] [FCD3E8F0]
12 99,7 [CB880E4C] [84DB9A16]
13 100,0 [C0D2D53E] [A664D4D0]
14 99,0 [BA85827D] [1C579467]
15 98,9 [14EDD7DC] [A68DEE4A]
16 99,9 [695652A6] [EAB298F4]
17 100,0 [F31FDB5E] [3780AF5F]
18 89,0 [88112AB8] [7702B5A7]
19 100,0 [F6C2ACBA] [278738DF]
20 98,4 [AEBFD480] [FD819ACC]
21 100,0 [8020AF26] [D74420E8]
22 100,0 [9AC71F30] [51485B0C]
23 95,0 [BAE7A323] [7134FBCA]


Tracklist CD 3 Looking Back To Yesterday / Farewell My Summer Love Hello Wold: The Solo Motown Collection CD3 (UICY-75072):

01. When I Come Of Age
02. Teenage Symphony
03. I Hear A Symphony
04. Give Me Half A Chance
05. Love's Gone Bad
06. Lonely Teardrops
07. You're Good For Me
08. That's What Love Is Made Of
09. I Like You The Way You Are (Don't Change Your Love On Me)
10. Who's Looking For A Lover
11. I Was Made To Love Her
12. If 'N I Was God
13. To Make My Father Proud
14. Here I Am (Come And Take Me)
15. Twenty Five Miles
16. Don't Let It Get You Down
17. You've Really Got A Hold On Me
18. Melodie
19. Touch The One You Love
20. Girl You're So Together
21. Farewell My Summer Love
22. Call On Me
23. Here I Am (Come And Take Me)
24. To Make My Father Proud

* Tracks 1-12 from Looking Back To Yesterday
* Track 15 released in remixed form on The Original Soul Of Michael Jackson
* Tracks 16-24 from Farewell My Summer Love

Exact Audio Copy V1.0 beta 2 from 29. April 2011

EAC extraction logfile from 3. July 2011, 0:59

Michael Jackson / Looking Back To Yesterday / Farewell My Summer Love

Used drive : HL-DT-STDVDRAM GSA-H60N Adapter: 2 ID: 0

Read mode : Secure
Utilize accurate stream : Yes
Defeat audio cache : Yes
Make use of C2 pointers : No

Read offset correction : 667
Overread into Lead-In and Lead-Out : No
Fill up missing offset samples with silence : Yes
Delete leading and trailing silent blocks : No
Null samples used in CRC calculations : Yes
Used interface : Native Win32 interface for Win NT & 2000

Used output format : Internal WAV Routines
Sample format : 44.100 Hz; 16 Bit; Stereo


TOC of the extracted CD

Track | Start | Length | Start sector | End sector
––––––––––––––––––––––––––––-
1 | 0:00.00 | 2:40.70 | 0 | 12069
2 | 2:40.70 | 2:47.63 | 12070 | 24657
3 | 5:28.58 | 3:04.06 | 24658 | 38463
4 | 8:32.64 | 3:25.60 | 38464 | 53898
5 | 11:58.49 | 3:11.53 | 53899 | 68276
6 | 15:10.27 | 2:41.74 | 68277 | 80425
7 | 17:52.26 | 3:17.25 | 80426 | 95225
8 | 21:09.51 | 3:25.37 | 95226 | 110637
9 | 24:35.13 | 2:58.06 | 110638 | 123993
10 | 27:33.19 | 2:52.11 | 123994 | 136904
11 | 30:25.30 | 3:20.26 | 136905 | 151930
12 | 33:45.56 | 3:05.48 | 151931 | 165853
13 | 36:51.29 | 4:05.39 | 165854 | 184267
14 | 40:56.68 | 2:50.11 | 184268 | 197028
15 | 43:47.04 | 3:17.39 | 197029 | 211842
16 | 47:04.43 | 3:02.29 | 211843 | 225521
17 | 50:06.72 | 3:30.23 | 225522 | 241294
18 | 53:37.20 | 3:23.60 | 241295 | 256579
19 | 57:01.05 | 2:47.62 | 256580 | 269166
20 | 59:48.67 | 3:11.55 | 269167 | 283546
21 | 63:00.47 | 4:23.74 | 283547 | 303345
22 | 67:24.46 | 3:39.10 | 303346 | 319780
23 | 71:03.56 | 2:56.10 | 319781 | 332990
24 | 73:59.66 | 4:04.33 | 332991 | 351323


Range status and errors

Selected range

Filename C:\Documents and Settings\Администратор\Рабочий стол\Rip by ALLexxess\2011 Dear Michael 12 SHM-CD\Disc 3 Looking Back To Yesterday - Farewell My Summer Love\Looking Back To Yesterday - Farewell My Summer Love.wav

Peak level 100.0 %
Extraction speed 6.3 X
Range quality 100.0 %
Test CRC 9DDFB000
Copy CRC 9DDFB000
Copy OK

No errors occurred


AccurateRip summary

Track 1 accurately ripped (confidence 2) [A1661D79] (AR v1)
Track 2 accurately ripped (confidence 2) [7E0809D4] (AR v1)
Track 3 accurately ripped (confidence 2) [DC071F46] (AR v1)
Track 4 accurately ripped (confidence 2) [6E847A50] (AR v1)
Track 5 accurately ripped (confidence 2) [1C06D352] (AR v1)
Track 6 accurately ripped (confidence 2) [1A12FD9D] (AR v1)
Track 7 accurately ripped (confidence 2) [35041638] (AR v1)
Track 8 accurately ripped (confidence 2) [3777F9E4] (AR v1)
Track 9 accurately ripped (confidence 2) [9E4D8EC4] (AR v1)
Track 10 cannot be verified as accurate (confidence 2) [5E384864], AccurateRip returned [21D0D04C] (AR v2)
Track 11 accurately ripped (confidence 2) [5BF3C838] (AR v1)
Track 12 accurately ripped (confidence 2) [B3A52186] (AR v1)
Track 13 accurately ripped (confidence 2) [465C22EB] (AR v1)
Track 14 accurately ripped (confidence 2) [CA56FB14] (AR v1)
Track 15 accurately ripped (confidence 2) [1131D6F6] (AR v1)
Track 16 accurately ripped (confidence 2) [60EB8AA0] (AR v1)
Track 17 accurately ripped (confidence 2) [0D17BA47] (AR v1)
Track 18 accurately ripped (confidence 2) [CDA62A45] (AR v1)
Track 19 accurately ripped (confidence 2) [7A82CDC0] (AR v1)
Track 20 accurately ripped (confidence 2) [763BFD18] (AR v1)
Track 21 accurately ripped (confidence 2) [8381317B] (AR v1)
Track 22 accurately ripped (confidence 2) [FA5B6546] (AR v1)
Track 23 accurately ripped (confidence 2) [45D39710] (AR v1)
Track 24 accurately ripped (confidence 2) [68805AAC] (AR v1)

23 track(s) accurately ripped
1 track(s) could not be verified as accurate

Some tracks could not be verified as accurate

End of status report


==== Log checksum 8BF14055B0419C0DB27A76A00D43623E0981C19E797D52A12CC50E95619150CE ====


[CUETools log; Date: 07.04.2020 19:14:29; Version: 2.1.4]
[AccurateRip ID: 0040aebb-046a9992-40124c18] found.
Track [ CRC | V2 ] Status
01 [a1661d79|ba300d1b] (3+3/6) Accurately ripped
02 [7e0809d4|a8ab6fa2] (2+3/5) Accurately ripped
03 [dc071f46|b20fe34e] (3+3/6) Accurately ripped
04 [6e847a50|e58415ff] (3+3/6) Accurately ripped
05 [1c06d352|7ba57dbe] (3+3/6) Accurately ripped
06 [1a12fd9d|24e1d5df] (2+3/5) Accurately ripped
07 [35041638|27141258] (3+3/6) Accurately ripped
08 [3777f9e4|164d50e7] (3+3/6) Accurately ripped
09 [9e4d8ec4|b92c27ee] (3+3/6) Accurately ripped
10 [53faea60|5e384864] (0+0/5) No match
11 [5bf3c838|ddc46841] (3+3/6) Accurately ripped
12 [b3a52186|4e057bbf] (3+3/6) Accurately ripped
13 [465c22eb|05ca4d3d] (3+3/6) Accurately ripped
14 [ca56fb14|fe0b54d5] (3+3/6) Accurately ripped
15 [1131d6f6|19acc501] (3+3/6) Accurately ripped
16 [60eb8aa0|19ffab68] (3+3/6) Accurately ripped
17 [0d17ba47|60abcad0] (3+3/6) Accurately ripped
18 [cda62a45|924d9065] (3+3/6) Accurately ripped
19 [7a82cdc0|52fae053] (3+3/6) Accurately ripped
20 [763bfd18|6e26405b] (2+3/5) Accurately ripped
21 [8381317b|15417841] (3+3/6) Accurately ripped
22 [fa5b6546|19f4f00d] (3+3/6) Accurately ripped
23 [45d39710|42b0770c] (3+3/6) Accurately ripped
24 [68805aac|d82f48da] (3+3/6) Accurately ripped

Track Peak [ CRC32 ] [W/O NULL] [ LOG ]
– 100,0 [9DDFB000] [C6D259F7] CRC32
01 98,7 [E77F0077] [C5290F5D]
02 100,0 [55A3FD7C] [946DBC7A]
03 100,0 [C08E6D9B] [8F5B5586]
04 100,0 [95F3D854] [4789B6AF]
05 100,0 [7DBBE59B] [8D9257FC]
06 98,9 [BBB9255C] [30FFA6B6]
07 100,0 [D889222B] [A97D201A]
08 100,0 [C8F2A8EC] [760D66AB]
09 100,0 [A800D640] [7F83BBE4]
10 100,0 [1DABD1AE] [B53BA29C]
11 97,4 [B78D7BDA] [EB843466]
12 100,0 [F883ABEF] [1D53BD67]
13 100,0 [67178CBF] [EADB2973]
14 100,0 [508A95D9] [2AFD16D3]
15 100,0 [9A3061F0] [22704E77]
16 99,6 [ACB3E9BC] [7AACAC43]
17 100,0 [6541EE18] [DC76BF29]
18 99,3 [1CA789C6] [93BB1FEE]
19 100,0 [150FFD0A] [58FA4FE2]
20 97,9 [51B06441] [9392329E]
21 100,0 [24BC60E0] [A4D53D0C]
22 100,0 [D67E9478] [D9035CE3]
23 100,0 [5D243D68] [A96416BE]
24 95,7 [8E1C8DE6] [B1E2C2C5]


Tracklist CD 4 Diana Ross Presents The Jackson 5 / ABC (UICY-75073):

01. Zip A Dee Doo Dah
02. Nobody
03. I Want You Back
04. Can You Remember
05. Standing In The Shadows Of Love
06. You've Changed
07. My Cherie Amour
08. Who's Lovin' You
09. Chained
10. (I Know) I'm Losing You
11. Stand!
12. Born To Love You
13. The Love You Save
14. One More Chance
15. ABC
16. 2-4-6-8
17. (Come 'Round Here) I'm The One You Need
18. Don't Know Why I Love You
19. Never Had A Dream Come True
20. True Love Can Be Beautiful
21. La La (Means I Love You)
22. I'll Bet You
23. I Found That Girl
24. The Young Folks
25. Oh, I've Been Bless'd

Exact Audio Copy V1.0 beta 2 from 29. April 2011

EAC extraction logfile from 2. July 2011, 23:14

The Jackson 5 / Diana Ross Presents The Jackson 5 / ABC

Used drive : HL-DT-STDVDRAM GSA-H60N Adapter: 2 ID: 0

Read mode : Secure
Utilize accurate stream : Yes
Defeat audio cache : Yes
Make use of C2 pointers : No

Read offset correction : 667
Overread into Lead-In and Lead-Out : No
Fill up missing offset samples with silence : Yes
Delete leading and trailing silent blocks : No
Null samples used in CRC calculations : Yes
Used interface : Native Win32 interface for Win NT & 2000

Used output format : Internal WAV Routines
Sample format : 44.100 Hz; 16 Bit; Stereo


TOC of the extracted CD

Track | Start | Length | Start sector | End sector
––––––––––––––––––––––––––––-
1 | 0:00.00 | 3:17.62 | 0 | 14836
2 | 3:17.62 | 2:53.28 | 14837 | 27839
3 | 6:11.15 | 3:03.60 | 27840 | 41624
4 | 9:15.00 | 3:10.32 | 41625 | 55906
5 | 12:25.32 | 4:05.03 | 55907 | 74284
6 | 16:30.35 | 3:16.02 | 74285 | 88986
7 | 19:46.37 | 3:44.05 | 88987 | 105791
8 | 23:30.42 | 4:05.28 | 105792 | 124194
9 | 27:35.70 | 2:54.22 | 124195 | 137266
10 | 30:30.17 | 2:16.40 | 137267 | 147506
11 | 32:46.57 | 2:38.00 | 147507 | 159356
12 | 35:24.57 | 2:30.63 | 159357 | 170669
13 | 37:55.45 | 3:01.30 | 170670 | 184274
14 | 40:57.00 | 2:59.02 | 184275 | 197701
15 | 43:56.02 | 2:57.28 | 197702 | 211004
16 | 46:53.30 | 2:57.40 | 211005 | 224319
17 | 49:50.70 | 2:43.05 | 224320 | 236549
18 | 52:34.00 | 3:49.02 | 236550 | 253726
19 | 56:23.02 | 3:00.53 | 253727 | 267279
20 | 59:23.55 | 3:27.10 | 267280 | 282814
21 | 62:50.65 | 3:30.35 | 282815 | 298599
22 | 66:21.25 | 3:18.40 | 298600 | 313489
23 | 69:39.65 | 3:00.00 | 313490 | 326989
24 | 72:39.65 | 2:53.02 | 326990 | 339966
25 | 75:32.67 | 2:50.18 | 339967 | 352734


Range status and errors

Selected range

Filename C:\Documents and Settings\Администратор\Рабочий стол\Rip by ALLexxess\2011 Dear Michael 12 SHM-CD\Disc 4 Diana Ross Presents The Jackson 5 - ABC\Diana Ross Presents - ABC.wav

Peak level 100.0 %
Extraction speed 6.2 X
Range quality 99.9 %
Test CRC 4C46A838
Copy CRC 4C46A838
Copy OK

No errors occurred


AccurateRip summary

Track 1 cannot be verified as accurate (confidence 13) [1CC57317], AccurateRip returned [833C75F1] (AR v2)
Track 2 cannot be verified as accurate (confidence 13) [FE162674], AccurateRip returned [74D95A70] (AR v2)
Track 3 cannot be verified as accurate (confidence 13) [F25CCA5D], AccurateRip returned [F683A9A2] (AR v2)
Track 4 cannot be verified as accurate (confidence 13) [938B07AB], AccurateRip returned [C8D84BE8] (AR v2)
Track 5 cannot be verified as accurate (confidence 13) [FD4D6336], AccurateRip returned [31AB49E8] (AR v2)
Track 6 cannot be verified as accurate (confidence 13) [6C931C17], AccurateRip returned [EB286A85] (AR v2)
Track 7 cannot be verified as accurate (confidence 13) [7EA84DEF], AccurateRip returned [9D0747CF] (AR v2)
Track 8 cannot be verified as accurate (confidence 13) [C0BD2FB9], AccurateRip returned [7FF74E12] (AR v2)
Track 9 cannot be verified as accurate (confidence 13) [647F915D], AccurateRip returned [5257BD3B] (AR v2)
Track 10 cannot be verified as accurate (confidence 13) [B2402593], AccurateRip returned [9B0D2E0C] (AR v2)
Track 11 cannot be verified as accurate (confidence 13) [1AB4B42A], AccurateRip returned [EA78DA31] (AR v2)
Track 12 cannot be verified as accurate (confidence 13) [CC6AABA8], AccurateRip returned [F2CA9E70] (AR v2)
Track 13 cannot be verified as accurate (confidence 13) [F6037BF2], AccurateRip returned [F39BB3F4] (AR v2)
Track 14 cannot be verified as accurate (confidence 13) [B122B3B3], AccurateRip returned [8CDFF25A] (AR v2)
Track 15 cannot be verified as accurate (confidence 13) [D7FC17D7], AccurateRip returned [A2D1FF32] (AR v2)
Track 16 cannot be verified as accurate (confidence 13) [0DC7A7AD], AccurateRip returned [A418D6D6] (AR v2)
Track 17 cannot be verified as accurate (confidence 13) [EE858D59], AccurateRip returned [69BD16B5] (AR v2)
Track 18 cannot be verified as accurate (confidence 13) [08E58A70], AccurateRip returned [BBEEEFD6] (AR v2)
Track 19 cannot be verified as accurate (confidence 13) [E9A885A0], AccurateRip returned [F6FF0DFF] (AR v2)
Track 20 cannot be verified as accurate (confidence 13) [5CC98FB5], AccurateRip returned [4A0BFEC3] (AR v2)
Track 21 cannot be verified as accurate (confidence 13) [E408749C], AccurateRip returned [14640BF1] (AR v2)
Track 22 cannot be verified as accurate (confidence 13) [21D516C9], AccurateRip returned [E026782C] (AR v2)
Track 23 cannot be verified as accurate (confidence 13) [7BB15E2F], AccurateRip returned [F18EE3A1] (AR v2)
Track 24 cannot be verified as accurate (confidence 13) [9325BF14], AccurateRip returned [004C75A7] (AR v2)
Track 25 cannot be verified as accurate (confidence 12) [7DA173D6], AccurateRip returned [1E71E8DA] (AR v2)

No tracks could be verified as accurate
You may have a different pressing from the one(s) in the database

End of status report


==== Log checksum F4914FB0EC12EC2B91C132ABF67E4341809326D26159F11857F86C67FDE60680 ====


[CUETools log; Date: 07.04.2020 19:18:35; Version: 2.1.4]
[AccurateRip ID: 0046c41d-04f43828-a2125f19] found.
Track [ CRC | V2 ] Status
01 [3dfe17fb|1cc57317] (02+03/34) Accurately ripped
02 [762cd300|fe162674] (02+03/33) Accurately ripped
03 [78d39368|f25cca5d] (02+03/32) Accurately ripped
04 [0cb6e5e2|938b07ab] (02+03/32) Accurately ripped
05 [04b3e2f2|fd4d6336] (00+03/30) Accurately ripped
06 [8ba67163|6c931c17] (02+03/32) Accurately ripped
07 [06235a33|7ea84def] (02+03/32) Accurately ripped
08 [fec4925e|c0bd2fb9] (02+03/32) Accurately ripped
09 [f2a1db73|647f915d] (00+03/31) Accurately ripped
10 [5556d460|b2402593] (02+03/32) Accurately ripped
11 [31ff44cd|1ab4b42a] (00+03/31) Accurately ripped
12 [ac5ff6de|cc6aaba8] (02+03/33) Accurately ripped
13 [268bf75c|f6037bf2] (02+03/32) Accurately ripped
14 [bf828c4c|b122b3b3] (02+03/32) Accurately ripped
15 [90d8478c|d7fc17d7] (02+03/32) Accurately ripped
16 [90745760|0dc7a7ad] (02+03/32) Accurately ripped
17 [2dbb1f4d|ee858d59] (02+03/32) Accurately ripped
18 [9568bbde|08e58a70] (02+03/32) Accurately ripped
19 [0ec2dafb|e9a885a0] (02+03/32) Accurately ripped
20 [cc3baeef|5cc98fb5] (02+02/31) Accurately ripped
21 [5fe3d247|e408749c] (02+03/31) Accurately ripped
22 [7c40d016|21d516c9] (02+02/30) Accurately ripped
23 [b2262475|7bb15e2f] (00+03/29) Accurately ripped
24 [7b33aed5|9325bf14] (02+03/29) Accurately ripped
25 [bc4705ce|7da173d6] (02+03/29) Accurately ripped
Offsetted by -1205:
01 [9b323ff2] (02/34) Accurately ripped
02 [5e1f0818] (02/33) Accurately ripped
03 [85586269] (02/32) Accurately ripped
04 [f76ab381] (02/32) Accurately ripped
05 [5cac7969] (02/30) Accurately ripped
06 [55a14568] (02/32) Accurately ripped
07 [075fbed9] (02/32) Accurately ripped
08 [89d24480] (02/32) Accurately ripped
09 [fe0e22a7] (02/31) Accurately ripped
10 [0b0eb8ae] (02/32) Accurately ripped
11 [f3cfefa7] (02/31) Accurately ripped
12 [695a097b] (02/33) Accurately ripped
13 [1ed67518] (02/32) Accurately ripped
14 [c91802bf] (02/32) Accurately ripped
15 [5bdea83b] (02/32) Accurately ripped
16 [800a7717] (02/32) Accurately ripped
17 [4109c391] (02/32) Accurately ripped
18 [01e5750a] (02/32) Accurately ripped
19 [5062f6e5] (02/32) Accurately ripped
20 [0eebd661] (02/31) Accurately ripped
21 [76567c60] (02/31) Accurately ripped
22 [9546c45d] (02/30) Accurately ripped
23 [a4b90a83] (02/29) Accurately ripped
24 [75bc3d92] (02/29) Accurately ripped
25 [8db8028c] (02/29) Accurately ripped
Offsetted by -258:
01 [833c75f1] (15/34) Accurately ripped
02 [74d95a70] (15/33) Accurately ripped
03 [f683a9a2] (15/32) Accurately ripped
04 [c8d84be8] (15/32) Accurately ripped
05 [31ab49e8] (15/30) Accurately ripped
06 [eb286a85] (15/32) Accurately ripped
07 [9d0747cf] (15/32) Accurately ripped
08 [7ff74e12] (15/32) Accurately ripped
09 [5257bd3b] (15/31) Accurately ripped
10 [9b0d2e0c] (15/32) Accurately ripped
11 [ea78da31] (15/31) Accurately ripped
12 [f2ca9e70] (15/33) Accurately ripped
13 [f39bb3f4] (15/32) Accurately ripped
14 [8cdff25a] (15/32) Accurately ripped
15 [a2d1ff32] (15/32) Accurately ripped
16 [a418d6d6] (15/32) Accurately ripped
17 [69bd16b5] (15/32) Accurately ripped
18 [bbeeefd6] (15/32) Accurately ripped
19 [f6ff0dff] (15/32) Accurately ripped
20 [4a0bfec3] (15/31) Accurately ripped
21 [14640bf1] (15/31) Accurately ripped
22 [e026782c] (15/30) Accurately ripped
23 [f18ee3a1] (15/29) Accurately ripped
24 [004c75a7] (15/29) Accurately ripped
25 [1e71e8da] (14/29) Accurately ripped

Track Peak [ CRC32 ] [W/O NULL] [ LOG ]
– 99,9 [4C46A838] [08DC2571] CRC32
01 99,9 [2261AED3] [9027E7A9]
02 89,7 [7027B411] [FC89C48D]
03 99,9 [353D9468] [A25E2A20]
04 98,3 [FCEA5C0B] [3EA6E91B]
05 99,9 [E9500516] [D744D01A]
06 88,7 [145573BC] [0D5888BF]
07 94,3 [779F84CF] [57732FB7]
08 88,6 [CB2D5C8B] [36AD2816]
09 94,4 [B40D76B1] [52D7DE4D]
10 91,2 [78853062] [EE430794]
11 94,4 [925E9EFF] [D8404E46]
12 99,9 [E67F3244] [DBA3DB38]
13 99,9 [FF428D96] [5670A87E]
14 83,1 [8196C747] [AE6A9546]
15 99,0 [8E6FEF74] [21E9A653]
16 99,9 [4E6E9011] [4DA1D0A6]
17 73,2 [B8104614] [A54E19C3]
18 99,9 [124EB3E2] [E0D7F855]
19 79,9 [0132AC3E] [4DE207AD]
20 84,0 [BFCAF6A1] [95816F7E]
21 96,8 [1B965EF9] [626E204B]
22 99,9 [254E9A6C] [5AED3DD2]
23 76,2 [7B4E9466] [A9433C0A]
24 88,6 [9A5B6DE4] [8CF35DC1]
25 99,9 [EB38C0DE] [33CE984A]


Tracklist CD 5 Third Album / Maybe Tomorrow (UICY-75074):

01. I'll Be There
02. Ready Or Not (Here I Come)
03. Oh How Happy
04. Bridge Over Troubled Water
05. Can I See You In The Morning
06. Goin' Back To Indiana
07. How Funky Is Your Chicken
08. Mama's Pearl
09. Reach In
10. The Love I Saw In You Was Just A Mirage
11. Darling Dear
12. Maybe Tomorrow
13. She's Good
14. Never Can Say Goodbye
15. The Wall
16. Petals
17. 16 Candles
18. (We've Got) Blue Skies
19. My Little Baby
20. It's Great To Be Here
21. Honey Chile
22. I Will Find A Way
23. Sugar Daddy
24. I'm So Happy

Exact Audio Copy V1.0 beta 2 from 29. April 2011

EAC extraction logfile from 3. July 2011, 12:16

Jackson 5 / Third Album / Maybe Tomorrow

Used drive : HL-DT-STDVDRAM GSA-H60N Adapter: 2 ID: 0

Read mode : Secure
Utilize accurate stream : Yes
Defeat audio cache : Yes
Make use of C2 pointers : No

Read offset correction : 667
Overread into Lead-In and Lead-Out : No
Fill up missing offset samples with silence : Yes
Delete leading and trailing silent blocks : No
Null samples used in CRC calculations : Yes
Used interface : Native Win32 interface for Win NT & 2000

Used output format : Internal WAV Routines
Sample format : 44.100 Hz; 16 Bit; Stereo


TOC of the extracted CD

Track | Start | Length | Start sector | End sector
––––––––––––––––––––––––––––-
1 | 0:00.00 | 3:59.70 | 0 | 17994
2 | 3:59.70 | 2:34.50 | 17995 | 29594
3 | 6:34.45 | 2:16.52 | 29595 | 39846
4 | 8:51.22 | 5:52.55 | 39847 | 66301
5 | 14:44.02 | 3:09.60 | 66302 | 80536
6 | 17:53.62 | 3:32.43 | 80537 | 96479
7 | 21:26.30 | 2:41.65 | 96480 | 108619
8 | 24:08.20 | 3:09.00 | 108620 | 122794
9 | 27:17.20 | 3:28.70 | 122795 | 138464
10 | 30:46.15 | 4:22.20 | 138465 | 158134
11 | 35:08.35 | 2:40.42 | 158135 | 170176
12 | 37:49.02 | 4:47.73 | 170177 | 191774
13 | 42:37.00 | 3:04.57 | 191775 | 205631
14 | 45:41.57 | 3:02.58 | 205632 | 219339
15 | 48:44.40 | 3:06.07 | 219340 | 233296
16 | 51:50.47 | 2:37.08 | 233297 | 245079
17 | 54:27.55 | 2:56.30 | 245080 | 258309
18 | 57:24.10 | 3:26.65 | 258310 | 273824
19 | 60:51.00 | 3:08.12 | 273825 | 287936
20 | 63:59.12 | 3:13.28 | 287937 | 302439
21 | 67:12.40 | 2:48.67 | 302440 | 315106
22 | 70:01.32 | 3:03.43 | 315107 | 328874
23 | 73:05.00 | 2:34.20 | 328875 | 340444
24 | 75:39.20 | 2:45.52 | 340445 | 352871


Range status and errors

Selected range

Filename C:\Documents and Settings\Администратор\Рабочий стол\Rip by ALLexxess\2011 Dear Michael 12 SHM-CD\Disc 5 Third Album - Maybe Tomorrow\Third Album - Maybe Tomorrow.wav

Peak level 100.0 %
Extraction speed 6.3 X
Range quality 100.0 %
Test CRC ACF6B78C
Copy CRC ACF6B78C
Copy OK

No errors occurred


AccurateRip summary

Track 1 accurately ripped (confidence 2) [3D07C196] (AR v1)
Track 2 accurately ripped (confidence 2) [034EDA3B] (AR v1)
Track 3 accurately ripped (confidence 2) [42045A6A] (AR v1)
Track 4 accurately ripped (confidence 2) [C4FF5622] (AR v1)
Track 5 accurately ripped (confidence 2) [142FF5A9] (AR v1)
Track 6 accurately ripped (confidence 2) [D8E8432D] (AR v1)
Track 7 accurately ripped (confidence 2) [734447A8] (AR v1)
Track 8 accurately ripped (confidence 2) [A76ECDF4] (AR v1)
Track 9 accurately ripped (confidence 2) [BF2894EA] (AR v1)
Track 10 accurately ripped (confidence 2) [A3AB950B] (AR v1)
Track 11 accurately ripped (confidence 2) [039BD194] (AR v1)
Track 12 accurately ripped (confidence 2) [7C6093DE] (AR v1)
Track 13 accurately ripped (confidence 2) [2A771728] (AR v1)
Track 14 accurately ripped (confidence 2) [D158B1E1] (AR v1)
Track 15 accurately ripped (confidence 2) [3808A7DF] (AR v1)
Track 16 accurately ripped (confidence 2) [CA660107] (AR v1)
Track 17 accurately ripped (confidence 2) [24600760] (AR v1)
Track 18 accurately ripped (confidence 2) [9F9FB4AE] (AR v1)
Track 19 accurately ripped (confidence 2) [C3D51274] (AR v1)
Track 20 accurately ripped (confidence 2) [A06AC079] (AR v1)
Track 21 accurately ripped (confidence 2) [FDCF380B] (AR v1)
Track 22 accurately ripped (confidence 2) [36D4FC48] (AR v1)
Track 23 accurately ripped (confidence 2) [992F5B66] (AR v1)
Track 24 accurately ripped (confidence 2) [C4AA165F] (AR v1)

All tracks accurately ripped

End of status report


==== Log checksum 84852F27DDE4CF117E1941CAAFED76D18A6012817CB5D90A588868B9E3CE8B42 ====


[CUETools log; Date: 07.04.2020 19:22:13; Version: 2.1.4]
[AccurateRip ID: 0045f1cb-04b4546f-5c126018] found.
Track [ CRC | V2 ] Status
01 [3d07c196|f92542b7] (2+2/6) Accurately ripped
02 [034eda3b|a02aacf5] (2+3/7) Accurately ripped
03 [42045a6a|aba4ed43] (2+3/7) Accurately ripped
04 [c4ff5622|e32ae651] (2+3/7) Accurately ripped
05 [142ff5a9|525b11bc] (2+3/7) Accurately ripped
06 [d8e8432d|af5d206d] (2+3/7) Accurately ripped
07 [734447a8|7739ee17] (2+3/7) Accurately ripped
08 [a76ecdf4|63b75307] (2+3/7) Accurately ripped
09 [bf2894ea|50294080] (2+3/7) Accurately ripped
10 [a3ab950b|c383b57c] (2+3/7) Accurately ripped
11 [039bd194|17afdfae] (2+3/7) Accurately ripped
12 [7c6093de|db3b1c60] (2+3/7) Accurately ripped
13 [2a771728|bf13efc7] (2+3/7) Accurately ripped
14 [d158b1e1|f26e44fd] (2+3/7) Accurately ripped
15 [3808a7df|426157bb] (2+3/7) Accurately ripped
16 [ca660107|906ca635] (2+3/7) Accurately ripped
17 [24600760|4ee81ebe] (2+3/7) Accurately ripped
18 [9f9fb4ae|1f30c197] (2+2/6) Accurately ripped
19 [c3d51274|d64aaf52] (2+2/6) Accurately ripped
20 [a06ac079|98a3f4f2] (2+3/7) Accurately ripped
21 [fdcf380b|c3f090fd] (2+3/7) Accurately ripped
22 [36d4fc48|e2a64bcc] (2+3/7) Accurately ripped
23 [992f5b66|ea65e964] (2+3/7) Accurately ripped
24 [c4aa165f|f6bc4301] (2+3/7) Accurately ripped
Offsetted by -706:
01 [9696d1c4] (2/6) Accurately ripped
02 [de25015f] (2/7) Accurately ripped
03 [74abd15e] (2/7) Accurately ripped
04 [1d64b3d6] (2/7) Accurately ripped
05 [f1a38ef9] (2/7) Accurately ripped
06 [2f3e5f2d] (2/7) Accurately ripped
07 [3d29c4da] (2/7) Accurately ripped
08 [b7d534ac] (2/7) Accurately ripped
09 [5a21ecce] (2/7) Accurately ripped
10 [26a64721] (2/7) Accurately ripped
11 [e6276884] (2/7) Accurately ripped
12 [d3fe11d0] (2/7) Accurately ripped
13 [c413ef94] (2/7) Accurately ripped
14 [4cebfa9b] (2/7) Accurately ripped
15 [11a8465b] (2/7) Accurately ripped
16 [83f03a35] (2/7) Accurately ripped
17 [06c937e6] (2/7) Accurately ripped
18 [3d6326ac] (2/6) Accurately ripped
19 [6da7f3c6] (2/6) Accurately ripped
20 [573f03f7] (2/7) Accurately ripped
21 [8d61344d] (2/7) Accurately ripped
22 [d6860ea4] (2/7) Accurately ripped
23 [6050a586] (2/7) Accurately ripped
24 [0765f9eb] (2/7) Accurately ripped

Track Peak [ CRC32 ] [W/O NULL] [ LOG ]
– 99,9 [ACF6B78C] [6F5153D4] CRC32
01 97,2 [BA3A66A7] [1C188DF1]
02 94,4 [40C208F4] [6BDE9A88]
03 92,2 [CBF34D63] [2EE9C222]
04 86,5 [779D17A4] [10AA56C3]
05 99,9 [ED3F9A10] [E6106B07]
06 94,4 [6B22890B] [FCD084A0]
07 96,6 [DC34772B] [728780F5]
08 94,4 [7909494D] [65832EB3]
09 99,9 [44B98873] [93C4798E]
10 83,4 [728A3840] [61AA752D]
11 88,5 [1EAB8BF7] [EC39C5DC]
12 88,8 [34573C00] [785310E0]
13 91,2 [0D2E3E02] [770038F8]
14 78,7 [60C1596D] [67EF360F]
15 99,9 [2DBB1C44] [F33AF565]
16 99,9 [2B97405C] [D0B08D87]
17 99,9 [FDF263DA] [EF6EB137]
18 99,9 [B7C9EBCF] [371B2C2D]
19 99,9 [55535F57] [1E10B6AE]
20 94,4 [F0C6FEEE] [CD5411CF]
21 99,9 [00553168] [532C974C]
22 99,9 [A9AFE706] [40E0D646]
23 99,9 [CA1001D7] [438CEB73]
24 99,9 [947680D9] [114C0447]


Tracklist CD 6 Goin' Back To Indiana / Lookin' Through The Windows (UICY-75075):

01. (Bill Cosby-Tommy Smothers Intro) I Want You Back
02. (Bill Cosby Intro) Maybe Tomorrow
03. (Rosey Grier Intro) The Day Basketball Was Saved
04. Stand!
05. I Want To Take You Higher
06. Feelin' Alright
07. Medley
08. Goin' Back To Indiana
09. Ain't Nothing Like The Real Thing
10. Lookin' Through The Windows
11. Don't Let Your Baby Catch You
12. To Know
13. Doctor My Eyes
14. Little Bitty Pretty One
15. E-Ne-Me-Ne-Mi-Ne-Moe (The Choice Is Yours To Pull)
16. If I Have To Move A Mountain
17. Don't Want To See You Tomorrow
18. Children Of The Light
19. I Can Only Give You Love
20. Love Song
21. Who's Lovin' You (Live)

Exact Audio Copy V1.0 beta 2 from 29. April 2011

EAC extraction logfile from 3. July 2011, 13:30

Jackson 5 / Goin' Back To Indiana / Lookin' Through The Windows

Used drive : HL-DT-STDVDRAM GSA-H60N Adapter: 2 ID: 0

Read mode : Secure
Utilize accurate stream : Yes
Defeat audio cache : Yes
Make use of C2 pointers : No

Read offset correction : 667
Overread into Lead-In and Lead-Out : No
Fill up missing offset samples with silence : Yes
Delete leading and trailing silent blocks : No
Null samples used in CRC calculations : Yes
Used interface : Native Win32 interface for Win NT & 2000

Used output format : Internal WAV Routines
Sample format : 44.100 Hz; 16 Bit; Stereo


TOC of the extracted CD

Track | Start | Length | Start sector | End sector
––––––––––––––––––––––––––––-
1 | 0:00.00 | 4:16.15 | 0 | 19214
2 | 4:16.15 | 4:19.30 | 19215 | 38669
3 | 8:35.45 | 7:58.17 | 38670 | 74536
4 | 16:33.62 | 4:15.48 | 74537 | 93709
5 | 20:49.35 | 2:08.70 | 93710 | 103379
6 | 22:58.30 | 4:12.02 | 103380 | 122281
7 | 27:10.32 | 4:57.33 | 122282 | 144589
8 | 32:07.65 | 4:47.62 | 144590 | 166176
9 | 36:55.52 | 2:31.55 | 166177 | 177556
10 | 39:27.32 | 3:46.28 | 177557 | 194534
11 | 43:13.60 | 3:13.67 | 194535 | 209076
12 | 46:27.52 | 3:22.50 | 209077 | 224276
13 | 49:50.27 | 3:14.40 | 224277 | 238866
14 | 53:04.67 | 2:52.00 | 238867 | 251766
15 | 55:56.67 | 2:53.10 | 251767 | 264751
16 | 58:50.02 | 3:20.68 | 264752 | 279819
17 | 62:10.70 | 2:47.07 | 279820 | 292351
18 | 64:58.02 | 2:29.23 | 292352 | 303549
19 | 67:27.25 | 2:37.30 | 303550 | 315354
20 | 70:04.55 | 3:27.45 | 315355 | 330924
21 | 73:32.25 | 5:34.72 | 330925 | 356046


Range status and errors

Selected range

Filename C:\Documents and Settings\Администратор\Рабочий стол\Rip by ALLexxess\2011 Dear Michael 12 SHM-CD\Disc 6 Goin' Back To Indiana - Lookin' Through The Windows\Goin' Back To Indiana - Lookin' Through The Windows.wav

Peak level 97.7 %
Extraction speed 6.2 X
Range quality 99.9 %
Test CRC 50DAAE55
Copy CRC 50DAAE55
Copy OK

No errors occurred


AccurateRip summary

Track 1 accurately ripped (confidence 2) [245B095E] (AR v1)
Track 2 accurately ripped (confidence 2) [C9C5DAD7] (AR v1)
Track 3 accurately ripped (confidence 2) [892E3559] (AR v1)
Track 4 accurately ripped (confidence 2) [3DB77C3B] (AR v1)
Track 5 accurately ripped (confidence 2) [1A348BF7] (AR v1)
Track 6 accurately ripped (confidence 2) [2F189634] (AR v1)
Track 7 accurately ripped (confidence 2) [F501ECBD] (AR v1)
Track 8 accurately ripped (confidence 2) [012491F4] (AR v1)
Track 9 accurately ripped (confidence 2) [4F080BEE] (AR v1)
Track 10 accurately ripped (confidence 2) [E5E52A13] (AR v1)
Track 11 accurately ripped (confidence 2) [201A94BF] (AR v1)
Track 12 accurately ripped (confidence 2) [BAE6FB6B] (AR v1)
Track 13 accurately ripped (confidence 2) [F4971C7D] (AR v1)
Track 14 accurately ripped (confidence 2) [A6BA0AE7] (AR v1)
Track 15 accurately ripped (confidence 2) [970D155C] (AR v1)
Track 16 accurately ripped (confidence 2) [71C75B57] (AR v1)
Track 17 accurately ripped (confidence 2) [EDD32A4E] (AR v1)
Track 18 accurately ripped (confidence 2) [31E4432A] (AR v1)
Track 19 accurately ripped (confidence 2) [621F4A37] (AR v1)
Track 20 accurately ripped (confidence 2) [A6D3CFA9] (AR v1)
Track 21 accurately ripped (confidence 2) [E42BFB1C] (AR v1)

All tracks accurately ripped

End of status report


==== Log checksum EDD32B6279308553864C629626CFF52261E17F36EBBF2A40280C7F21A05187B0 ====


[CUETools log; Date: 07.04.2020 19:26:03; Version: 2.1.4]
[AccurateRip ID: 00401be2-03bb8bb6-48128b15] found.
Track [ CRC | V2 ] Status
01 [245b095e|f9e7c0a7] (03+03/12) Accurately ripped
02 [c9c5dad7|7b4c725e] (03+03/12) Accurately ripped
03 [892e3559|6d028e85] (03+03/12) Accurately ripped
04 [3db77c3b|8f426527] (03+03/12) Accurately ripped
05 [1a348bf7|12cdeddb] (03+03/12) Accurately ripped
06 [2f189634|521e91d4] (03+03/12) Accurately ripped
07 [f501ecbd|09489601] (02+03/10) Accurately ripped
08 [012491f4|29d12414] (03+03/12) Accurately ripped
09 [4f080bee|509b89fc] (03+03/11) Accurately ripped
10 [e5e52a13|a375d04d] (03+03/12) Accurately ripped
11 [201a94bf|7993d0f5] (03+03/12) Accurately ripped
12 [bae6fb6b|b6c638c7] (03+03/12) Accurately ripped
13 [f4971c7d|d53c459b] (03+03/12) Accurately ripped
14 [a6ba0ae7|94fb038a] (03+03/12) Accurately ripped
15 [970d155c|bdf06cc9] (03+03/12) Accurately ripped
16 [71c75b57|ad9d8f02] (03+03/11) Accurately ripped
17 [edd32a4e|60506694] (03+03/11) Accurately ripped
18 [31e4432a|d3b8c9f7] (03+03/11) Accurately ripped
19 [621f4a37|2fa3776d] (03+02/10) Accurately ripped
20 [a6d3cfa9|bf7f0837] (03+02/10) Accurately ripped
21 [e42bfb1c|cfcd15b4] (03+03/11) Accurately ripped

Track Peak [ CRC32 ] [W/O NULL] [ LOG ]
– 97,7 [50DAAE55] [9895ADC6] CRC32
01 94,9 [EB4834F4] [2CD5AD06]
02 97,3 [47EDCBDD] [3E6F6B2F]
03 97,3 [DB250CD3] [3C301DD0]
04 97,7 [A3A2DD26] [CD913670]
05 97,7 [AB67B755] [17DEAA3A]
06 97,6 [5B8C26A4] [10712EE5]
07 97,7 [1CFA581B] [12D52F97]
08 97,7 [F346698B] [F2BF37F2]
09 87,0 [5056764E] [C3AD6BC9]
10 86,9 [0DB212A1] [B51D94BC]
11 87,0 [9F75D195] [E9CE594F]
12 85,7 [08471C14] [57D969F3]
13 87,0 [D13F0A50] [CBD9E61A]
14 87,0 [D9491CCB] [384318DC]
15 86,9 [9E4146D6] [08FD68F8]
16 85,8 [DC1030CF] [E4D144E4]
17 87,0 [D072CBC1] [A68B58E9]
18 87,0 [4FFD073A] [841B0F97]
19 85,8 [A0F595AD] [425227D8]
20 59,7 [DDFD2B4B] [782E8AD0]
21 94,8 [056B7DA5] [6D44B88D]


Tracklist CD 7 Skywriter / Get It Together (UICY-75076):

01. Skywriter
02. Hallelujah Day
03. The Boogie Man
04. Touch
05. Corner Of The Sky
06. I Can't Quit Your Love
07. Uppermost
08. World Of Sunshine
09. Ooh, I'd Love To Be With You
10. You Made Me What I Am
11. Get It Together
12. Don't Say Good Bye Again
13. Reflections
14. Hum Along And Dance
15. Mama I Gotta Brand New Thing (Don't Say No)
16. It's Too Late To Change The Time
17. You Need Love Like I Do (Don't You)
18. Dancing Machine
19. Pride And Joy
20. Love's Gone Bad
21. Love Is The Thing You Need

Exact Audio Copy V1.0 beta 2 from 29. April 2011

EAC extraction logfile from 3. July 2011, 17:38

Jackson 5 / Skywriter / Get It Together

Used drive : HL-DT-STDVDRAM GSA-H60N Adapter: 2 ID: 0

Read mode : Secure
Utilize accurate stream : Yes
Defeat audio cache : Yes
Make use of C2 pointers : No

Read offset correction : 667
Overread into Lead-In and Lead-Out : No
Fill up missing offset samples with silence : Yes
Delete leading and trailing silent blocks : No
Null samples used in CRC calculations : Yes
Used interface : Native Win32 interface for Win NT & 2000

Used output format : Internal WAV Routines
Sample format : 44.100 Hz; 16 Bit; Stereo


TOC of the extracted CD

Track | Start | Length | Start sector | End sector
––––––––––––––––––––––––––––-
1 | 0:00.00 | 3:11.53 | 0 | 14377
2 | 3:11.53 | 2:50.05 | 14378 | 27132
3 | 6:01.58 | 3:00.70 | 27133 | 40702
4 | 9:02.53 | 3:02.70 | 40703 | 54422
5 | 12:05.48 | 3:32.07 | 54423 | 70329
6 | 15:37.55 | 3:17.63 | 70330 | 85167
7 | 18:55.43 | 2:30.50 | 85168 | 96467
8 | 21:26.18 | 2:48.72 | 96468 | 109139
9 | 24:15.15 | 2:52.03 | 109140 | 122042
10 | 27:07.18 | 3:03.15 | 122043 | 135782
11 | 30:10.33 | 2:49.00 | 135783 | 148457
12 | 32:59.33 | 3:24.02 | 148458 | 163759
13 | 36:23.35 | 2:58.08 | 163760 | 177117
14 | 39:21.43 | 8:37.47 | 177118 | 215939
15 | 47:59.15 | 7:11.28 | 215940 | 248292
16 | 55:10.43 | 3:57.37 | 248293 | 266104
17 | 59:08.05 | 3:45.48 | 266105 | 283027
18 | 62:53.53 | 3:27.55 | 283028 | 298607
19 | 66:21.33 | 2:46.50 | 298608 | 311107
20 | 69:08.08 | 3:20.62 | 311108 | 326169
21 | 72:28.70 | 3:06.38 | 326170 | 340157


Range status and errors

Selected range

Filename C:\Documents and Settings\Администратор\Рабочий стол\Rip by ALLexxess\2011 Dear Michael 12 SHM-CD\Disc 7 Skywriter - Get It Together\Skywriter - Get It Together.wav

Peak level 100.0 %
Extraction speed 6.3 X
Range quality 100.0 %
Test CRC 898F2ECE
Copy CRC 898F2ECE
Copy OK

No errors occurred


AccurateRip summary

Track 1 accurately ripped (confidence 1) [5FB54B8E] (AR v1)
Track 2 accurately ripped (confidence 1) [1D415F02] (AR v1)
Track 3 accurately ripped (confidence 1) [783EAA50] (AR v1)
Track 4 accurately ripped (confidence 1) [22E045F2] (AR v1)
Track 5 accurately ripped (confidence 1) [0D12F6FE] (AR v1)
Track 6 accurately ripped (confidence 1) [C0391089] (AR v1)
Track 7 accurately ripped (confidence 1) [8B946951] (AR v1)
Track 8 accurately ripped (confidence 1) [31C8D0F7] (AR v1)
Track 9 accurately ripped (confidence 1) [AD4691FB] (AR v1)
Track 10 accurately ripped (confidence 1) [6418F9E3] (AR v1)
Track 11 accurately ripped (confidence 1) [2DA3318C] (AR v1)
Track 12 accurately ripped (confidence 1) [6EE9AA49] (AR v1)
Track 13 accurately ripped (confidence 1) [6CD6BBC1] (AR v1)
Track 14 accurately ripped (confidence 1) [0C751FA6] (AR v1)
Track 15 accurately ripped (confidence 1) [AF724A33] (AR v1)
Track 16 accurately ripped (confidence 1) [FBE72CA3] (AR v1)
Track 17 accurately ripped (confidence 1) [62C3B18F] (AR v1)
Track 18 accurately ripped (confidence 1) [E800690A] (AR v1)
Track 19 accurately ripped (confidence 1) [305C243F] (AR v1)
Track 20 accurately ripped (confidence 1) [C80CE898] (AR v1)
Track 21 accurately ripped (confidence 1) [EE5514E5] (AR v1)

All tracks accurately ripped

End of status report


==== Log checksum 903964C617EA8AAC97A47DF74E043FD05622A79509C8BD71C2A04A08B318AE76 ====


[CUETools log; Date: 07.04.2020 22:44:49; Version: 2.1.4]
[AccurateRip ID: 0035edeb-034e8f55-3911b715] found.
Track [ CRC | V2 ] Status
01 [5fb54b8e|350103c1] (2+2/4) Accurately ripped
02 [1d415f02|ebca8f9d] (2+3/5) Accurately ripped
03 [783eaa50|cae433ee] (2+3/5) Accurately ripped
04 [22e045f2|62c68fde] (2+3/5) Accurately ripped
05 [0d12f6fe|6d4d56f2] (2+3/5) Accurately ripped
06 [c0391089|6fc6b118] (2+3/5) Accurately ripped
07 [8b946951|07a140a4] (2+3/5) Accurately ripped
08 [31c8d0f7|4eb3a4d4] (2+3/5) Accurately ripped
09 [ad4691fb|5395012a] (0+3/3) Accurately ripped
10 [6418f9e3|c7396aea] (2+3/5) Accurately ripped
11 [2da3318c|2faa3aaa] (2+3/5) Accurately ripped
12 [6ee9aa49|73554082] (2+3/5) Accurately ripped
13 [6cd6bbc1|2cd74836] (2+3/5) Accurately ripped
14 [0c751fa6|7913be16] (2+3/5) Accurately ripped
15 [af724a33|7266d2c4] (0+2/2) Accurately ripped
16 [fbe72ca3|813c6b42] (2+2/4) Accurately ripped
17 [62c3b18f|8ac8c7ab] (0+3/3) Accurately ripped
18 [e800690a|a4575630] (2+3/5) Accurately ripped
19 [305c243f|53d075cf] (0+3/3) Accurately ripped
20 [c80ce898|d078d75c] (0+3/3) Accurately ripped
21 [ee5514e5|c04e00fb] (2+3/5) Accurately ripped

Track Peak [ CRC32 ] [W/O NULL] [ LOG ]
– 99,9 [898F2ECE] [91723F37] CRC32
01 99,9 [59DBD725] [AA3E0BAD]
02 99,9 [3EF47B5C] [2F804729]
03 99,9 [77D0C616] [380D22E1]
04 99,9 [BE20D64B] [F2EADDC9]
05 99,9 [372F402F] [B2D5A71A]
06 96,5 [7CE29DAB] [5AE36D21]
07 99,9 [1E1184C2] [D8C26E48]
08 99,9 [DEAE7D2D] [87A758A0]
09 99,9 [F44F5C79] [FC5D6BB5]
10 99,9 [076AC136] [B9BEB972]
11 75,4 [F21E2549] [0254CA68]
12 75,4 [9A96AA94] [5247F00E]
13 75,4 [E538F4E4] [37A67450]
14 75,4 [DB304CF5] [2D3211C0]
15 75,4 [926F7F95] [25990759]
16 75,4 [4D0EBA54] [E60BC151]
17 75,4 [B251DE17] [F11CB16B]
18 75,4 [724C1481] [2331E198]
19 86,9 [BE73EB6F] [BD75C6FC]
20 86,5 [288A7B8D] [0EA55ECE]
21 99,9 [89DB469F] [98569269]


Tracklist CD 8 Dancing Machine / Moving Violation (UICY-75077):

01. I Am Love
02. Whatever You Got, I Want
03. She's A Rhythm Child
04. Dancing Machine
05. The Life Of The Party
06. What You Don't Know
07. If I Don't Love You This Way
08. It All Begins And Ends With Love
09. The Mirrors Of My Mind
10. Forever Came Today
11. Moving Violation
12. (You Were Made) Especially For Me
13. Honey Love
14. Body Language (Do The Love Dance)
15. All I Do Is Think Of You
16. Breezy
17. Call Of The Wild
18. Time Explosion
19. Through Thick And Thin
20. Forever Came Today (Disc-O-Tech #3 Version)

Exact Audio Copy V1.0 beta 2 from 29. April 2011

EAC extraction logfile from 3. July 2011, 18:54

Jackson 5 / Dacing Machine & Moving Violation

Used drive : HL-DT-STDVDRAM GSA-H60N Adapter: 2 ID: 0

Read mode : Secure
Utilize accurate stream : Yes
Defeat audio cache : Yes
Make use of C2 pointers : No

Read offset correction : 667
Overread into Lead-In and Lead-Out : No
Fill up missing offset samples with silence : Yes
Delete leading and trailing silent blocks : No
Null samples used in CRC calculations : Yes
Used interface : Native Win32 interface for Win NT & 2000

Used output format : Internal WAV Routines
Sample format : 44.100 Hz; 16 Bit; Stereo


TOC of the extracted CD

Track | Start | Length | Start sector | End sector
––––––––––––––––––––––––––––-
1 | 0:00.00 | 7:29.37 | 0 | 33711
2 | 7:29.37 | 2:58.73 | 33712 | 47134
3 | 10:28.35 | 2:39.37 | 47135 | 59096
4 | 13:07.72 | 2:43.68 | 59097 | 71389
5 | 15:51.65 | 2:35.10 | 71390 | 83024
6 | 18:27.00 | 4:25.42 | 83025 | 102941
7 | 22:52.42 | 3:28.15 | 102942 | 118556
8 | 26:20.57 | 3:07.73 | 118557 | 132654
9 | 29:28.55 | 3:08.67 | 132655 | 146821
10 | 32:37.47 | 6:24.00 | 146822 | 175621
11 | 39:01.47 | 3:37.20 | 175622 | 191916
12 | 42:38.67 | 3:28.63 | 191917 | 207579
13 | 46:07.55 | 4:40.02 | 207580 | 228581
14 | 50:47.57 | 4:07.48 | 228582 | 247154
15 | 54:55.30 | 3:18.00 | 247155 | 262004
16 | 58:13.30 | 3:38.42 | 262005 | 278396
17 | 61:51.72 | 2:33.48 | 278397 | 289919
18 | 64:25.45 | 4:13.15 | 289920 | 308909
19 | 68:38.60 | 3:05.27 | 308910 | 322811
20 | 71:44.12 | 6:19.60 | 322812 | 351296


Range status and errors

Selected range

Filename C:\Documents and Settings\Администратор\Рабочий стол\Rip by ALLexxess\2011 Dear Michael 12 SHM-CD\Disc 8 Dancing Machine - Moving Violation\Dacing Machine - Moving Violation.wav

Peak level 100.0 %
Extraction speed 6.2 X
Range quality 100.0 %
Test CRC C1C37D1C
Copy CRC C1C37D1C
Copy OK

No errors occurred


AccurateRip summary

Track 1 cannot be verified as accurate (confidence 4) [49538CC6], AccurateRip returned [EF69CB2F] (AR v2)
Track 2 cannot be verified as accurate (confidence 4) [82D9FFE6], AccurateRip returned [E04B5DCC] (AR v2)
Track 3 cannot be verified as accurate (confidence 4) [ED21EF00], AccurateRip returned [665C5346] (AR v2)
Track 4 cannot be verified as accurate (confidence 4) [2A2AAF36], AccurateRip returned [F3118656] (AR v2)
Track 5 cannot be verified as accurate (confidence 4) [C74727A7], AccurateRip returned [F96656D4] (AR v2)
Track 6 cannot be verified as accurate (confidence 4) [E639C4C2], AccurateRip returned [6B9BF171] (AR v2)
Track 7 cannot be verified as accurate (confidence 4) [5F832628], AccurateRip returned [292EC3C6] (AR v2)
Track 8 cannot be verified as accurate (confidence 4) [C4515D87], AccurateRip returned [71ACEE1D] (AR v2)
Track 9 cannot be verified as accurate (confidence 4) [4D3D77F7], AccurateRip returned [F3DAC078] (AR v2)
Track 10 cannot be verified as accurate (confidence 4) [223E6930], AccurateRip returned [C98D06DC] (AR v2)
Track 11 cannot be verified as accurate (confidence 4) [C9913ECF], AccurateRip returned [DD846DB6] (AR v2)
Track 12 cannot be verified as accurate (confidence 4) [6F973A0A], AccurateRip returned [12E8B7EA] (AR v2)
Track 13 cannot be verified as accurate (confidence 4) [5F45BCE2], AccurateRip returned [94816355] (AR v2)
Track 14 cannot be verified as accurate (confidence 4) [99879F81], AccurateRip returned [84D100C2] (AR v2)
Track 15 cannot be verified as accurate (confidence 4) [36D4C106], AccurateRip returned [04E23AAB] (AR v2)
Track 16 cannot be verified as accurate (confidence 4) [E3D71E67], AccurateRip returned [A60C1BE9] (AR v2)
Track 17 cannot be verified as accurate (confidence 4) [CF0D079D], AccurateRip returned [EE1F886C] (AR v2)
Track 18 cannot be verified as accurate (confidence 4) [A448E833], AccurateRip returned [A62CAF78] (AR v2)
Track 19 cannot be verified as accurate (confidence 4) [E6B53467], AccurateRip returned [2B8A2188] (AR v2)
Track 20 cannot be verified as accurate (confidence 4) [64834020], AccurateRip returned [22FE5E0B] (AR v2)

No tracks could be verified as accurate
You may have a different pressing from the one(s) in the database

End of status report


==== Log checksum 643C16F3FE2AA1AEAB4E25D00D6520CCE6720455BCB6413C326BC44B6E5B1F53 ====


[CUETools log; Date: 07.04.2020 22:47:58; Version: 2.1.4]
[AccurateRip ID: 0037d70c-032d9362-35124b14] found.
Track [ CRC | V2 ] Status
01 [b21a5662|49538cc6] (2+3/9) Accurately ripped
02 [75f997f5|82d9ffe6] (2+3/9) Accurately ripped
03 [1df9f26c|ed21ef00] (2+3/9) Accurately ripped
04 [be9b72cc|2a2aaf36] (2+3/9) Accurately ripped
05 [dc4d2367|c74727a7] (2+3/9) Accurately ripped
06 [25b2d0af|e639c4c2] (2+3/9) Accurately ripped
07 [4d671012|5f832628] (2+3/9) Accurately ripped
08 [dbb958ae|c4515d87] (2+3/9) Accurately ripped
09 [66973865|4d3d77f7] (2+3/9) Accurately ripped
10 [462e0bb6|223e6930] (2+3/9) Accurately ripped
11 [28a44187|c9913ecf] (2+3/9) Accurately ripped
12 [4fd91b7a|6f973a0a] (2+3/9) Accurately ripped
13 [253445ec|5f45bce2] (2+3/9) Accurately ripped
14 [fee02337|99879f81] (2+3/9) Accurately ripped
15 [a17a3af3|36d4c106] (2+3/9) Accurately ripped
16 [5cd6d9a1|e3d71e67] (2+2/8) Accurately ripped
17 [467eb024|cf0d079d] (2+3/9) Accurately ripped
18 [f4a62535|a448e833] (2+3/9) Accurately ripped
19 [11b02e3b|e6b53467] (2+3/9) Accurately ripped
20 [14300342|64834020] (2+3/9) Accurately ripped

Track Peak [ CRC32 ] [W/O NULL] [ LOG ]
– 99,9 [C1C37D1C] [DD62DBD0] CRC32
01 99,9 [13D8DD4F] [060D6E55]
02 99,9 [88062E8E] [981731F3]
03 99,9 [C84DEADF] [DAD546D8]
04 99,9 [6388A565] [45AE608D]
05 99,2 [FB557243] [C693BCE2]
06 99,3 [EB2731A8] [F34BF946]
07 88,6 [FA259096] [C73D6CC7]
08 93,8 [B3D7E143] [53D41AE4]
09 95,3 [FE90F629] [48579A6C]
10 96,1 [60F0B142] [EF47120B]
11 99,9 [754DC9C8] [63E0BC7B]
12 99,9 [3589B41A] [7806D94B]
13 99,9 [B13D631D] [1ABD6706]
14 99,9 [D0619E3D] [F87CCDBA]
15 99,9 [692F1A7C] [982A7231]
16 99,9 [233BB832] [E5E6565C]
17 99,9 [A4ACCD01] [C4BDC414]
18 99,9 [892FE31B] [48260ADC]
19 99,9 [5FFC2C0A] [286CB598]
20 99,9 [21F49624] [C199E172]


Tracklist CD 9 In Japan! (UICY-75078):

02. Lookin' Through The Windows
03. Got To Be There
04. Medley: I Want You Back / ABC / The Love You Save
05. Daddy's Home
06. Superstition
07. Ben
08. Papa Was A Rollin' Stone
09. That's How Love Goes
10. Never Can Say Goodbye
11. Ain't That Peculiar
12. I Wanna Be Where You Are

Exact Audio Copy V1.0 beta 2 from 29. April 2011

EAC extraction logfile from 3. July 2011, 20:03

Jackson 5 / In Japan!

Used drive : HL-DT-STDVDRAM GSA-H60N Adapter: 2 ID: 0

Read mode : Secure
Utilize accurate stream : Yes
Defeat audio cache : Yes
Make use of C2 pointers : No

Read offset correction : 667
Overread into Lead-In and Lead-Out : No
Fill up missing offset samples with silence : Yes
Delete leading and trailing silent blocks : No
Null samples used in CRC calculations : Yes
Used interface : Native Win32 interface for Win NT & 2000

Used output format : Internal WAV Routines
Sample format : 44.100 Hz; 16 Bit; Stereo


TOC of the extracted CD

Track | Start | Length | Start sector | End sector
––––––––––––––––––––––––––––-
1 | 0:00.00 | 3:41.12 | 0 | 16586
2 | 3:41.12 | 3:53.45 | 16587 | 34106
3 | 7:34.57 | 3:44.57 | 34107 | 50963
4 | 11:19.39 | 2:59.28 | 50964 | 64416
5 | 14:18.67 | 5:24.41 | 64417 | 88757
6 | 19:43.33 | 3:17.50 | 88758 | 103582
7 | 23:01.08 | 2:54.65 | 103583 | 116697
8 | 25:55.73 | 4:00.67 | 116698 | 134764
9 | 29:56.65 | 4:47.08 | 134765 | 156297
10 | 34:43.73 | 2:21.60 | 156298 | 166932
11 | 37:05.58 | 5:28.39 | 166933 | 191571
12 | 42:34.22 | 6:29.32 | 191572 | 220778


Range status and errors

Selected range

Filename C:\Documents and Settings\Администратор\Рабочий стол\Rip by ALLexxess\2011 Dear Michael 12 SHM-CD\Disc 9 In Japan!\In Japan!.wav

Peak level 100.0 %
Extraction speed 5.8 X
Range quality 100.0 %
Test CRC A61A3873
Copy CRC A61A3873
Copy OK

No errors occurred


AccurateRip summary

Track 1 not present in database
Track 2 not present in database
Track 3 not present in database
Track 4 not present in database
Track 5 not present in database
Track 6 not present in database
Track 7 not present in database
Track 8 not present in database
Track 9 not present in database
Track 10 not present in database
Track 11 not present in database
Track 12 not present in database

None of the tracks are present in the AccurateRip database

End of status report


==== Log checksum 4EA1481546044EEA57D074087179BF20A9D0942B6089EEB9C8B50D7E9F75586F ====


[CUETools log; Date: 07.04.2020 22:54:01; Version: 2.1.4]
[AccurateRip ID: 001487b5-00c0c6a9-ac0b7f0c] found.
Track [ CRC | V2 ] Status
01 [5d23a7f8|61cb2265] (0+3/3) Accurately ripped
02 [fca4b33b|29fbd923] (0+3/3) Accurately ripped
03 [73c6fa10|cdea47eb] (0+3/3) Accurately ripped
04 [f894e9d9|d00a12bd] (0+3/3) Accurately ripped
05 [126e30d8|19bd41ee] (0+3/3) Accurately ripped
06 [5fd414a1|298f62bb] (0+3/3) Accurately ripped
07 [ed2ba11e|56862105] (0+3/3) Accurately ripped
08 [1988ab12|d111ec6a] (0+3/3) Accurately ripped
09 [f5ed40ce|59519d12] (0+3/3) Accurately ripped
10 [c08895f3|22341315] (0+3/3) Accurately ripped
11 [c441d3ae|aa678c9a] (0+3/3) Accurately ripped
12 [d1eeb7d6|27160916] (0+3/3) Accurately ripped

Track Peak [ CRC32 ] [W/O NULL] [ LOG ]
– 100,0 [A61A3873] [361F1456] CRC32
01 100,0 [DDD83FC3] [094FBDA7]
02 100,0 [29202577] [1F2F1E76]
03 100,0 [F332D7A9] [4EB3F74C]
04 100,0 [969961AC] [F000B3E2]
05 100,0 [6BF7F5AB] [BDCBD482]
06 100,0 [C17283CB] [50C517F3]
07 100,0 [907312CB] [83B30A4F]
08 100,0 [188C0A14] [3374CFAC]
09 100,0 [C9421DCD] [0E387906]
10 96,0 [2768E9F9] [82042362]
11 100,0 [E4C53B48] [B1278B17]
12 100,0 [E72D1BE8] [E27BA757]


Tracklist CD 10 Joyful Jukebox Music / Boogie (UICY-75079):

01. Joyful Jukebox Music
02. Window Shopping
03. You're My Best Friend, My Love
04. Love Is The Thing You Need
05. The Eternal Light
06. Pride And Joy
07. Through Thick And Thin
08. We're Here To Entertain You
09. Make Tonight All Mine
10. We're Gonna Change Our Style
11. Love's Gone Bad
12. I Ain't Gonna Eat Out My Heart Anymore
13. ABC
14. I Was Made To Love Her
15. One Day I'll Marry You
16. Never Can Say Goodbye
17. Oh, I've Been Bless'd
18. Penny Arcade
19. Just Because I Love You
20. Dancing Machine
21. Hum Along And Dance

Exact Audio Copy V1.0 beta 2 from 29. April 2011

EAC extraction logfile from 3. July 2011, 21:07

Jackson 5 / Joyful Jukebox Music / Boogie

Used drive : HL-DT-STDVDRAM GSA-H60N Adapter: 2 ID: 0

Read mode : Secure
Utilize accurate stream : Yes
Defeat audio cache : Yes
Make use of C2 pointers : No

Read offset correction : 667
Overread into Lead-In and Lead-Out : No
Fill up missing offset samples with silence : Yes
Delete leading and trailing silent blocks : No
Null samples used in CRC calculations : Yes
Used interface : Native Win32 interface for Win NT & 2000

Used output format : Internal WAV Routines
Sample format : 44.100 Hz; 16 Bit; Stereo


TOC of the extracted CD

Track | Start | Length | Start sector | End sector
––––––––––––––––––––––––––––-
1 | 0:00.00 | 3:14.62 | 0 | 14611
2 | 3:14.62 | 2:48.70 | 14612 | 27281
3 | 6:03.57 | 3:24.65 | 27282 | 42646
4 | 9:28.47 | 3:06.73 | 42647 | 56669
5 | 12:35.45 | 3:15.69 | 56670 | 71363
6 | 15:51.39 | 2:43.05 | 71364 | 83593
7 | 18:34.44 | 3:03.08 | 83594 | 97326
8 | 21:37.52 | 3:01.55 | 97327 | 110956
9 | 24:39.32 | 3:18.61 | 110957 | 125867
10 | 27:58.18 | 2:48.18 | 125868 | 138485
11 | 30:46.36 | 3:21.11 | 138486 | 153571
12 | 34:07.47 | 3:00.73 | 153572 | 167144
13 | 37:08.45 | 2:59.17 | 167145 | 180586
14 | 40:07.62 | 4:17.14 | 180587 | 199875
15 | 44:25.01 | 3:00.46 | 199876 | 213421
16 | 47:25.47 | 2:58.42 | 213422 | 226813
17 | 50:24.14 | 2:50.60 | 226814 | 239623
18 | 53:14.74 | 2:41.45 | 239624 | 251743
19 | 55:56.44 | 3:14.23 | 251744 | 266316
20 | 59:10.67 | 2:39.28 | 266317 | 278269
21 | 61:50.20 | 15:07.13 | 278270 | 346307


Range status and errors

Selected range

Filename C:\Documents and Settings\Администратор\Рабочий стол\Rip by ALLexxess\2011 Dear Michael 12 SHM-CD\Disc 10 Joyful Jukebox Music - Boogie\Joyful Jukebox Music - Boogie.wav

Peak level 100.0 %
Extraction speed 6.2 X
Range quality 99.9 %
Test CRC 30A87F86
Copy CRC 30A87F86
Copy OK

No errors occurred


AccurateRip summary

Track 1 cannot be verified as accurate (confidence 3) [9223ACC9], AccurateRip returned [920C580C] (AR v2)
Track 2 cannot be verified as accurate (confidence 3) [D1988909], AccurateRip returned [2909E2FC] (AR v2)
Track 3 cannot be verified as accurate (confidence 3) [CC49EB48], AccurateRip returned [A99FFA84] (AR v2)
Track 4 cannot be verified as accurate (confidence 3) [1741F0C6], AccurateRip returned [4003C3C3] (AR v2)
Track 5 cannot be verified as accurate (confidence 3) [2654D4B8], AccurateRip returned [F117A0DB] (AR v2)
Track 6 cannot be verified as accurate (confidence 3) [32296532], AccurateRip returned [E0E2F4E4] (AR v2)
Track 7 cannot be verified as accurate (confidence 3) [41744B3D], AccurateRip returned [365676A3] (AR v2)
Track 8 cannot be verified as accurate (confidence 3) [E5A01426], AccurateRip returned [95C705C1] (AR v2)
Track 9 cannot be verified as accurate (confidence 3) [5000E4FF], AccurateRip returned [5E7716F1] (AR v2)
Track 10 cannot be verified as accurate (confidence 3) [E9928497], AccurateRip returned [82C14008] (AR v2)
Track 11 cannot be verified as accurate (confidence 3) [3B51F84A], AccurateRip returned [4B9038E0] (AR v2)
Track 12 cannot be verified as accurate (confidence 3) [6371CCBA], AccurateRip returned [808F30E4] (AR v2)
Track 13 cannot be verified as accurate (confidence 3) [4DB757A0], AccurateRip returned [F8BBA393] (AR v2)
Track 14 cannot be verified as accurate (confidence 3) [7C0377CD], AccurateRip returned [74A92EF1] (AR v2)
Track 15 cannot be verified as accurate (confidence 3) [05492C70], AccurateRip returned [7CE02174] (AR v2)
Track 16 cannot be verified as accurate (confidence 3) [3E37C044], AccurateRip returned [39AD5A8E] (AR v2)
Track 17 cannot be verified as accurate (confidence 3) [4A27E85F], AccurateRip returned [7A8B4D0B] (AR v2)
Track 18 cannot be verified as accurate (confidence 3) [E09B9B2D], AccurateRip returned [9544C374] (AR v2)
Track 19 cannot be verified as accurate (confidence 3) [F5C1F016], AccurateRip returned [5BF1E355] (AR v2)
Track 20 cannot be verified as accurate (confidence 3) [DD61F545], AccurateRip returned [6F4C3B55] (AR v2)
Track 21 cannot be verified as accurate (confidence 3) [C6D61AF8], AccurateRip returned [55EFD898] (AR v2)

No tracks could be verified as accurate
You may have a different pressing from the one(s) in the database

End of status report


==== Log checksum 30CD6AD51D9C442B9E794C5CDB7AE7C4EDDE4AE81BC2ABF86AEC8E96D34397CD ====


[CUETools log; Date: 07.04.2020 22:57:32; Version: 2.1.4]
[AccurateRip ID: 00323d46-0307b001-3d120915] found.
Track [ CRC | V2 ] Status
01 [59cb6e99|9223acc9] (03+03/11) Accurately ripped
02 [2671b426|d1988909] (03+03/11) Accurately ripped
03 [4613c9a0|cc49eb48] (03+03/11) Accurately ripped
04 [5a8a2a6b|1741f0c6] (03+03/11) Accurately ripped
05 [84505b05|2654d4b8] (03+03/11) Accurately ripped
06 [78c36642|32296532] (03+03/11) Accurately ripped
07 [48c19bc0|41744b3d] (03+03/11) Accurately ripped
08 [8d3e2611|e5a01426] (03+03/11) Accurately ripped
09 [de293dd0|5000e4ff] (03+03/11) Accurately ripped
10 [c01432bf|e9928497] (03+03/11) Accurately ripped
11 [36e4be48|3b51f84a] (03+03/11) Accurately ripped
12 [4619a3b0|6371ccba] (03+03/11) Accurately ripped
13 [2d0ce209|4db757a0] (03+03/11) Accurately ripped
14 [856d7de1|7c0377cd] (03+03/11) Accurately ripped
15 [bb2bebe7|05492c70] (03+03/11) Accurately ripped
16 [ad5bd9d8|3e37c044] (03+03/11) Accurately ripped
17 [5c5b5e16|4a27e85f] (03+03/11) Accurately ripped
18 [131a7f82|e09b9b2d] (03+03/11) Accurately ripped
19 [6fc40ddf|f5c1f016] (03+03/11) Accurately ripped
20 [67c3fc3b|dd61f545] (02+02/09) Accurately ripped
21 [31d0076f|c6d61af8] (03+03/09) Accurately ripped
Offsetted by 18:
01 [920c580c] (03/11) Accurately ripped
02 [2909e2fc] (03/11) Accurately ripped
03 [a99ffa84] (03/11) Accurately ripped
04 [4003c3c3] (03/11) Accurately ripped
05 [f117a0db] (03/11) Accurately ripped
06 [e0e2f4e4] (03/11) Accurately ripped
07 [365676a3] (03/11) Accurately ripped
08 [95c705c1] (03/11) Accurately ripped
09 [5e7716f1] (03/11) Accurately ripped
10 [82c14008] (03/11) Accurately ripped
11 [4b9038e0] (03/11) Accurately ripped
12 [808f30e4] (03/11) Accurately ripped
13 [f8bba393] (03/11) Accurately ripped
14 [74a92ef1] (03/11) Accurately ripped
15 [7ce02174] (03/11) Accurately ripped
16 [39ad5a8e] (03/11) Accurately ripped
17 [7a8b4d0b] (03/11) Accurately ripped
18 [9544c374] (03/11) Accurately ripped
19 [5bf1e355] (03/11) Accurately ripped
20 [6f4c3b55] (03/09) Accurately ripped
21 [55efd898] (03/09) Accurately ripped

Track Peak [ CRC32 ] [W/O NULL] [ LOG ]
– 100,0 [30A87F86] [CF26FD24] CRC32
01 100,0 [3A95E4B0] [7F07500F]
02 100,0 [180AA10B] [6549FECF]
03 100,0 [4219A90E] [7902EC79]
04 100,0 [4F119410] [A817331A]
05 100,0 [385E2743] [7B67BBB7]
06 100,0 [055213FA] [116C4161]
07 100,0 [CE66E4C7] [EDE2CAE9]
08 100,0 [D65E3B4F] [E965F348]
09 100,0 [E963DD37] [7D998C66]
10 100,0 [0ED9B168] [07FB3A81]
11 99,5 [02927B86] [1FB62471]
12 100,0 [05E0EE33] [C89825C9]
13 100,0 [C87D3D0B] [592FFE0E]
14 98,5 [232D4C9E] [093CD88D]
15 96,2 [56EB859D] [C81F51EF]
16 95,1 [ADDAF6F9] [9FD3F98F]
17 97,7 [9B77E79B] [56456DC2]
18 96,6 [E46EA904] [02AB9D13]
19 98,5 [B776A40C] [DF6565F4]
20 100,0 [3CBCD835] [595D4EC8]
21 100,0 [84965A1C] [DD72C388]


Tracklist CD 11 Jackson 5 Christmas Album (UICY-75080):

01. Have Yourself A Merry Little Christmas
02. Santa Claus Is Coming To Town
03. The Christmas Song (Merry Christmas To You)
04. Up On The Housetop
05. Frosty The Snowman
06. Little Drummer Boy
07. Rudolph The Red-Nosed Reindeer
08. Christmas Won't Be The Same This Year
09. Give Love On Christmas Day
10. Someday At Christmas
11. I Saw Mommy Kissing Santa Claus
12. Little Christmas Tree

Exact Audio Copy V1.0 beta 2 from 29. April 2011

EAC extraction logfile from 4. July 2011, 19:32

Jackson 5 / Christmas Album

Used drive : HL-DT-STDVDRAM GSA-H60N Adapter: 2 ID: 0

Read mode : Secure
Utilize accurate stream : Yes
Defeat audio cache : Yes
Make use of C2 pointers : No

Read offset correction : 667
Overread into Lead-In and Lead-Out : No
Fill up missing offset samples with silence : Yes
Delete leading and trailing silent blocks : No
Null samples used in CRC calculations : Yes
Used interface : Native Win32 interface for Win NT & 2000

Used output format : Internal WAV Routines
Sample format : 44.100 Hz; 16 Bit; Stereo


TOC of the extracted CD

Track | Start | Length | Start sector | End sector
––––––––––––––––––––––––––––-
1 | 0:00.00 | 5:19.74 | 0 | 23998
2 | 5:19.74 | 2:25.39 | 23999 | 34912
3 | 7:45.38 | 2:53.58 | 34913 | 47945
4 | 10:39.21 | 3:13.37 | 47946 | 62457
5 | 13:52.58 | 2:40.63 | 62458 | 74520
6 | 16:33.46 | 3:18.52 | 74521 | 89422
7 | 19:52.23 | 2:34.00 | 89423 | 100972
8 | 22:26.23 | 2:33.00 | 100973 | 112447
9 | 24:59.23 | 3:04.73 | 112448 | 126320
10 | 28:04.21 | 2:45.00 | 126321 | 138695
11 | 30:49.21 | 3:14.10 | 138696 | 153255
12 | 34:03.31 | 3:37.02 | 153256 | 169532


Range status and errors

Selected range

Filename C:\Documents and Settings\Администратор\Рабочий стол\Rip by ALLexxess\2011 Dear Michael 12 SHM-CD\Disc 11 Jackson 5 Christmas Album\Jackson 5 Christmas Album.wav

Peak level 99.9 %
Extraction speed 5.5 X
Range quality 100.0 %
Test CRC 6258F000
Copy CRC 6258F000
Copy OK

No errors occurred


AccurateRip summary

Track 1 accurately ripped (confidence 6) [4834CB20] (AR v1)
Track 2 accurately ripped (confidence 6) [6F21864A] (AR v1)
Track 3 accurately ripped (confidence 6) [454AF758] (AR v1)
Track 4 accurately ripped (confidence 6) [DA875B2F] (AR v1)
Track 5 accurately ripped (confidence 6) [E01D01D7] (AR v1)
Track 6 accurately ripped (confidence 6) [0F38C193] (AR v1)
Track 7 accurately ripped (confidence 6) [4A61DC19] (AR v1)
Track 8 accurately ripped (confidence 6) [98C854DA] (AR v1)
Track 9 accurately ripped (confidence 6) [A55DB844] (AR v1)
Track 10 accurately ripped (confidence 6) [E432ECE7] (AR v1)
Track 11 accurately ripped (confidence 6) [21BE7C08] (AR v1)
Track 12 accurately ripped (confidence 6) [A63F048A] (AR v1)

All tracks accurately ripped

End of status report


==== Log checksum 7B0DA0253A7A3C5906E5D669AD86F8F303AF622C5B041800DD0BF00B09BB50BC ====


[CUETools log; Date: 07.04.2020 22:59:20; Version: 2.1.4]
[AccurateRip ID: 00114f97-009e690e-9f08d40c] found.
Track [ CRC | V2 ] Status
01 [4834cb20|e8d11862] (08+23/35) Accurately ripped
02 [6f21864a|3bae4b00] (08+23/35) Accurately ripped
03 [454af758|57043951] (08+23/35) Accurately ripped
04 [da875b2f|4c111473] (08+22/34) Accurately ripped
05 [e01d01d7|a31ee715] (08+23/35) Accurately ripped
06 [0f38c193|0924e683] (07+23/34) Accurately ripped
07 [4a61dc19|af1f3d72] (08+22/34) Accurately ripped
08 [98c854da|416e5042] (08+23/35) Accurately ripped
09 [a55db844|8ef51ff1] (08+23/35) Accurately ripped
10 [e432ece7|f676671c] (08+23/35) Accurately ripped
11 [21be7c08|17847efc] (08+22/34) Accurately ripped
12 [a63f048a|90477669] (07+21/32) Accurately ripped
Offsetted by -646:
01 [4b324daa] (00/35) No match (V2 was not tested)
02 [184f92c4] (00/35) No match (V2 was not tested)
03 [f02ead30] (00/35) No match (V2 was not tested)
04 [7e3df1a1] (00/34) No match (V2 was not tested)
05 [e3bf7131] (00/35) No match (V2 was not tested)
06 [844ffbbf] (00/34) No match (V2 was not tested)
07 [649e21e1] (00/34) No match (V2 was not tested)
08 [ccc2256a] (00/35) No match (V2 was not tested)
09 [2e1beed6] (00/35) No match (V2 was not tested)
10 [174f3ab5] (00/35) No match (V2 was not tested)
11 [b6861d77] (00/34) No match (V2 was not tested)
12 [7e78bc2b] (00/32) No match (V2 was not tested)

Track Peak [ CRC32 ] [W/O NULL] [ LOG ]
– 99,9 [6258F000] [93B3B218] CRC32
01 99,9 [8E06649E] [DDE0A5D2]
02 93,3 [034A222B] [238ED5A5]
03 95,6 [E5586AD0] [5B213B09]
04 99,9 [052EF1C4] [18577BAD]
05 92,0 [F25E5FB2] [50707810]
06 97,6 [B822FE91] [FDC926E4]
07 92,1 [D3943B92] [03B43BDE]
08 90,7 [7F305AD7] [82E40488]
09 95,2 [C6AB270F] [68906AA2]
10 93,0 [A14C1C5F] [E3C1002E]
11 92,2 [CD8D14ED] [8CD706E3]
12 96,6 [0CE39DBF] [618023B4]


Tracklist CD 12 Bonus Disc / Mono Pure Michael: Motown A Cappella (UICY-75081):

01. I Want You Back
02. ABC
03. The Love You Save
04. I'll Be There
05. Never Can Say Goodbye
06. Mama's Pearl
07. Dancing Machine
08. Got To Be There
09. Rockin' Robin
10. Ben

Exact Audio Copy V1.0 beta 2 from 29. April 2011

EAC extraction logfile from 4. July 2011, 20:11

Jackson 5 / Pure Michael: Motown A Cappella

Used drive : HL-DT-STDVDRAM GSA-H60N Adapter: 2 ID: 0

Read mode : Secure
Utilize accurate stream : Yes
Defeat audio cache : Yes
Make use of C2 pointers : No

Read offset correction : 667
Overread into Lead-In and Lead-Out : No
Fill up missing offset samples with silence : Yes
Delete leading and trailing silent blocks : No
Null samples used in CRC calculations : Yes
Used interface : Native Win32 interface for Win NT & 2000

Used output format : Internal WAV Routines
Sample format : 44.100 Hz; 16 Bit; Stereo


TOC of the extracted CD

Track | Start | Length | Start sector | End sector
––––––––––––––––––––––––––––-
1 | 0:00.00 | 2:34.02 | 0 | 11551
2 | 2:34.02 | 3:00.32 | 11552 | 25083
3 | 5:34.34 | 3:07.48 | 25084 | 39156
4 | 8:42.07 | 3:48.23 | 39157 | 56279
5 | 12:30.30 | 2:47.45 | 56280 | 68849
6 | 15:18.00 | 2:52.54 | 68850 | 81803
7 | 18:10.54 | 1:27.43 | 81804 | 88371
8 | 19:38.22 | 3:13.08 | 88372 | 102854
9 | 22:51.30 | 2:07.41 | 102855 | 112420
10 | 24:58.71 | 2:26.58 | 112421 | 123428


Range status and errors

Selected range

Filename C:\Documents and Settings\Администратор\Рабочий стол\Rip by ALLexxess\2011 Dear Michael 12 SHM-CD\Disc 12 Pure Michael - Motown A Cappella\Pure Michael (Motown A Cappella).wav

Peak level 100.0 %
Extraction speed 5.0 X
Range quality 99.9 %
Test CRC 4AB06CD0
Copy CRC 4AB06CD0
Copy OK

No errors occurred


AccurateRip summary

Track 1 not present in database
Track 2 not present in database
Track 3 not present in database
Track 4 not present in database
Track 5 not present in database
Track 6 not present in database
Track 7 not present in database
Track 8 not present in database
Track 9 not present in database
Track 10 not present in database

None of the tracks are present in the AccurateRip database

End of status report


==== Log checksum F360B6EC89D830A675DD8B973F3EE7E733A8A4EB7AC267A1E69A8A1E9DA2B134 ====


[CUETools log; Date: 07.04.2020 23:02:11; Version: 2.1.4]
[AccurateRip ID: 000ad4ac-00560269-68066d0a] found.
Track [ CRC | V2 ] Status
01 [a688219b|90824613] (0+3/3) Accurately ripped
02 [ab6579ea|5537edff] (0+3/3) Accurately ripped
03 [4874d27e|f4ff9115] (0+3/3) Accurately ripped
04 [b34ed6de|7b261197] (0+3/3) Accurately ripped
05 [c10a6382|67098796] (0+3/3) Accurately ripped
06 [ca490e17|9afb54d1] (0+3/3) Accurately ripped
07 [4d580185|b3802c66] (0+3/3) Accurately ripped
08 [1fab6fed|59b05783] (0+3/3) Accurately ripped
09 [fbd5169f|5fe53a81] (0+3/3) Accurately ripped
10 [4ad1d526|5a748757] (0+3/3) Accurately ripped

Track Peak [ CRC32 ] [W/O NULL] [ LOG ]
– 100,0 [4AB06CD0] [74F5013A] CRC32
01 92,5 [700B50D2] [9AE81F65]
02 68,0 [565E4393] [CC001483]
03 100,0 [E9097EDB] [9C6F4B39]
04 79,5 [E887AA46] [A8EDC195]
05 68,5 [AA7C107C] [F93BCB8F]
06 58,3 [44197489] [AE2ACEB8]
07 85,4 [3C566570] [E7CCE6E5]
08 92,7 [956453D5] [5AA7BFBA]
09 86,6 [C5903E23] [33958D77]
10 68,1 [8592DE71] [0A712622]


Michael Jackson / Jackson 5 - Dear Michael: The Motown Collection (2011) [12SHM-CD Box Set]

All thanks go to ALLexxess

Michael Jackson in my Blog

Download Michael Jackson / Jackson 5 - Dear Michael: The Motown Collection (2011):