Quatuor Van Kuijk, Alphonse Cemin & Kate Lindsey - Debussy, Ravel & Chausson: Chamber Works (2017)

Posted By: SERTiL
Quatuor Van Kuijk, Alphonse Cemin & Kate Lindsey - Debussy, Ravel & Chausson: Chamber Works (2017)

Quatuor Van Kuijk, Alphonse Cemin & Kate Lindsey - Debussy, Ravel & Chausson: Chamber Works
Classical | WEB FLAC (tracks) & d. booklet | 64:53 min | 294 MB
Label: Alpha | Tracks: 09 | Rls.date: 2017

The first album of the quartet founded by Nicolas Van Kuijk, a programme of Mozart, was awarded a ‘Choc de Classica’ and ‘Diapason Découverte’.

Returning to their roots with key works from the French repertory: the single quartets of Maurice Ravel and Claude Debussy and the Chanson perpétuelle of Ernest Chausson, in which they are accompanied by the mezzo-soprano Kate Lindsey, who recently joined Alpha, and the pianist Alphonse Cemin.

The Quatuor Van Kuijk gives these works all their youthful impetuosity.

The quartet is already a BBC New Generation Artist, having won First Prize and the Haydn and Beethoven Prizes at the Wigmore Hall International String Quartet Competition, and First Prize and the Audience Prize at the Trondheim International String Quartet Competition.

TRACKLIST

Claude Debussy (1862-1918)

String Quartet in G Minor, Op. 10, L. 85
1 I. Animé et très décidé 06:51
2 II. Assez vif et bien rythmé 03:52
3 III. Andantino doucement expressif 09:10
4 IV. Très modéré 07:54

Maurice Ravel (1875-1937)

String Quartet in F Major, M. 35
5 I. Allegro moderato 09:00
6 II. Assez vif, très rythmé 06:23
7 III. Très lent 09:33
8 IV. Vif et agité 04:51

Ernest Chausson (1855-1899)

9 Chanson perpétuelle, Op. 37 07:19

PERSONNEL
Kate Lindsey, piano
Alphonse Cemin, piano
Quatuor Van Kuijk

PERFORMER: auCDtect Task Manager, ver. 1.6.0 RC1 build 1.6.0.1
Copyright © 2008-2010 y-soft. All rights reserved

ANALYZER: auCDtect: CD records authenticity detector, version 0.8.2
Copyright © 2004 Oleg Berngardt. All rights reserved.
Copyright © 2004 Alexander Djourik. All rights reserved.


FILE: 09. Chanson perpétuelle, Op. 37.flac
Size: 35645210 Hash: C97BACFAB71CA262D7BA2DA7131B56D5 Accuracy: -m0
Conclusion: CDDA 100%
Signature: 9DEC254C31C81A6EB2C4E86E33082A0CCB653540
FILE: 08. String Quartet in F Major, M. 35 IV. Vif et agité.flac
Size: 25619646 Hash: 661C70149CC369986C9A762E1102BF3A Accuracy: -m0
Conclusion: CDDA 100%
Signature: 453652D359EC0CC117B15C1D684E01673D28824F
FILE: 07. String Quartet in F Major, M. 35 III. Très lent.flac
Size: 41355630 Hash: 3B926E496D81D59EA59A734DBE2454A6 Accuracy: -m0
Conclusion: CDDA 100%
Signature: F2510103FA1508B2F18DD91885326D8D21747DC1
FILE: 06. String Quartet in F Major, M. 35 II. Assez vif, très rythmé.flac
Size: 28581716 Hash: 8D2561596373DEBC615014DDC0DF17AC Accuracy: -m0
Conclusion: CDDA 100%
Signature: BBF2A7C970E1E40969D8724FBE253A67748A5AB5
FILE: 05. String Quartet in F Major, M. 35 I. Allegro moderato.flac
Size: 43517363 Hash: C53F7D6FAC6122D778074CB81761E928 Accuracy: -m0
Conclusion: CDDA 100%
Signature: 184542BC1134BAA6D7676F86BE393B9EF9672EEB
FILE: 04. String Quartet in G Minor, Op. 10, L. 85 IV. Très modéré.flac
Size: 40174077 Hash: B3EAA9EB1489DB59BD6794E70466087A Accuracy: -m0
Conclusion: CDDA 100%
Signature: C9F8C3D88E7AE55B36CCEE4E36239BC4E240D0EE
FILE: 03. String Quartet in G Minor, Op. 10, L. 85 III. Andantino, doucement expressif.flac
Size: 38644532 Hash: 6869014D9BF15148A60BA845B6D3D7A9 Accuracy: -m0
Conclusion: CDDA 100%
Signature: 2BB8E4CA659B8780A1F49780D14573FA5F44B1F7
FILE: 02. String Quartet in G Minor, Op. 10, L. 85 II. Assez vif et bien rythmé.flac
Size: 17834558 Hash: 57A24D34E713CF49F998880672F00204 Accuracy: -m0
Conclusion: CDDA 100%
Signature: 7F70DA05053D1A0F36E99793FF3BBDF017CE8F53
FILE: 01. String Quartet in G Minor, Op. 10, L. 85 I. Animé et très décidé.flac
Size: 36054605 Hash: 0ACFAD2F24281098849BED73EA7B9A40 Accuracy: -m0
Conclusion: CDDA 100%
Signature: 72A08E5BB1EF40156625350AB192F028AF09043F

foobar2000 1.3.7 / Dynamic Range Meter 1.1.1
log date: 2017-10-02 16:40:03

––––––––––––––––––––––––––––––––––––––––
Analyzed: Quatuor Van Kuijk, Kate Lindsey, Alphonse Cemin / Debussy, Ravel & Chausson: Chamber Works (1)
Quatuor Van Kuijk / Debussy, Ravel & Chausson: Chamber Works (2-9)
––––––––––––––––––––––––––––––––––––––––

DR Peak RMS Duration Track
––––––––––––––––––––––––––––––––––––––––
DR11 -1.00 dB -17.10 dB 7:19 09-Chanson perpétuelle, Op. 37
DR12 -1.00 dB -17.69 dB 6:52 01-String Quartet in G Minor, Op. 10, L. 85: I. Animé et très décidé
DR14 -1.01 dB -21.58 dB 3:52 02-String Quartet in G Minor, Op. 10, L. 85: II. Assez vif et bien rythmé
DR16 -1.01 dB -25.14 dB 9:11 03-String Quartet in G Minor, Op. 10, L. 85: III. Andantino, doucement expressif
DR12 -1.00 dB -18.56 dB 7:55 04-String Quartet in G Minor, Op. 10, L. 85: IV. Très modéré
DR16 -1.00 dB -22.79 dB 9:01 05-String Quartet in F Major, M. 35: I. Allegro moderato
DR17 -1.00 dB -24.12 dB 6:24 06-String Quartet in F Major, M. 35: II. Assez vif, très rythmé
DR17 -2.41 dB -26.27 dB 9:34 07-String Quartet in F Major, M. 35: III. Très lent
DR13 -0.99 dB -19.20 dB 4:51 08-String Quartet in F Major, M. 35: IV. Vif et agité
––––––––––––––––––––––––––––––––––––––––

Number of tracks: 9
Official DR value: DR14

Samplerate: 44100 Hz
Channels: 2
Bits per sample: 16
Bitrate: 698 kbps
Codec: FLAC
================================================================================


Thanks to the Original customer.