Subcategories

Debussy - La Mer - Trois Nocturnes - Lso - Previn (EMI)

Posted By: mrjansons
Debussy - La Mer - Trois Nocturnes - Lso - Previn (EMI)

Debussy - La Mer - Trois Nocturnes - LSO - Previn (EMI)
EAC 099pb4 Rip | APE+CUE, LOGs | 48:24 min | 192 MB 300 dpi PDF Complete Scans
Genre: Classical - 20th Century| Label: EMI Classics


HI buddies!. I love LSO's sound when Andre Previn was its main conductor in the 70's and first 80's.. Those were great years for classsical recordings and, in fact, the first DDD recordings were done then. This OOP cd which includes a rare recording of Debussy's La mer, coupled with his Trois Nocturnes (reissued on EMI GROC series) that has been unavailable for many years so I hope you enjoy it.

I do not recall having heard Previn conduct Debussy before, and his recording of the Images four or five years ago was not especially well received as a performance (HMV ASD3804, 12/79; CD EMI CDC7 47001-2, 2/84). Like Davis's though, but in a totally different way, they have the ability to make one think about these much-recorded works afresh. I suppose I had thought that the centre of Debussy's orchestra in both pieces is the woodwind and high strings, until Davis's bracing readings, of La mer especially, revealed how much of both the light and the weight of that music can be seen to be conveyed by the brass. Where Davis's Nocturnes are mistily northern and his La mer is the Baltic, Previn moves the music much closer to the Mediterranean with his warm and passionate, never histrionic but perhaps Latin concentration on the strings.


Exact Audio Copy V0.99 prebeta 4 from 23. January 2008

EAC extraction logfile from 4. April 2009, 17:52

London Symphony Orchestra, Andre Previn / Debussy: La Mer- Trois Nocturnes

Used drive : HL-DT-STDVDRAM GSA-4163B Adapter: 1 ID: 1

Read mode : Secure
Utilize accurate stream : Yes
Defeat audio cache : Yes
Make use of C2 pointers : No

Read offset correction : 667
Overread into Lead-In and Lead-Out : No
Fill up missing offset samples with silence : Yes
Delete leading and trailing silent blocks : No
Null samples used in CRC calculations : No
Used interface : Native Win32 interface for Win NT & 2000

Used output format : User Defined Encoder
Selected bitrate : 768 kBit/s
Quality : High
Add ID3 tag : No
Command line compressor : D:\Archivos de programa\Exact Audio Copy\FLAC\FLAC.EXE
Additional command line options : -6 -V -T "ARTIST=%a" -T "TITLE=%t" -T "ALBUM=%g" -T "DATE=%y" -T "TRACKNUMBER=%n" -T "GENRE=%m" -T "COMMENT=%e" %s -o %d


TOC of the extracted CD

Track | Start | Length | Start sector | End sector
––––––––––––––––––––––––––––-
1 | 0:00.00 | 9:07.67 | 0 | 41091
2 | 9:07.67 | 7:06.65 | 41092 | 73106
3 | 16:14.57 | 8:22.30 | 73107 | 110786
4 | 24:37.12 | 8:01.13 | 110787 | 146874
5 | 32:38.25 | 6:43.57 | 146875 | 177156
6 | 39:22.07 | 11:24.30 | 177157 | 228486


Range status and errors

Selected range

Filename E:\Debussy - La mer - Previn\London Symphony Orchestra, Andre Previn - Debussy La Mer- Trois Nocturnes.wav

Peak level 100.0 %
Range quality 100.0 %
Copy CRC 2851FB6C
Copy OK

No errors occurred

End of status report


Claude Debussy

La Mer

Trois Nocturnes*

Ambrosian Chorus*

London Symphony Orchestra

André Previn

CD - EMI - CDC - 7 47028 2

There is no information regarding place and date of recording

APE+CUE+SCANS (*.pdf)

Only one RS file! (Less than 200 MB)

http://rapidshare.com/files/228431660/DPBRSVSN.rar.html

PASSWORD: Tilia cordata