Subcategories

Decameron - Say Hello To The Band (1973) [Reissue 2012]

Posted By: gribovar
Decameron - Say Hello To The Band (1973) [Reissue 2012]

Decameron - Say Hello To The Band (1973) [Reissue 2012]
EAC Rip | FLAC (tracks+.cue+log) - 289 MB | MP3 CBR 320 kbps (LAME 3.93) - 110 MB | Covers (10 MB) included
Genre: Progressive Folk Rock | RAR 3% Rec. | Label: Esoteric Recordings (ECLEC2320)

Esoteric Recordings are pleased to announce a new official CD release of the album "Say Hello To The Band” by the British Progressive/Folk-Rock group Decameron. Formed in 1968 in Gloucestershire by John Coppin (Guitar, Vocals) and Dave Bell (Guitar, Vocals), by 1971 the band evolved into a quartet with the arrival of Al Fenn on Lead Guitar and Mandolin and Geoff March on Violin and Cello. The group signed to Vertigo records in 1973 and recorded their debut album with notable guests such as Timi Donald on Drums and B.J. Cole on Dobro. A unique fusion of Folk and Progressive influences, "Say Hello To The Band” has long been sought by collectors as a vinyl artefact. This new CD edition is re-mastered from the original tapes and adds both sides of Decameron’s first single as bonus tracks. This Esoteric Recordings reissue includes a booklet that fully restores all original album artwork and features a new essay.

Tracklist:
01. Say Hello To The Band
02. Byard's Leap
03. Judith
04. Innocent Sylvester Prime
05. Crows
06. The Moon's In 'A'
07. Stoat's Grope
08. Ride A Lame Pony
09. Shine Away
10. Friday Nignt At The Regal (B-Side, 1973, Bonus track)

Total time: 42:23

Exact Audio Copy V0.99 prebeta 5 from 4. May 2009

EAC extraction logfile from 5. August 2012, 16:09

Decameron / Say Hello To The Band

Used drive : PLEXTOR DVDR PX-880U Adapter: 3 ID: 0

Read mode : Secure
Utilize accurate stream : Yes
Defeat audio cache : Yes
Make use of C2 pointers : No

Read offset correction : 6
Overread into Lead-In and Lead-Out : No
Fill up missing offset samples with silence : Yes
Delete leading and trailing silent blocks : No
Null samples used in CRC calculations : Yes
Used interface : Native Win32 interface for Win NT & 2000
Gap handling : Appended to previous track

Used output format : User Defined Encoder
Selected bitrate : 1024 kBit/s
Quality : High
Add ID3 tag : No
Command line compressor : C:\Program Files\Exact Audio Copy\Flac\flac.exe
Additional command line options : -8 -V -T "ARTIST=%a" -T "TITLE=%t" -T "ALBUM=%g" -T "DATE=%y" -T "TRACKNUMBER=%n" -T "GENRE=%m" -T "COMMENT=Rip by Rob" %s


TOC of the extracted CD

Track | Start | Length | Start sector | End sector
––––––––––––––––––––––––––––-
1 | 0:00.00 | 3:50.28 | 0 | 17277
2 | 3:50.28 | 7:27.19 | 17278 | 50821
3 | 11:17.47 | 3:24.43 | 50822 | 66164
4 | 14:42.15 | 4:26.29 | 66165 | 86143
5 | 19:08.44 | 5:00.22 | 86144 | 108665
6 | 24:08.66 | 4:39.38 | 108666 | 129628
7 | 28:48.29 | 2:30.32 | 129629 | 140910
8 | 31:18.61 | 5:22.16 | 140911 | 165076
9 | 36:41.02 | 2:41.06 | 165077 | 177157
10 | 39:22.08 | 3:01.43 | 177158 | 190775


Track 1

Filename D:\EAC\01 - Say Hello To The Band.wav

Pre-gap length 0:00:02.00

Peak level 99.4 %
Track quality 100.0 %
Test CRC 5D2B163C
Copy CRC 5D2B163C
Track not present in AccurateRip database
Copy OK

Track 2

Filename D:\EAC\02 - Byard's Leap.wav

Pre-gap length 0:00:01.47

Peak level 97.4 %
Track quality 99.9 %
Test CRC 1014D2DC
Copy CRC 1014D2DC
Track not present in AccurateRip database
Copy OK

Track 3

Filename D:\EAC\03 - Judith.wav

Pre-gap length 0:00:01.44

Peak level 99.4 %
Track quality 100.0 %
Test CRC 15908693
Copy CRC 15908693
Track not present in AccurateRip database
Copy OK

Track 4

Filename D:\EAC\04 - Innocent Sylvester Prime.wav

Pre-gap length 0:00:01.43

Peak level 92.7 %
Track quality 100.0 %
Test CRC 7CF74999
Copy CRC 7CF74999
Track not present in AccurateRip database
Copy OK

Track 5

Filename D:\EAC\05 - Crows.wav

Pre-gap length 0:00:01.35

Peak level 99.4 %
Track quality 100.0 %
Test CRC AB9024CF
Copy CRC AB9024CF
Track not present in AccurateRip database
Copy OK

Track 6

Filename D:\EAC\06 - The Moon's In 'A'.wav

Pre-gap length 0:00:01.42

Peak level 84.4 %
Track quality 100.0 %
Test CRC 12D1581A
Copy CRC 12D1581A
Track not present in AccurateRip database
Copy OK

Track 7

Filename D:\EAC\07 - Stoat's Grope.wav

Pre-gap length 0:00:01.36

Peak level 99.4 %
Track quality 99.9 %
Test CRC 0F9AEA1E
Copy CRC 0F9AEA1E
Track not present in AccurateRip database
Copy OK

Track 8

Filename D:\EAC\08 - Ride A Lame Pony.wav

Pre-gap length 0:00:01.52

Peak level 98.5 %
Track quality 100.0 %
Test CRC E55E5210
Copy CRC E55E5210
Track not present in AccurateRip database
Copy OK

Track 9

Filename D:\EAC\09 - Shine Away.wav

Pre-gap length 0:00:01.49

Peak level 98.5 %
Track quality 100.0 %
Test CRC CCF885BF
Copy CRC CCF885BF
Track not present in AccurateRip database
Copy OK

Track 10

Filename D:\EAC\10 - Friday Nignt At The Regal (B-Side 1973) (Bonus track).wav

Pre-gap length 0:00:04.40

Peak level 91.9 %
Track quality 100.0 %
Test CRC 03254F51
Copy CRC 03254F51
Track not present in AccurateRip database
Copy OK


None of the tracks are present in the AccurateRip database

No errors occurred

End of status report

[CUETools log; Date: 19.11.2019 3:22:54; Version: 2.1.4]
[CTDB TOCID: ZHG_3r.fhdHxjtePmUC6.S5EbWk-] found.
Track | CTDB Status
1 | (8/8) Accurately ripped
2 | (8/8) Accurately ripped
3 | (8/8) Accurately ripped
4 | (8/8) Accurately ripped
5 | (8/8) Accurately ripped
6 | (8/8) Accurately ripped
7 | (8/8) Accurately ripped
8 | (8/8) Accurately ripped
9 | (8/8) Accurately ripped
10 | (8/8) Accurately ripped
[AccurateRip ID: 00114852-00882ee3-7609ef0a] found.
Track [ CRC | V2 ] Status
01 [bd8ca17f|fb652655] (0+5/5) Accurately ripped
02 [ea57382f|e02464b1] (0+5/5) Accurately ripped
03 [e4dde9bb|fbdafc50] (0+5/5) Accurately ripped
04 [4483ae46|e03fe817] (0+5/5) Accurately ripped
05 [c4d32da1|20c63673] (0+5/5) Accurately ripped
06 [eb5afc62|5c4e468b] (0+5/5) Accurately ripped
07 [b0390765|79a048ce] (0+5/5) Accurately ripped
08 [d1009f31|2af97d8c] (0+5/5) Accurately ripped
09 [9e309a08|713d27ba] (0+5/5) Accurately ripped
10 [52377902|6975fe94] (0+5/5) Accurately ripped

Track Peak [ CRC32 ] [W/O NULL] [ LOG ]
– 99,4 [001B82F5] [F8D0AA51]
01 99,4 [5D2B163C] [FB68AD98] CRC32
02 97,4 [1014D2DC] [0A989858] CRC32
03 99,4 [15908693] [080EA1BA] CRC32
04 92,7 [7CF74999] [B4F4A3EA] CRC32
05 99,4 [AB9024CF] [FACB18D6] CRC32
06 84,4 [12D1581A] [27394567] CRC32
07 99,4 [0F9AEA1E] [2EE91C31] CRC32
08 98,5 [E55E5210] [ADA86973] CRC32
09 98,5 [CCF885BF] [35E9FD9C] CRC32
10 91,9 [03254F51] [A7037EC0] CRC32

Thanks to Rob