Subcategories

Dee Dee Bridgewater - Just Family (1978) {Warner}

Posted By: tiburon
Dee Dee Bridgewater - Just Family (1978) {Warner}

Dee Dee Bridgewater - Just Family (1978) {Warner}
EAC 0.95b3 | FLAC tracks level 8 | Cue+Log+M3U | Full Scans 300dpi | 263MB + 5% Recovery
MP3 CBR 320 Kbps | 113MB + 5% Recovery
Genre: Jazz, Soul, Jazz-Funk

Even though Just Family was produced by Stanley Clarke and employs a lot of musicians who had jazz backgrounds – including Chick Corea, George Duke, Airto Moreira, and Bobby Lyle – this is an R&B album first and foremost. Dee Dee Bridgewater would return to jazz in a major way in the 1980s, but in the late 1970s, she was emphasizing adult-oriented R&B and going after fans of artists like Phyllis Hyman and Minnie Riperton.
Track List
01. Just Family 5:05
02. Maybe Today 6:55
03. Children Are The Spirit (Of The World) 3:51
04. Sorry Seems To Be A Hardest Word 4:58
05. Sweet Rain 3:07
06. Open Up Your Eyes 5:33
07. Night Moves 3:14
08. Thank The Day (You Walked Into My Life) 5:17
09. Melody Maker 2:22

musicians
Dee Dee Bridgewater - vocals
Stanley Clarke - bass, string ensemble
George Duke - keyboards
Chick Corea - keyboards
Airto Moreira - percussion
Alphonso Johnson - bass
Harvey Mason - drums
Abraham Laboriel - bass
Raymond Gomez - guitar
Ndugu Leon Chancelor - drums
Bobby Lyle - keyboards
David T. Walker - guitar
Ken Wild - bass
Norman Farrington - drums
Ronnie Foster - keyboards
Scarlet Rivera - violin

Produced by Stanley Clarke


EAC extraction logfile from 26. September 2007, 19:50 for CD
Dee Dee Bridgewater / Just Family

Used drive : PLEXTOR DVDR PX-716A Adapter: 1 ID: 0
Read mode : Secure with NO C2, accurate stream, disable cache
Read offset correction : 30
Overread into Lead-In and Lead-Out : No

Used output format : Internal WAV Routines
44.100 Hz; 16 Bit; Stereo

Other options :
Fill up missing offset samples with silence : Yes
Delete leading and trailing silent blocks : No
Installed external ASPI interface


Track 1
Filename F:\[MyRip]\01 - Just Family.wav

Pre-gap length 0:00:02.00

Peak level 97.4 %
Track quality 100.0 %
Test CRC A812E7E1
Copy CRC A812E7E1
Copy OK

Track 2
Filename F:\[MyRip]\02 - Maybe Today.wav

Pre-gap length 0:00:02.48

Peak level 90.5 %
Track quality 100.0 %
Test CRC 2590BBCA
Copy CRC 2590BBCA
Copy OK

Track 3
Filename F:\[MyRip]\03 - Children Are The Spirit (Of The World).wav

Pre-gap length 0:00:02.47

Peak level 92.7 %
Track quality 100.0 %
Test CRC E559D8A2
Copy CRC E559D8A2
Copy OK

Track 4
Filename F:\[MyRip]\04 - Sorry Seems To Be A Hardest Word.wav

Pre-gap length 0:00:02.48

Peak level 92.7 %
Track quality 100.0 %
Test CRC F9F734EC
Copy CRC F9F734EC
Copy OK

Track 5
Filename F:\[MyRip]\05 - Sweet Rain.wav

Pre-gap length 0:00:02.48

Peak level 92.7 %
Track quality 100.0 %
Test CRC 912D1FFD
Copy CRC 912D1FFD
Copy OK

Track 6
Filename F:\[MyRip]\06 - Open Up Your Eyes.wav

Pre-gap length 0:00:02.48

Peak level 92.7 %
Track quality 100.0 %
Test CRC DE3872FD
Copy CRC DE3872FD
Copy OK

Track 7
Filename F:\[MyRip]\07 - Night Moves.wav

Pre-gap length 0:00:02.48

Peak level 92.7 %
Track quality 99.9 %
Test CRC 3CA97701
Copy CRC 3CA97701
Copy OK

Track 8
Filename F:\[MyRip]\08 - Thank The Day (You Walked Into My Life).wav

Pre-gap length 0:00:02.48

Peak level 92.7 %
Track quality 100.0 %
Test CRC FBBA993E
Copy CRC FBBA993E
Copy OK

Track 9
Filename F:\[MyRip]\09 - Melody Maker.wav

Pre-gap length 0:00:01.47

Peak level 69.1 %
Track quality 100.0 %
Test CRC 6704FAB0
Copy CRC 6704FAB0
Copy OK

No errors occured


End of status report


––––––––––––––––––––––––––––––––––––––––
Analyzed: Dee Dee Bridgewater / Just Family
––––––––––––––––––––––––––––––––––––––––

DR Peak RMS Duration Track
––––––––––––––––––––––––––––––––––––––––
DR11 -0.22 dB -13.65 dB 5:06 01-Just Family
DR10 -0.86 dB -13.99 dB 6:55 02-Maybe Today
DR12 -0.65 dB -14.79 dB 3:07 03-Children Are The Spirit
DR8 -0.65 dB -11.84 dB 4:58 04-Sorry Seems To Be A Hardest Word
DR12 -0.65 dB -14.49 dB 3:06 05-Sweet Rain
DR12 -0.65 dB -15.94 dB 5:34 06-Open Up Your Eyes
DR11 -0.65 dB -13.72 dB 3:14 07-Night Moves
DR11 -0.65 dB -13.81 dB 5:17 08-Thank The Day (You Walked Into My Life)
DR12 -3.21 dB -20.05 dB 2:22 09-Melody Maker
––––––––––––––––––––––––––––––––––––––––

Number of tracks: 9
Official DR value: DR11

Samplerate: 44100 Hz
Channels: 2
Bits per sample: 16
Bitrate: 733 kbps
Codec: FLAC
================================================================================

Dee Dee Bridgewater - Just Family (1978) {Warner}
Dee Dee Bridgewater - Just Family (1978) {Warner}
Dee Dee Bridgewater - Just Family (1978) {Warner}


Thanks to the original ripper