Subcategories

Deep Forest & Projects: Singles & Remixes Part 02 (1994 - 1996)

Posted By: v3122
Deep Forest & Projects: Singles & Remixes Part 02 (1994 - 1996)

Deep Forest & Projects: Singles & Remixes Part 02 (1994 - 1996)
EAC | Flac(Image) + Cue + Log & MP3 CBR 320Kbps
6CD | Label: Various | ~ 1262 or 468 Mb | Scans(png) -> 496 Mb
World Music / New Age / Electronica / House / Tribal / Downtempo / Ambient

Innovatively fusing traditional ethnic musics with state-of-the-art rhythms, the work of Deep Forest was best typified by their 1993 smash "Sweet Lullaby," which brought together the contemporary sounds of ambient techno with a haunting traditional lullaby from the Solomon Islands. The project was primarily the work of the French keyboardists and programmers Eric Mouquet and Michael Sanchez; after the latter returned from Africa with boxes of records he'd picked up across the continent, he and Mouquet began sampling the native sounds for use with their atmospheric dance tracks, and with the aid of producer Dan Lacksman, their eponymous debut LP appeared in 1993. Propelled by the international hit "Sweet Lullaby," Deep Forest was a surprise success; Mouquet and Sanchez soon began work on a follow-up, this time exploring such areas as Mongolia, India, and Hungary, recording several tracks with singer Marta Sebestyen. The resulting album, Boheme, appeared in 1995; the third Deep Forest record, Comparsa, followed in 1998, with Live in Japan appearing a year later. In 2000 the duo recorded a soundtrack, Pacifique, to the French film Le Prince du Pacifique. Deep Forest returned in 2002 with its next proper studio album, Music.Detected_. A number of best of compilations were released in subsequent years, and the duo put out a soundtrack album for the Japanese motion picture, Kusa No Ran in 2004. This was followed by silence for the rest of the Noughties. Deep Forest returned in 2016 with its sixth full-length effort – Evo Devo, an album conceptually based on the process of evolution.

by Jason Ankeny, allmusic
Deep Forest & Projects: Singles & Remixes Part 02 (1994 - 1996):

Deep Forest & Projects: Singles & Remixes Part 02 (1994 - 1996)

Tracklist CD01 - Savana Dance 1994:
Columbia ‎– 660635 2

01 - Savana Dance (LP Version) (4:26)
02 - Savana Dance (Bay Route Kettle Mix) (6:57)
03 - Savana Dance (Moorslede Remix) (5:40)
04 - Savana Dance (Sierra Nevada Remix) (7:18)

Exact Audio Copy V0.99 prebeta 5 from 4. May 2009

Отчёт EAC об извлечении, выполненном 13. марта 2011, 23:59

Deep Forest / Savana Dance (CDM - 660635 2)

Дисковод: SONY DVD RW AD-7260S Adapter: 2 ID: 0

Режим чтения : Достоверность
Использование точного потока : Да
Отключение кэша аудио : Да
Использование указателей C2 : Нет

Коррекция смещения при чтении : 48
Способность читать области Lead-in и Lead-out : Нет
Заполнение пропущенных сэмплов тишиной : Да
Удаление блоков с тишиной в начале и конце : Нет
При вычислениях CRC использовались нулевые сэмплы : Да
Интерфейс : Установленный внешний ASPI-интерфейс

Выходной формат : Внутренние WAV-операции
Формат сэмплов : 44.100 Гц; 16 бит; стерео


TOC извлечённого CD

Трек | Старт | Длительность | Начальный сектор | Конечный сектор
––––––––––––––––––––––––––––––––––-
1 | 0:00.00 | 4:24.35 | 0 | 19834
2 | 4:24.35 | 6:46.67 | 19835 | 50351
3 | 11:11.27 | 5:42.13 | 50352 | 76014
4 | 16:53.40 | 7:19.47 | 76015 | 108986


Характеристики диапазона извлечения и сообщения об ошибках

Выбранный диапазон

Имя файла K:\LOSSLESS\Upload\Deep Forest (Singles)\Deep Forest 1994 - Savana Dance (CDM - 660635 2)\Deep Forest - Savana Dance (CDM - 660635 2).wav

Пиковый уровень 100.0 %
Качество диапазона 100.0 %
CRC теста C1A446A2
CRC копии C1A446A2
Копирование… OK

Ошибок не произошло


AccurateRip: сводка

Трек 1 точное извлечение (доверие 1) [380EC4C8]
Трек 2 точное извлечение (доверие 1) [FE9D328E]
Трек 3 точное извлечение (доверие 1) [CE966283]
Трек 4 точное извлечение (доверие 1) [BEEDDB59]

Все треки извлечены точно

Конец отчёта


Deep Forest & Projects: Singles & Remixes Part 02 (1994 - 1996)

Tracklist CD02 - Savana Dance 1994:
Columbia ‎– 660635 5

01 - Savana Dance (Bay Route Groove Mix 1) (6:57)
02 - Savana Dance (Bay Route Groove Mix 2) (6:57)
03 - Savana Dance (Savana Sans Voix Mix) (4:18)
04 - Savana Dance (Ambient Mix)(5:06)

Exact Audio Copy V0.99 prebeta 5 from 4. May 2009

Отчёт EAC об извлечении, выполненном 24. февраля 2011, 15:47

Deep Forest / Savana Dance (CDM - 660635 5)

Дисковод: SONY DVD RW AD-7260S Adapter: 2 ID: 0

Режим чтения : Достоверность
Использование точного потока : Да
Отключение кэша аудио : Да
Использование указателей C2 : Нет

Коррекция смещения при чтении : 48
Способность читать области Lead-in и Lead-out : Нет
Заполнение пропущенных сэмплов тишиной : Да
Удаление блоков с тишиной в начале и конце : Нет
При вычислениях CRC использовались нулевые сэмплы : Да
Интерфейс : Установленный внешний ASPI-интерфейс

Выходной формат : Внутренние WAV-операции
Формат сэмплов : 44.100 Гц; 16 бит; стерео


TOC извлечённого CD

Трек | Старт | Длительность | Начальный сектор | Конечный сектор
––––––––––––––––––––––––––––––––––-
1 | 0:00.00 | 7:01.22 | 0 | 31596
2 | 7:01.22 | 7:01.05 | 31597 | 63176
3 | 14:02.27 | 4:20.18 | 63177 | 82694
4 | 18:22.45 | 5:06.37 | 82695 | 105681


Характеристики диапазона извлечения и сообщения об ошибках

Выбранный диапазон

Имя файла K:\LOSSLESS\Upload\Deep Forest (Singles)\Deep Forest 1994 - Savana Dance (CDM - 660635 5)\Deep Forest - Savana Dance (CDM - 660635 5).wav

Пиковый уровень 100.0 %
Качество диапазона 100.0 %
CRC теста DACFF3C2
CRC копии DACFF3C2
Копирование… OK

Ошибок не произошло


AccurateRip: сводка

Трек 1 точное извлечение (доверие 2) [F0ADC619]
Трек 2 точное извлечение (доверие 2) [595EC23E]
Трек 3 точное извлечение (доверие 2) [E4252E7B]
Трек 4 точное извлечение (доверие 2) [D6153DFC]

Все треки извлечены точно

Конец отчёта


Deep Forest & Projects: Singles & Remixes Part 02 (1994 - 1996)

Tracklist CD03 - Boheme (Limited Australian Tour Edition - Bonus CD) 1995:
Epic ‎– 486618 2

01 - Forest Hymn (Album Version) (5:48)
02 - White Whisper (Album Version) (5:46)
03 - Boheme (Orange Mix - Shazz) (6:15)
04 - Boheme (Dreadzone Mix - Pylon King) (6:24)
05 - Marta's Song (Rainforest Crunch Mix) (7:33)
06 - Deep Forest (Kevin Godley Mix) (3:41)
07 - While The Earth Sleeps (Featuring Peter Gabriel) (6:23)
08 - Sweet Lullaby (Remix) (6:08)

Exact Audio Copy V0.99 prebeta 5 from 4. May 2009

EAC extraction logfile from 25. May 2010, 23:17

Deep Forest / Boheme (Limited Australian Tour Edition - Bonus CD)

Used drive : TSSTcorpCDDVDW SH-S223F Adapter: 0 ID: 1

Read mode : Secure
Utilize accurate stream : Yes
Defeat audio cache : Yes
Make use of C2 pointers : No

Read offset correction : 6
Overread into Lead-In and Lead-Out : No
Fill up missing offset samples with silence : Yes
Delete leading and trailing silent blocks : No
Null samples used in CRC calculations : Yes
Used interface : Installed external ASPI interface

Used output format : Internal WAV Routines
Sample format : 44.100 Hz; 16 Bit; Stereo


TOC of the extracted CD

Track | Start | Length | Start sector | End sector
––––––––––––––––––––––––––––-
1 | 0:00.00 | 5:48.30 | 0 | 26129
2 | 5:48.30 | 5:46.55 | 26130 | 52134
3 | 11:35.10 | 6:15.15 | 52135 | 80274
4 | 17:50.25 | 6:24.72 | 80275 | 109146
5 | 24:15.22 | 7:33.65 | 109147 | 143186
6 | 31:49.12 | 3:41.35 | 143187 | 159796
7 | 35:30.47 | 6:23.60 | 159797 | 188581
8 | 41:54.32 | 6:08.05 | 188582 | 216186


Range status and errors

Selected range

Filename K:\Temp\UPLOAD\Deep Forest\Deep Forest 1995 - Boheme (Limited Australian Tour Edition - Bonus CD)\Deep Forest - Boheme (Limited Australian Tour Edition - Bonus CD).wav

Peak level 100.0 %
Range quality 100.0 %
Copy CRC 8A1667B8
Copy OK

No errors occurred


AccurateRip summary

Track 1 accurately ripped (confidence 9) [42C80E2F]
Track 2 accurately ripped (confidence 9) [AFA3DBB7]
Track 3 accurately ripped (confidence 9) [7E568AB9]
Track 4 accurately ripped (confidence 9) [E3BC1CA6]
Track 5 accurately ripped (confidence 9) [0AFB98CC]
Track 6 accurately ripped (confidence 9) [4B296CFB]
Track 7 accurately ripped (confidence 9) [BC3749AF]
Track 8 accurately ripped (confidence 9) [E7A45FC0]

All tracks accurately ripped

End of status report


Deep Forest & Projects: Singles & Remixes Part 02 (1994 - 1996)

Tracklist CD04 - Boheme (The Remixes) 1995:
Columbia ‎– COL 662319 5

01. Boheme (Citizen Zexos Mix) (7:05)
02. Boheme (Dreadzone Remix) (6:24)
03. Boheme (Abstract Mix) (5:53)
04. Boheme (Voices Of Kwahn Mix) (9:50)

Exact Audio Copy V1.0 beta 1 from 15. November 2010

EAC extraction logfile from 24. October 2011, 19:52

Deep Forest / Boheme [The Remixes]

Used drive : SONY DVD RW AD-7260S Adapter: 3 ID: 0

Read mode : Secure
Utilize accurate stream : Yes
Defeat audio cache : Yes
Make use of C2 pointers : No

Read offset correction : 48
Overread into Lead-In and Lead-Out : No
Fill up missing offset samples with silence : Yes
Delete leading and trailing silent blocks : No
Null samples used in CRC calculations : Yes
Used interface : Native Win32 interface for Win NT & 2000

Used output format : Internal WAV Routines
Sample format : 44.100 Hz; 16 Bit; Stereo


TOC of the extracted CD

Track | Start | Length | Start sector | End sector
––––––––––––––––––––––––––––-
1 | 0:00.32 | 7:08.23 | 32 | 32154
2 | 7:08.55 | 6:26.70 | 32155 | 61174
3 | 13:35.50 | 5:55.55 | 61175 | 87854
4 | 19:31.30 | 9:49.52 | 87855 | 132081


Range status and errors

Selected range

Filename P:\Lossless Upload\Deep Forest\Deep Forest (non-Japanese Press)\Deep Forest 1995 - Boheme [The Remixes]\Deep Forest - Boheme [The Remixes].wav

Peak level 99.2 %
Extraction speed 1.1 X
Range quality 100.0 %
Test CRC D2641EE3
Copy CRC D2641EE3
Copy OK

No errors occurred


AccurateRip summary

Track 1 not present in database
Track 2 not present in database
Track 3 not present in database
Track 4 not present in database

None of the tracks are present in the AccurateRip database

End of status report


Deep Forest & Projects: Singles & Remixes Part 02 (1994 - 1996)

Tracklist CD05 - Marta's Song (The Remixes) 1995:
Columbia ‎– COL 661361 5

01 - Marta's Song (Armand's Muslim Moose Mix) (7:04)
02 - Marta's Song (Armand's Tribal-n-Trance Mix) (8:20)
03 - Marta's Song (Green Lung Remix) (5:21)
04 - Marta's Song (New Moon Remix) (7:28)
05 - Marta's Song (Deep In The Jungle Remix) (6:30)
06 - Marta's Song (Deep Remarta Remix) (5:43)

Exact Audio Copy V0.99 prebeta 5 from 4. May 2009

Отчёт EAC об извлечении, выполненном 16. марта 2011, 23:52

Deep Forest / Marta's Song [The Remixes] (CDM)

Дисковод: SONY DVD RW AD-7260S Adapter: 2 ID: 0

Режим чтения : Достоверность
Использование точного потока : Да
Отключение кэша аудио : Да
Использование указателей C2 : Нет

Коррекция смещения при чтении : 48
Способность читать области Lead-in и Lead-out : Нет
Заполнение пропущенных сэмплов тишиной : Да
Удаление блоков с тишиной в начале и конце : Нет
При вычислениях CRC использовались нулевые сэмплы : Да
Интерфейс : Установленный внешний ASPI-интерфейс

Выходной формат : Внутренние WAV-операции
Формат сэмплов : 44.100 Гц; 16 бит; стерео


TOC извлечённого CD

Трек | Старт | Длительность | Начальный сектор | Конечный сектор
––––––––––––––––––––––––––––––––––-
1 | 0:00.32 | 7:06.08 | 32 | 31989
2 | 7:06.40 | 8:21.15 | 31990 | 69579
3 | 15:27.55 | 5:22.40 | 69580 | 93769
4 | 20:50.20 | 7:30.10 | 93770 | 127529
5 | 28:20.30 | 6:32.10 | 127530 | 156939
6 | 34:52.40 | 5:43.07 | 156940 | 182671


Характеристики диапазона извлечения и сообщения об ошибках

Выбранный диапазон

Имя файла K:\LOSSLESS\Upload\Deep Forest (Singles)\Deep Forest 1995 - Marta's Song [The Remixes] (CDM)\Deep Forest - Marta's Song [The Remixes] (CDM).wav

Пиковый уровень 100.0 %
Качество диапазона 100.0 %
CRC теста 229F6AA8
CRC копии 229F6AA8
Копирование… OK

Ошибок не произошло


AccurateRip: сводка

Трек 1 точное извлечение (доверие 3) [EEAF6A07]
Трек 2 точное извлечение (доверие 3) [942A92B9]
Трек 3 точное извлечение (доверие 3) [29DAF8DC]
Трек 4 точное извлечение (доверие 3) [9127EFF1]
Трек 5 точное извлечение (доверие 3) [29B8B62B]
Трек 6 точное извлечение (доверие 3) [4F26E8F7]

Все треки извлечены точно

Конец отчёта


Deep Forest & Projects: Singles & Remixes Part 02 (1994 - 1996)

Tracklist CD06 - Bohemian Ballet (Promo CDM) 1996:
550 Music ‎– BSK 7316

01 - Bohemian Ballet (Album Version) (5:15)
02 - Bohemian Ballet (Deep Forest Hard Version (Long Version)) (5:21)
03 - Bohemian Ballet (Adrian Sherwood Remix (Adrian's Remix)) (7:08)
04 - Bohemian Ballet (Mindless Self-Indulgence Hard Electronic Version) (3:38)
05 - Bohemian Ballet (Deep Forest Chemisty Set Remix (Vlaben Edit)) (5:15)

Exact Audio Copy V0.99 prebeta 5 from 4. May 2009

Отчёт EAC об извлечении, выполненном 27. февраля 2011, 12:58

Deep Forest / Bohemian Ballet (Promo CDM)

Дисковод: SONY DVD RW AD-7260S Adapter: 2 ID: 0

Режим чтения : Достоверность
Использование точного потока : Да
Отключение кэша аудио : Да
Использование указателей C2 : Нет

Коррекция смещения при чтении : 48
Способность читать области Lead-in и Lead-out : Нет
Заполнение пропущенных сэмплов тишиной : Да
Удаление блоков с тишиной в начале и конце : Нет
При вычислениях CRC использовались нулевые сэмплы : Да
Интерфейс : Установленный внешний ASPI-интерфейс

Выходной формат : Внутренние WAV-операции
Формат сэмплов : 44.100 Гц; 16 бит; стерео


TOC извлечённого CD

Трек | Старт | Длительность | Начальный сектор | Конечный сектор
––––––––––––––––––––––––––––––––––-
1 | 0:00.00 | 5:14.40 | 0 | 23589
2 | 5:14.40 | 5:22.55 | 23590 | 47794
3 | 10:37.20 | 7:14.62 | 47795 | 80406
4 | 17:52.07 | 3:42.50 | 80407 | 97106
5 | 21:34.57 | 6:36.25 | 97107 | 126831


Характеристики диапазона извлечения и сообщения об ошибках

Выбранный диапазон

Имя файла K:\LOSSLESS\Upload\Deep Forest (Singles)\Deep Forest 1996 - Bohemian Ballet (Promo CDM)\Deep Forest - Bohemian Ballet (Promo CDM).wav

Пиковый уровень 100.0 %
Качество диапазона 100.0 %
CRC теста F5C939DB
CRC копии F5C939DB
Копирование… OK

Ошибок не произошло


AccurateRip: сводка

Трек 1 нет в базе данных
Трек 2 нет в базе данных
Трек 3 нет в базе данных
Трек 4 нет в базе данных
Трек 5 нет в базе данных

Ни одного трека нет в базе AccurateRip

Конец отчёта


All thanks go to aylaayla

Deep Forest or Deep Forest in my Blog

Download Deep Forest & Projects: Singles & Remixes Part 02 (1994 - 1996):