Subcategories
Tags
Language
Tags

Deep Purple - Beyond The Purple (2010) {10CD Box Set, Remastered, Japan} Re-Up

Posted By: popsakov
Deep Purple - Beyond The Purple (2010) {10CD Box Set, Remastered, Japan} Re-Up

Deep Purple - Beyond The Purple (2010) {10CD Box Set, Remastered, Japan}
10 CD | EAC Rip | FLAC, Img+Cue, Log+Checker ~ 3,04 Gb | MP3 CBR320 ~ 1,05 Gb
Covers & Booklets: JPG (600/300 dpi) ~ 353 Mb or PNG (600/300 dpi) ~ 2,08 Gb | RAR 5% Recovery
Hard Rock, Classic Rock | Warner Music Japan #WPCR-13924/33

Limited 10CD box set release from Deep Purple featuring the 2010 remastering. Includes a 120-page booklet, a description, and lyrics. Set includes 10 albums: "Concerto for Group and Orchestra," "Deep Purple in Rock," "Fireball," "Machine Head," "Made in Japan," "Who Do We Think We Are," "Burn," "Stormbringer," "Come Taste the Band," and "Made in Europe."

First impressions - looks great. Artwork doesn’t look like the picture shown by Simon on the DPAS blog. That picture doesn’t do justice to what I have in front of me. The lid of the box is of a velvety material and the design is silver like and is pressed on it. It really looks like an artistic “cover”. Then the opening of the box. First thing a see is a book with a black cover with the same picture as on the front but in grey. The “cover” of the book is of a carton like paper, the inside is normal paper. And as with (all) Japanese editions this one won’t disappoint you. Yes, it’s in Japanese (though some things are in English like the newspaper cuttings and the notes on the pictures). Almost every page has a picture on it, band or otherwise, and again it’s much to my like. 119 pages with lots of information. Then the box with the cd’s (underneath). Again, on the front, the same picture as on the box but now glossy purple and white. Nicely done. On the back it lists the albums that are in: Concerto, In Rock, Fireball, Machine Head, Live in Japan, Who do we Think we are, Burn, Stormbringer, Come Taste the Band, Made in Europe - the 10 cds released by Mk 2, 3 and 4, so don’t expect something new or unreleased. Opening the box (reveals) another booklet, this time in black and white. The booklet contains all the lyrics in English as well as in Japanese. I Have no clue if they are remastered or not. I can only say that these versions are of a better quality, sound wise that is, then the european/american versions.

Conclusion: The boxset is is nicely done and looks really good. It’s nice for someone who wants all the cd’s from mark 2, 3 and 4 in one boxset. If they are “real” Japanese releases you have the best quality you can have. Can’t say that I miss a lot (except) “Last Concert in Japan” and an English text. I can’t imagine that only Japanese people buy these releases.

~ Ralph Pondman
Deep Purple - Beyond The Purple (2010) {10CD Box Set, Remastered, Japan} Re-Up

Deep Purple Mk 1

Biography

Deep Purple survived a seemingly endless series of lineup changes and a dramatic mid-career shift from grandiose progressive rock to ear-shattering heavy metal to emerge as a true institution of the British hard rock community; once credited in the Guinness Book of World Records as the globe's loudest band, their revolving-door roster launched the careers of performers including Ritchie Blackmore, David Coverdale, and Ian Gillan.

Deep Purple was formed in Hertford, England, in 1968, with an inaugural lineup that featured guitarist Blackmore, vocalist Rod Evans, bassist Nick Simper, keyboardist Jon Lord, and drummer Ian Paice. Initially dubbed Roundabout, the group was first assembled as a session band for ex-Searchers drummer Chris Curtis but quickly went their own way, touring Scandinavia before beginning work on their debut LP, Shades of Deep Purple. The most pop-oriented release of their career, the album generated a Top Five American hit with its reading of Joe South's "Hush" but otherwise went unnoticed at home. The Book of Taliesyn followed (in the U.S. only) in 1969, again cracking the U.S. Top 40 with a cover of Neil Diamond's "Kentucky Woman."

With their self-titled third LP, Deep Purple's ambitions grew, however; the songs reflecting a new complexity and density as Lord's classically influenced keyboards assumed a much greater focus. Soon after the album's release, their American label Tetragrammaton folded, and with the dismissals of Evans and Simper, the band started fresh, recruiting singer Ian Gillan and bassist Roger Glover from the ranks of the pop group Episode Six.

The revamped Deep Purple's first album, 1970's Concerto for Group and Orchestra, further sought to fuse rock and classical music. When the project, which was recorded with the Royal Philharmonic Orchestra, was poorly received, Blackmore took creative control of the band, steering it towards a heavier, guitar-dominated approach which took full advantage of Gillan's powerful vocals. The gambit worked; 1970's Deep Purple in Rock heralded the beginning of the group's most creatively and commercially successful period. At home, the album sold over a million copies, with the subsequent non-LP single "Black Night" falling just shy of topping the U.K. pop charts. Released in 1971, Fireball was also a smash, scoring a hit with "Strange Kind of Woman."

Plans to record the follow-up at the Casino in Montreux, Switzerland, were derailed after the venue burned down during a live appearance by Frank Zappa, but the experience inspired Deep Purple's most enduring hit, the AOR staple "Smoke on the Water." The song, featured on the multi-platinum classic Machine Head, reached the U.S. Top Five in mid-1972 and positioned Deep Purple among rock's elite; the band consolidated its status with the 1973 studio follow-up Who Do We Think We Are and the hit "Woman from Tokyo." However, long-simmering creative differences between Blackmore and Gillan pushed the latter out of the group that same year, with Glover soon exiting as well. Singer David Coverdale and bassist/singer Glenn Hughes were recruited for 1974's Burn, and Gillan meanwhile formed a band bearing his own name.

After completing 1974's Stormbringer, Blackmore left Deep Purple as well, to form Rainbow with vocalist Ronnie James Dio; his replacement was ex-James Gang guitarist Tommy Bolin, who made his debut on Come Taste the Band. All the changes clearly took their toll, however, and following a farewell tour, the group dissolved in 1976. Coverdale, meanwhile, went on to form Whitesnake, and Bolin died of a drug overdose later in the year.

The classic lineup of Blackmore, Gillan, Lord, Glover, and Paice reunited Deep Purple in 1984 for a new album, the platinum smash Perfect Strangers. The House of Blue Light followed three years later, but as past tensions resurfaced, Gillan again exited in mid-1989. Onetime Rainbow vocalist Joe Lynn Turner was recruited for 1990's Slaves and Masters before Gillan again rejoined to record The Battle Rages On…, an apt title as Blackmore quit the group midway through the supporting tour, to be temporarily replaced by Joe Satriani.

In 1994, Steve Morse took over the guitar slot (fresh from a stint in Kansas), and the revitalized group returned to the studio for 1996's Purpendicular, which proved a success among the Purple faithful. 1998's Abandon followed, as well as a 1999 orchestral performance released the following year as Live at the Royal Albert Hall. Deep Purple was given the box set treatment the same year with the four-disc set Shades: 1968-1998, which collected hits, demos, live takes, and unreleased tracks from throughout the years (touching upon all of Purple's different lineups).

The late '90s/early 2000s saw the release of several other archival releases and collections (Machine Head's 25th anniversary, Friends & Relatives, Rhino's The Very Best Of, and Days May Come and Days May Go: The 1975 California Rehearsals), as well as a slew of DVDs (Total Abandon: Live Australia 1999, In Concert with the London Symphony Orchestra, Bombay Calling, and New Live & Rare). Former member Blackmore also kept himself busy after leaving the band by issuing a single album with his briefly resuscitated outfit Rainbow (1998's Stranger in Us All), before forming the Renaissance-inspired Blackmore's Night with fiancée/vocalist Candice Night. Despite numerous lineup upheavals during their career, Deep Purple remained alive and well in the 21st century.

~ by Jason Ankeny
Deep Purple - Beyond The Purple (2010) {10CD Box Set, Remastered, Japan} Re-Up

Deep Purple Mk 4


***************

Deep Purple - Beyond The Purple (2010) {10CD Box Set, Remastered, Japan} Re-Up

Disc 1: Deep Purple - Concerto For Group And Orchestra (1970)
EAC Rip | FLAC (Img) + Cue + Log ~ 332 Mb | MP3 CBR320 ~ 129 Mb
WEA International Inc. #WPCR-13924

Recorded September 24th 1969 at Royal Albert Hall, London. First issued (gatefolded) in December 1969 in U.S.A. on Tetragrammaton Records T 131. (This edition was short lived as the company went bust in early 1970). The distribution in U.S.A. was then managed by Warner Bros. WS 1860. First UK edition on Harvest SHVL 767 in January 1970 (Two versions are in circulation: V1 laminated only outside and printed by E.J.Day - V2 laminated inside as well and printed by Gerrard & Lofthouse). Four different vinyl versions in Japan chronological (all Warner Bros.): BP 8962 (June 1970), P 8093W, P 6504W, P10331W (1976).
Track List:

01. First Movement: a. Moderato / b. Allegro / c. Vivace [19:11]
02. Second Movement: Part One-Andante [06:33]
03. Second Movement: Part Two [12:27]
04. Third Movement [15:31]

Total time: 00:53:46

• Ritchie Blackmore • guitar
• Ian Gillan • vocals
• Jon Lord • keyboards
• Ian Paice • drums
• Roger Glover • bass guitar
• Royal Philharmonic Orchestra / Malcolm Arnold • conductor

Exact Audio Copy V1.0 beta 1 from 15. November 2010

EAC extraction logfile from 3. March 2011, 13:48

Deep Purple / Concerto For Group And Orchestra

Used drive : HL-DT-STDVDRAM GSA-H60N Adapter: 2 ID: 0

Read mode : Secure
Utilize accurate stream : Yes
Defeat audio cache : Yes
Make use of C2 pointers : No

Read offset correction : 667
Overread into Lead-In and Lead-Out : No
Fill up missing offset samples with silence : Yes
Delete leading and trailing silent blocks : No
Null samples used in CRC calculations : Yes
Used interface : Native Win32 interface for Win NT & 2000

Used output format : Internal WAV Routines
Sample format : 44.100 Hz; 16 Bit; Stereo


TOC of the extracted CD

Track | Start | Length | Start sector | End sector
––––––––––––––––––––––––––––-
1 | 0:00.00 | 19:11.69 | 0 | 86393
2 | 19:11.69 | 6:33.31 | 86394 | 115899
3 | 25:45.25 | 12:29.13 | 115900 | 172087
4 | 38:14.38 | 15:31.58 | 172088 | 241970


Range status and errors

Selected range

Filename C:\Documents and Settings\Администратор\Рабочий стол\Lossless Galaxy Rip by ALLexxess\2010 Beyond The Purple (10CD Box Set Warner Music Japan)\1970 Concerto For Group And Orchestra\Deep Purple - Concerto For Group And Orchestra.wav

Peak level 100.0 %
Extraction speed 1.7 X
Range quality 100.0 %
Test CRC 4796604B
Copy CRC 4796604B
Copy OK

No errors occurred


AccurateRip summary

Track 1 not present in database
Track 2 not present in database
Track 3 not present in database
Track 4 not present in database

None of the tracks are present in the AccurateRip database

End of status report

==== Log checksum 691EB99DA53D2D5E9822661AEB1519966116662BF6E486A7128F4B213809258A ====

foobar2000 1.2.6 / Dynamic Range Meter 1.1.1
log date: 2015-03-02 19:28:49

––––––––––––––––––––––––––––––––––––––––
Analyzed: Deep Purple / Concerto For Group And Orchestra
––––––––––––––––––––––––––––––––––––––––

DR Peak RMS Duration Track
––––––––––––––––––––––––––––––––––––––––
DR7 0.00 dB -10.53 dB 19:12 01-First Movement: a. Moderato / b. Allegro / c. Vivace
DR8 0.00 dB -13.56 dB 6:33 02-Second Movement: Part One-Andante
DR7 0.00 dB -12.18 dB 12:29 03-Second Movement: Part Two
DR7 0.00 dB -9.99 dB 15:32 04-Third Movement
––––––––––––––––––––––––––––––––––––––––

Number of tracks: 4
Official DR value: DR7

Samplerate: 44100 Hz
Channels: 2
Bits per sample: 16
Bitrate: 822 kbps
Codec: FLAC
================================================================================

[CUETools log; Date: 02.03.2015 19:17:31; Version: 2.1.5]
[CTDB TOCID: vIWgeNJLJ.g3wkldqFWf2kpyjyo-] found.
Track | CTDB Status
1 | (4/4) Accurately ripped
2 | (4/4) Accurately ripped
3 | (4/4) Accurately ripped
4 | (4/4) Accurately ripped
[AccurateRip ID: 000967a1-0024e808-300c9a04] found.
Track [ CRC | V2 ] Status
01 [07febd8b|e7d9dfbd] (0+2/2) Accurately ripped
02 [d8494852|b3fa2d18] (0+2/2) Accurately ripped
03 [69efb842|097fce12] (0+2/2) Accurately ripped
04 [e6af22c3|4178a477] (0+2/2) Accurately ripped

Track Peak [ CRC32 ] [W/O NULL] [ LOG ]
– 100,0 [4796604B] [385FE6F4] CRC32
01 100,0 [6E29E1C3] [EFAD42B3]
02 100,0 [40B92AD0] [708A93C5]
03 100,0 [5B5E1A1F] [1E96C527]
04 100,0 [A114759D] [7F104CE5]

Deep Purple - Beyond The Purple (2010) {10CD Box Set, Remastered, Japan} Re-Up

Disc 2: Deep Purple - In Rock (1970)
EAC Rip | FLAC (Img) + Cue + Log ~ 289 Mb | MP3 CBR320 ~ 102 Mb
WEA International Inc. #WPCR-13925

Recorded from October 1969 to April 1970 at the IBC Studio, De Lane Lea Studios and Abbey Road Studios, all in London. First issued in UK, June 1970 on Harvest SHVL 777: The original album came in a gatefold sleeve. The inner gatefold had lyrics on left and five black & white photos of the individual band members on the right and text on the right. The earliest copies are those which have one line around the EMI logo on the front.
Track List:

01. Speed King [04:21]
02. Bloodsucker [04:13]
03. Child In Time [10:22]
04. Flight Of The Rat [07:55]
05. Into The Fire [03:31]
06. Living Wreck [04:32]
07. Hard Lovin' Man [07:15]

Total time: 00:42:24

• Ritchie Blackmore • guitar
• Ian Gillan • vocals
• Jon Lord • keyboards
• Ian Paice • drums
• Roger Glover • bass guitar

Exact Audio Copy V1.0 beta 1 from 15. November 2010

EAC extraction logfile from 3. March 2011, 14:35

Deep Purple / In Rock

Used drive : HL-DT-STDVDRAM GSA-H60N Adapter: 2 ID: 0

Read mode : Secure
Utilize accurate stream : Yes
Defeat audio cache : Yes
Make use of C2 pointers : No

Read offset correction : 667
Overread into Lead-In and Lead-Out : No
Fill up missing offset samples with silence : Yes
Delete leading and trailing silent blocks : No
Null samples used in CRC calculations : Yes
Used interface : Native Win32 interface for Win NT & 2000

Used output format : Internal WAV Routines
Sample format : 44.100 Hz; 16 Bit; Stereo


TOC of the extracted CD

Track | Start | Length | Start sector | End sector
––––––––––––––––––––––––––––-
1 | 0:00.00 | 4:24.23 | 0 | 19822
2 | 4:24.23 | 4:16.27 | 19823 | 39049
3 | 8:40.50 | 10:24.22 | 39050 | 85871
4 | 19:04.72 | 7:58.15 | 85872 | 121736
5 | 27:03.12 | 3:31.05 | 121737 | 137566
6 | 30:34.17 | 4:34.63 | 137567 | 158179
7 | 35:09.05 | 7:15.19 | 158180 | 190823


Range status and errors

Selected range

Filename C:\Documents and Settings\Администратор\Рабочий стол\Lossless Galaxy Rip by ALLexxess\2010 Beyond The Purple (10CD Box Set Warner Music Japan)\1970 In Rock\Deep Purple - In Rock.wav

Peak level 100.0 %
Extraction speed 0.9 X
Range quality 99.9 %
Test CRC 634E918A
Copy CRC 634E918A
Copy OK

No errors occurred


AccurateRip summary

Track 1 not present in database
Track 2 not present in database
Track 3 not present in database
Track 4 not present in database
Track 5 not present in database
Track 6 not present in database
Track 7 not present in database

None of the tracks are present in the AccurateRip database

End of status report

==== Log checksum 2AA6C0E7B8D576A8CF49DDEA51E269A69188650A33D074C48ABB5A88D1423FD8 ====

foobar2000 1.2.6 / Dynamic Range Meter 1.1.1
log date: 2015-03-02 19:28:19

––––––––––––––––––––––––––––––––––––––––
Analyzed: Deep Purple / In Rock
––––––––––––––––––––––––––––––––––––––––

DR Peak RMS Duration Track
––––––––––––––––––––––––––––––––––––––––
DR7 0.00 dB -8.09 dB 4:24 01-Speed King
DR8 0.00 dB -9.80 dB 4:16 02-Bloodsucker
DR7 0.00 dB -9.39 dB 10:24 03-Child In Time
DR9 0.00 dB -10.13 dB 7:58 04-Flight Of The Rat
DR8 0.00 dB -9.03 dB 3:31 05-Into The Fire
DR8 0.00 dB -10.12 dB 4:35 06-Living Wreck
DR8 0.00 dB -9.75 dB 7:15 07-Hard Lovin' Man
––––––––––––––––––––––––––––––––––––––––

Number of tracks: 7
Official DR value: DR8

Samplerate: 44100 Hz
Channels: 2
Bits per sample: 16
Bitrate: 905 kbps
Codec: FLAC
================================================================================

[CUETools log; Date: 02.03.2015 19:18:08; Version: 2.1.5]
[CTDB TOCID: p7hF2Kx4btKVAQAKi9LHyDunpZo-] found.
Track | CTDB Status
1 | (5/5) Accurately ripped
2 | (5/5) Accurately ripped
3 | (5/5) Accurately ripped
4 | (5/5) Accurately ripped
5 | (5/5) Accurately ripped
6 | (5/5) Accurately ripped
7 | (5/5) Accurately ripped
[AccurateRip ID: 000b7d9d-0045b4a0-4a09f007] found.
Track [ CRC | V2 ] Status
01 [e95725f1|450dd996] (0+3/3) Accurately ripped
02 [b72f33f4|1226c40a] (0+3/3) Accurately ripped
03 [cfc622a5|786fd3ed] (0+3/3) Accurately ripped
04 [1ae1251c|35d1f5e9] (0+3/3) Accurately ripped
05 [58d82fcb|c4d1448b] (0+3/3) Accurately ripped
06 [eb34a488|eeadf72d] (0+3/3) Accurately ripped
07 [cc4a7ec4|7ceb3774] (0+3/3) Accurately ripped

Track Peak [ CRC32 ] [W/O NULL] [ LOG ]
– 100,0 [634E918A] [25BB1F3D] CRC32
01 100,0 [A8C48323] [0F96C32F]
02 100,0 [2AD4EB69] [8162E07F]
03 100,0 [0592032B] [FDA016D3]
04 100,0 [33AC0CC3] [733B1009]
05 100,0 [D536282D] [9FA0DF3F]
06 100,0 [347B9EA2] [43F43F6A]
07 100,0 [7F48082F] [E4562B38]

Deep Purple - Beyond The Purple (2010) {10CD Box Set, Remastered, Japan} Re-Up

Disc 3: Deep Purple - Fireball (1971)
EAC Rip | FLAC (Img) + Cue + Log ~ 270 Mb | MP3 CBR320 ~ 95 Mb
WEA International Inc. #WPCR-13926

Recorded from September 1970 to June 1971 at De Lane Lea Studios, the Olympic Studios in London, as well as The Hermitage in Welcombe, North Devon. First released in May 1971 in US on Warner BS-2564 and Japan on Warner P-8092W. European releases: Germany August 1971 Harvest 1C 038-157562-1 (1LP) - UK September 1971 Harvest SHVL-793 (1LP) - France September 1971 Harvest SHVL-793 (1LP) - Germany October 1971 Harvest 1C 238-157562-4 (1MC) - UK 1971 Harvest TC-SHVL-793 (1E 244-92726) (1MC) - Italy 1971 Harvest 3C 062-92726 (1LP).
Track List:

01. Fireball [03:24]
02. No No No [06:53]
03. Strange Kind Of Woman [04:05]
04. Anyone's Daughter [04:42]
05. The Mule [05:19]
06. Fools [08:17]
07. No One Came [06:26]

Total time: 00:39:15

• Ritchie Blackmore • guitar
• Ian Gillan • vocals
• Jon Lord • keyboards
• Ian Paice • drums
• Roger Glover • bass guitar

Exact Audio Copy V1.0 beta 1 from 15. November 2010

EAC extraction logfile from 3. March 2011, 15:14

Deep Purple / Fireball

Used drive : HL-DT-STDVDRAM GSA-H60N Adapter: 2 ID: 0

Read mode : Secure
Utilize accurate stream : Yes
Defeat audio cache : Yes
Make use of C2 pointers : No

Read offset correction : 667
Overread into Lead-In and Lead-Out : No
Fill up missing offset samples with silence : Yes
Delete leading and trailing silent blocks : No
Null samples used in CRC calculations : Yes
Used interface : Native Win32 interface for Win NT & 2000

Used output format : Internal WAV Routines
Sample format : 44.100 Hz; 16 Bit; Stereo


TOC of the extracted CD

Track | Start | Length | Start sector | End sector
––––––––––––––––––––––––––––-
1 | 0:00.00 | 3:24.67 | 0 | 15366
2 | 3:24.67 | 6:53.70 | 15367 | 46411
3 | 10:18.62 | 4:06.05 | 46412 | 64866
4 | 14:24.67 | 4:43.41 | 64867 | 86132
5 | 19:08.33 | 5:21.55 | 86133 | 110262
6 | 24:30.13 | 8:18.48 | 110263 | 147660
7 | 32:48.61 | 6:26.22 | 147661 | 176632


Range status and errors

Selected range

Filename C:\Documents and Settings\Администратор\Рабочий стол\Lossless Galaxy Rip by ALLexxess\2010 Beyond The Purple (10CD Box Set Warner Music Japan)\1971 Fireball\Deep Purple - Fireball.wav

Peak level 100.0 %
Extraction speed 0.9 X
Range quality 100.0 %
Test CRC C5BB4810
Copy CRC C5BB4810
Copy OK

No errors occurred


AccurateRip summary

Track 1 not present in database
Track 2 not present in database
Track 3 not present in database
Track 4 not present in database
Track 5 not present in database
Track 6 not present in database
Track 7 not present in database

None of the tracks are present in the AccurateRip database

End of status report

==== Log checksum FD1CACF94ED55FAC9F7ECF212F7ED6EE11C457A1AFD74E6FFA1FB0FBA08FF47A ====

foobar2000 1.2.6 / Dynamic Range Meter 1.1.1
log date: 2015-03-02 19:27:56

––––––––––––––––––––––––––––––––––––––––
Analyzed: Deep Purple / Fireball
––––––––––––––––––––––––––––––––––––––––

DR Peak RMS Duration Track
––––––––––––––––––––––––––––––––––––––––
DR7 0.00 dB -8.73 dB 3:25 01-Fireball
DR8 0.00 dB -9.33 dB 6:54 02-No No No
DR7 0.00 dB -8.31 dB 4:06 03-Strange Kind Of Woman
DR8 0.00 dB -10.29 dB 4:44 04-Anyone's Daughter
DR6 0.00 dB -7.65 dB 5:22 05-The Mule
DR8 0.00 dB -10.85 dB 8:19 06-Fools
DR7 0.00 dB -7.71 dB 6:26 07-No One Came
––––––––––––––––––––––––––––––––––––––––

Number of tracks: 7
Official DR value: DR7

Samplerate: 44100 Hz
Channels: 2
Bits per sample: 16
Bitrate: 914 kbps
Codec: FLAC
================================================================================

[CUETools log; Date: 02.03.2015 19:18:36; Version: 2.1.5]
[CTDB TOCID: 3G6dJ5h1sOKXYOUkPW_oi2pF7wc-] found.
Track | CTDB Status
1 | (5/5) Accurately ripped
2 | (5/5) Accurately ripped
3 | (5/5) Accurately ripped
4 | (5/5) Accurately ripped
5 | (5/5) Accurately ripped
6 | (5/5) Accurately ripped
7 | (5/5) Accurately ripped
[AccurateRip ID: 0009e0a8-003c8d75-4c093307] found.
Track [ CRC | V2 ] Status
01 [1e73e0aa|50afe44c] (0+3/3) Accurately ripped
02 [01feea29|a3c855ea] (0+3/3) Accurately ripped
03 [0600a9e5|6a8dcf63] (0+3/3) Accurately ripped
04 [30edac9f|cc6d00f4] (0+3/3) Accurately ripped
05 [7acc2cc1|66468a8b] (0+3/3) Accurately ripped
06 [2a938253|721471a7] (0+3/3) Accurately ripped
07 [69110bcc|9a3d2c14] (0+3/3) Accurately ripped

Track Peak [ CRC32 ] [W/O NULL] [ LOG ]
– 100,0 [C5BB4810] [1898C642] CRC32
01 100,0 [19766FF4] [E3FD976C]
02 100,0 [E43B939F] [812C517D]
03 100,0 [53F2AB34] [8D280EF8]
04 100,0 [F56843EC] [10DE8799]
05 100,0 [63B3F3D4] [4F7246DD]
06 100,0 [7C9C9387] [18FCB675]
07 100,0 [ADB58F2A] [04BFFD5B]

Deep Purple - Beyond The Purple (2010) {10CD Box Set, Remastered, Japan} Re-Up

Disc 4: Deep Purple - Machine Head (1972)
EAC Rip | FLAC (Img) + Cue + Log ~ 272 Mb | MP3 CBR320 ~ 91 Mb
WEA International Inc. #WPCR-13927

Recorded between 6th and 21st December 1971 at the Grand Hotel in Montreux/Switzerland, using the Rolling Stones Mobile Unit. First released March 1972 in UK on Purple Records TPSA-7504 (1e064-93261), as Qudrophonic mix on Purple Records QTPSA-7504, in US on Warner Bros BS-2607, in Germany on Purple Records 1c072-93261-1, in France on Purple Records TPSA-7504 (2c064-93261), in Italy on Purple Records 3c064-93261, in Japan on Warner Bros P-8224W. First CD-release 1986 in UK on EMI CDP 7 46242 2. In 1997 a remastered Anniversary Edition came out as a 2 CD Set incl. extensive liner notes on EMI 7243 8 59506 2 9 in UK and Europe. It consisted of remastered and remixed album tracks, two quadrophonic mixes and a bonus single b-side.
Track List:

01. Highway Star [06:06]
02. Maybe I'm A Leo [04:48]
03. Pictures Of Home [05:02]
04. Never Before [03:58]
05. Smoke On The Water [05:39]
06. Lazy [07:21]
07. Space Truckin' [04:32]

Total time: 00:37:43

• Ritchie Blackmore • guitar
• Ian Gillan • vocals
• Jon Lord • keyboards
• Ian Paice • drums
• Roger Glover • bass guitar

Exact Audio Copy V1.0 beta 1 from 15. November 2010

EAC extraction logfile from 3. March 2011, 19:21

Deep Purple / Machine Head

Used drive : HL-DT-STDVDRAM GSA-H60N Adapter: 2 ID: 0

Read mode : Secure
Utilize accurate stream : Yes
Defeat audio cache : Yes
Make use of C2 pointers : No

Read offset correction : 667
Overread into Lead-In and Lead-Out : No
Fill up missing offset samples with silence : Yes
Delete leading and trailing silent blocks : No
Null samples used in CRC calculations : Yes
Used interface : Native Win32 interface for Win NT & 2000

Used output format : Internal WAV Routines
Sample format : 44.100 Hz; 16 Bit; Stereo


TOC of the extracted CD

Track | Start | Length | Start sector | End sector
––––––––––––––––––––––––––––-
1 | 0:00.00 | 6:09.11 | 0 | 27685
2 | 6:09.11 | 4:51.00 | 27686 | 49510
3 | 11:00.11 | 5:05.37 | 49511 | 72422
4 | 16:05.48 | 4:00.63 | 72423 | 90485
5 | 20:06.36 | 5:41.44 | 90486 | 116104
6 | 25:48.05 | 7:23.42 | 116105 | 149371
7 | 33:11.47 | 4:32.23 | 149372 | 169794


Range status and errors

Selected range

Filename C:\Documents and Settings\Администратор\Рабочий стол\Lossless Galaxy Rip by ALLexxess\2010 Beyond The Purple (10CD Box Set Warner Music Japan)\1972 Machine Head\Deep Purple - Machine Head.wav

Peak level 100.0 %
Extraction speed 0.6 X
Range quality 100.0 %
Test CRC E0CFEEF1
Copy CRC E0CFEEF1
Copy OK

No errors occurred


AccurateRip summary

Track 1 not present in database
Track 2 not present in database
Track 3 not present in database
Track 4 not present in database
Track 5 not present in database
Track 6 not present in database
Track 7 not present in database

None of the tracks are present in the AccurateRip database

End of status report

==== Log checksum 007BEA6AFC34F906466034A62E17CC4EB354E8B97EDFFE3AA260395FDAF5E7DC ====

foobar2000 1.2.6 / Dynamic Range Meter 1.1.1
log date: 2015-03-02 19:27:02

––––––––––––––––––––––––––––––––––––––––
Analyzed: Deep Purple / Machine Head
––––––––––––––––––––––––––––––––––––––––

DR Peak RMS Duration Track
––––––––––––––––––––––––––––––––––––––––
DR7 0.00 dB -7.90 dB 6:09 01-Highway Star
DR8 0.00 dB -9.74 dB 4:51 02-Maybe I'm A Leo
DR8 0.00 dB -9.39 dB 5:05 03-Pictures Of Home
DR8 0.00 dB -9.48 dB 4:01 04-Never Before
DR8 0.00 dB -9.83 dB 5:42 05-Smoke On The Water
DR8 0.00 dB -10.31 dB 7:24 06-Lazy
DR8 0.00 dB -9.01 dB 4:32 07-Space Truckin'
––––––––––––––––––––––––––––––––––––––––

Number of tracks: 7
Official DR value: DR8

Samplerate: 44100 Hz
Channels: 2
Bits per sample: 16
Bitrate: 957 kbps
Codec: FLAC
================================================================================

[CUETools log; Date: 02.03.2015 19:20:01; Version: 2.1.5]
[CTDB TOCID: zV5lnIDypMXV5J2HeCMe_yCamM4-] found.
Track | CTDB Status
1 | (5/5) Accurately ripped
2 | (5/5) Accurately ripped
3 | (5/5) Accurately ripped
4 | (5/5) Accurately ripped
5 | (5/5) Accurately ripped
6 | (5/5) Accurately ripped
7 | (5/5) Accurately ripped
[AccurateRip ID: 000a4e32-003dbf1e-5d08d707] found.
Track [ CRC | V2 ] Status
01 [a73f1eed|fd3ac12a] (0+4/4) Accurately ripped
02 [107ec6d1|7c525496] (0+4/4) Accurately ripped
03 [bc6cbbd9|25f1db71] (0+4/4) Accurately ripped
04 [ee4a6dc8|aec8c4e2] (0+4/4) Accurately ripped
05 [0f74862b|724dfb0a] (0+4/4) Accurately ripped
06 [141082e3|2b8ef0cd] (0+4/4) Accurately ripped
07 [c474e22d|2db218b6] (0+4/4) Accurately ripped

Track Peak [ CRC32 ] [W/O NULL] [ LOG ]
– 100,0 [E0CFEEF1] [503E5E58] CRC32
01 100,0 [01BA7D40] [4CF6388C]
02 100,0 [D593BE32] [613CB553]
03 100,0 [6B7374AF] [DF505D4F]
04 100,0 [44F8ACB8] [ABCC6A2C]
05 100,0 [BFC25111] [1EDBBD64]
06 100,0 [6E5F1B4B] [48B48BE9]
07 100,0 [858BCA4A] [F84D2961]

Deep Purple - Beyond The Purple (2010) {10CD Box Set, Remastered, Japan} Re-Up

Disc 5: Deep Purple - Live In Japan (1972)
EAC Rip | FLAC (Img) + Cue + Log ~ 521 Mb | MP3 CBR320 ~ 185 Mb
WEA International Inc. #WPCR-13928

Recorded live during 15-17 August 1972 in Osaka and Tokyo, Japan. First released on vinyl in UK December 1972 Purple Records TPSP-351 (2LP) and on cassette Purple Records TC2-TPSP-351 (1e284-94024) (1MC). In Yugoslavia December 1972 Purple Records LSPUR-70522/3 (2LP). In Japan December 1972 Warner Bros P-5066/7W (2LP), note: Different cover-artwork and title "Live in Japan"! All over Europe December 1972/January 1973 on Purple Records country prefix + 93915/6 or 93915/16 (2LP). The unexpected enormous success induced the involved record companies to re-release this issue over and over again in the following years. The first CD-release was published in UK 1989 on EMI Records CDP 7-48050-2 [1CD], in Japan on Warner Pioneer 20P2-2606 (1CD) and US Warner Bros 2710.2 (1CD). In 1993 a 3-CD-set sneaked out in Japan ("Live in Japan") in remastered quality which included almost all three concerts, the first releases were derived from on Warner Bros WPCR-677/8/9 (3CD). This item was also issued in Europe. Comes 1998 "Made in Japan" saw another rework, this time as an "Anniversary Edition", which basically was the remastered CD plus a second disc including three encores. In Europe released by EMI Records 7243-8-57864-2-6 (2CD). A vinyl edition of this item was also published. To this date (2010) many versions incl. different tracklistings and covers are in circulation. They all belong to this Master Release as long as they are official recordings of the concerts in Osaka 15/16 August and Tokyo 17 August 1972.
Track List:

01. Highway Star [06:51]
02. Child In Time [12:24]
03. Smoke On The Water [07:30]
04. The Mule [09:48]
05. Strange Kind Of Woman [09:26]
06. Lazy [11:00]
07. Space Truckin' [19:57]

Total time: 01:17:02

• Ritchie Blackmore • guitar
• Ian Gillan • vocals
• Jon Lord • keyboards
• Ian Paice • drums
• Roger Glover • bass guitar

Exact Audio Copy V1.0 beta 1 from 15. November 2010

EAC extraction logfile from 3. March 2011, 20:10

Deep Purple / Live In Japan

Used drive : HL-DT-STDVDRAM GSA-H60N Adapter: 2 ID: 0

Read mode : Secure
Utilize accurate stream : Yes
Defeat audio cache : Yes
Make use of C2 pointers : No

Read offset correction : 667
Overread into Lead-In and Lead-Out : No
Fill up missing offset samples with silence : Yes
Delete leading and trailing silent blocks : No
Null samples used in CRC calculations : Yes
Used interface : Native Win32 interface for Win NT & 2000

Used output format : Internal WAV Routines
Sample format : 44.100 Hz; 16 Bit; Stereo


TOC of the extracted CD

Track | Start | Length | Start sector | End sector
––––––––––––––––––––––––––––-
1 | 0:00.00 | 6:52.15 | 0 | 30914
2 | 6:52.15 | 12:24.20 | 30915 | 86734
3 | 19:16.35 | 7:33.15 | 86735 | 120724
4 | 26:49.50 | 9:48.30 | 120725 | 164854
5 | 36:38.05 | 9:26.50 | 164855 | 207354
6 | 46:04.55 | 11:00.02 | 207355 | 256856
7 | 57:04.57 | 19:57.32 | 256857 | 346663


Range status and errors

Selected range

Filename C:\Documents and Settings\Администратор\Рабочий стол\Lossless Galaxy Rip by ALLexxess\2010 Beyond The Purple (10CD Box Set Warner Music Japan)\1972 Live In Japan\Deep Purple - Live In Japan.wav

Peak level 99.3 %
Extraction speed 1.6 X
Range quality 100.0 %
Test CRC 53052295
Copy CRC 53052295
Copy OK

No errors occurred


AccurateRip summary

Track 1 not present in database
Track 2 not present in database
Track 3 not present in database
Track 4 not present in database
Track 5 not present in database
Track 6 not present in database
Track 7 not present in database

None of the tracks are present in the AccurateRip database

End of status report

==== Log checksum 3A1546C93FCD1C960D62939DFC7B05FE48EB11926ABBDB16ED93E937FCD564D3 ====

foobar2000 1.2.6 / Dynamic Range Meter 1.1.1
log date: 2015-03-02 19:27:34

––––––––––––––––––––––––––––––––––––––––
Analyzed: Deep Purple / Live In Japan
––––––––––––––––––––––––––––––––––––––––

DR Peak RMS Duration Track
––––––––––––––––––––––––––––––––––––––––
DR7 -0.14 dB -8.59 dB 6:52 01-Highway Star
DR8 -0.10 dB -10.90 dB 12:24 02-Child In Time
DR8 -0.07 dB -10.29 dB 7:33 03-Smoke On The Water
DR9 -0.08 dB -11.90 dB 9:48 04-The Mule
DR8 -0.07 dB -11.04 dB 9:27 05-Strange Kind Of Woman
DR9 -0.12 dB -13.31 dB 11:00 06-Lazy
DR8 -0.06 dB -10.78 dB 19:57 07-Space Truckin'
––––––––––––––––––––––––––––––––––––––––

Number of tracks: 7
Official DR value: DR8

Samplerate: 44100 Hz
Channels: 2
Bits per sample: 16
Bitrate: 899 kbps
Codec: FLAC
================================================================================

[CUETools log; Date: 02.03.2015 19:19:16; Version: 2.1.5]
[CTDB TOCID: IM_jalOquL.mBz.SgCFt0leHmdk-] found.
Track | CTDB Status
1 | (5/5) Accurately ripped
2 | (5/5) Accurately ripped
3 | (5/5) Accurately ripped
4 | (5/5) Accurately ripped
5 | (5/5) Accurately ripped
6 | (5/5) Accurately ripped
7 | (5/5) Accurately ripped
[AccurateRip ID: 0012869a-007198ac-4b120e07] found.
Track [ CRC | V2 ] Status
01 [6a45abe5|2cc8a92b] (0+3/3) Accurately ripped
02 [8a5ef9b3|3dd659f3] (0+3/3) Accurately ripped
03 [2c72d2d2|9d69f3e4] (0+3/3) Accurately ripped
04 [732351ff|84958d87] (0+3/3) Accurately ripped
05 [9ac5b797|87a582ff] (0+3/3) Accurately ripped
06 [9f880741|09a37995] (0+3/3) Accurately ripped
07 [5b6bcdc3|5d6d73c7] (0+3/3) Accurately ripped

Track Peak [ CRC32 ] [W/O NULL] [ LOG ]
– 99,3 [53052295] [C9D4029D] CRC32
01 98,4 [834A317A] [6D8BF93C]
02 98,8 [755C14AE] [D636B39B]
03 99,2 [CFDCF659] [E74473FE]
04 99,0 [836350C3] [1B263402]
05 99,2 [E368D847] [68AE5CF0]
06 98,6 [A4FF06EA] [C05F6629]
07 99,3 [7A0C18A8] [D313FECF]

Deep Purple - Beyond The Purple (2010) {10CD Box Set, Remastered, Japan} Re-Up

Disc 6: Deep Purple - Who Do We Think We Are! (1973)
EAC Rip | FLAC (Img) + Cue + Log ~ 252 Mb | MP3 CBR320 ~ 84 Mb
WEA International Inc. #WPCR-13929

Recorded during fall of 1972 in Italy using the Rolling Stones Mobile Unit. First released January 1973:] in Germany on Purple Records 1C 072-94140 and in France on Purple Records TPSA-7508 . Released February 1973 in UK on Purple Records TPSA-7508, in USA on Warner Bros BS-2678 and in Japan on Warner Bros P-8312W. First CD appearance in 1987 on EMI CDP-7-48273-2. A remastered and remixed anniversary edition was published in 2000 on EMI label cat. no. 7243 5 21607 2 3.
Track List:

01. Woman From Tokyo [05:51]
02. Mary Long [04:24]
03. Super Trouper [02:55]
04. Smooth Dancer [04:09]
05. Rat Bat Blue [05:25]
06. Place In Line [06:31]
07. Our Lady [05:12]

Total time: 00:34:50

• Ritchie Blackmore • guitar
• Ian Gillan • vocals
• Jon Lord • keyboards
• Ian Paice • drums
• Roger Glover • bass guitar

Exact Audio Copy V1.0 beta 1 from 15. November 2010

EAC extraction logfile from 3. March 2011, 21:17

Deep Purple / Who Do We Think We Are!

Used drive : HL-DT-STDVDRAM GSA-H60N Adapter: 2 ID: 0

Read mode : Secure
Utilize accurate stream : Yes
Defeat audio cache : Yes
Make use of C2 pointers : No

Read offset correction : 667
Overread into Lead-In and Lead-Out : No
Fill up missing offset samples with silence : Yes
Delete leading and trailing silent blocks : No
Null samples used in CRC calculations : Yes
Used interface : Native Win32 interface for Win NT & 2000

Used output format : Internal WAV Routines
Sample format : 44.100 Hz; 16 Bit; Stereo


TOC of the extracted CD

Track | Start | Length | Start sector | End sector
––––––––––––––––––––––––––––-
1 | 0:00.00 | 5:55.53 | 0 | 26677
2 | 5:55.53 | 4:28.06 | 26678 | 46783
3 | 10:23.59 | 2:57.52 | 46784 | 60110
4 | 13:21.36 | 4:12.72 | 60111 | 79082
5 | 17:34.33 | 5:28.25 | 79083 | 103707
6 | 23:02.58 | 6:34.66 | 103708 | 133323
7 | 29:37.49 | 5:12.48 | 133324 | 156771


Range status and errors

Selected range

Filename C:\Documents and Settings\Администратор\Рабочий стол\Lossless Galaxy Rip by ALLexxess\2010 Beyond The Purple (10CD Box Set Warner Music Japan)\1973 Who Do We Think We Are!\Deep Purple - Who Do We Think We Are!.wav

Peak level 100.0 %
Extraction speed 0.2 X
Range quality 100.0 %
Test CRC 7FC4D422
Copy CRC 7FC4D422
Copy OK

No errors occurred


AccurateRip summary

Track 1 not present in database
Track 2 not present in database
Track 3 not present in database
Track 4 not present in database
Track 5 not present in database
Track 6 not present in database
Track 7 not present in database

None of the tracks are present in the AccurateRip database

End of status report

==== Log checksum 0E747B33990C444BF7E6957AF4A9CFEB5BF35095EC3C357AB5AD3999B38F886D ====

foobar2000 1.2.6 / Dynamic Range Meter 1.1.1
log date: 2015-03-02 19:26:37

––––––––––––––––––––––––––––––––––––––––
Analyzed: Deep Purple / Who Do We Think We Are!
––––––––––––––––––––––––––––––––––––––––

DR Peak RMS Duration Track
––––––––––––––––––––––––––––––––––––––––
DR8 0.00 dB -10.36 dB 5:56 01-Woman From Tokyo
DR7 0.00 dB -8.42 dB 4:28 02-Mary Long
DR8 0.00 dB -9.38 dB 2:58 03-Super Trouper
DR8 0.00 dB -8.53 dB 4:13 04-Smooth Dancer
DR8 0.00 dB -9.07 dB 5:28 05-Rat Bat Blue
DR9 0.00 dB -10.89 dB 6:35 06-Place In Line
DR8 0.00 dB -9.43 dB 5:13 07-Our Lady
––––––––––––––––––––––––––––––––––––––––

Number of tracks: 7
Official DR value: DR8

Samplerate: 44100 Hz
Channels: 2
Bits per sample: 16
Bitrate: 962 kbps
Codec: FLAC
================================================================================

[CUETools log; Date: 02.03.2015 19:20:28; Version: 2.1.5]
[CTDB TOCID: NO8ITLjNYa0KQt.BLrOOAjeLjk0-] found.
Track | CTDB Status
1 | (5/5) Accurately ripped
2 | (5/5) Accurately ripped
3 | (5/5) Accurately ripped
4 | (5/5) Accurately ripped
5 | (5/5) Accurately ripped
6 | (5/5) Accurately ripped
7 | (5/5) Accurately ripped
[AccurateRip ID: 000940fc-003787dc-5d082a07] found.
Track [ CRC | V2 ] Status
01 [7a2a5518|b4eb6ba4] (0+3/3) Accurately ripped
02 [8625167d|0a1093f0] (0+3/3) Accurately ripped
03 [fc9eb36b|4103c78f] (0+3/3) Accurately ripped
04 [df707ba8|6ca1c009] (0+3/3) Accurately ripped
05 [2212a44b|5e6e26fb] (0+3/3) Accurately ripped
06 [25e28171|82ead7fb] (0+3/3) Accurately ripped
07 [56627c43|a0268f38] (0+3/3) Accurately ripped

Track Peak [ CRC32 ] [W/O NULL] [ LOG ]
– 100,0 [7FC4D422] [30B8C474] CRC32
01 100,0 [982FA7A8] [F61676CC]
02 100,0 [A6F0D190] [9789D9D0]
03 100,0 [F5380B3E] [03C8D653]
04 100,0 [E6EAFCAB] [BEEB894C]
05 100,0 [CD13BD16] [8567337E]
06 100,0 [5B9F3521] [A6751A04]
07 100,0 [F0B3ACB9] [DCF5BAE2]

Deep Purple - Beyond The Purple (2010) {10CD Box Set, Remastered, Japan} Re-Up

Disc 7: Deep Purple - Burn (1974)
EAC Rip | FLAC (Img) + Cue + Log ~ 309 Mb | MP3 CBR320 ~ 101 Mb
WEA International Inc. #WPCR-13930

Recorded during November 1973 in Montreux, Switzerland, using the Rolling Stones Mobile Unit. First released: in Germany, January 1974 on Purple Records 1C 072-94837, In UK February 1974 Purple Records TPS-3505 (0c062-94837), US February 1974 Warner Bros W-2766,Japan February 1974 Warner Bros P-8419W, Germany February 1974 Purple Records 1c244-94837 (1MC), France February 1974 Purple Records C066-94837, UK 1974 Purple Records TC-TPS-3505 (0c244-94837) (1MC), Italy 1974 Purple Records 3c064-94837 , Sweden 1974 Purple Records TPS-3505 (0c062-94837), Argentina 1974 EMI/Purple Records TPS 8028 (3505) (1LP; title: Quemar) First released on CD in 1989 on EMI CDP 7 92611 2 in UK. A remastered anniversary edition incl. Bonus tracks and extensive liner notes was published in 2004 on Purple Records/EMI cat. no. 724347 4 73621 2 5.
Track List:

01. Burn [06:01]
02. Might Just Take Your Life [04:36]
03. Lay Down, Stay Down [04:17]
04. Sail Away [05:48]
05. You Fool No One [04:45]
06. What's Goin' On Here [04:56]
07. Mistreated [07:26]
08. 'A' 200 [04:05]

Total time: 00:42:10

• Ritchie Blackmore • guitar
• David Coverdale • vocals
• Jon Lord • keyboards
• Ian Paice • drums
• Glenn Hughes • bass guitar, vocals

Exact Audio Copy V1.0 beta 1 from 15. November 2010

EAC extraction logfile from 3. March 2011, 21:51

Deep Purple / Burn

Used drive : HL-DT-STDVDRAM GSA-H60N Adapter: 2 ID: 0

Read mode : Secure
Utilize accurate stream : Yes
Defeat audio cache : Yes
Make use of C2 pointers : No

Read offset correction : 667
Overread into Lead-In and Lead-Out : No
Fill up missing offset samples with silence : Yes
Delete leading and trailing silent blocks : No
Null samples used in CRC calculations : Yes
Used interface : Native Win32 interface for Win NT & 2000

Used output format : Internal WAV Routines
Sample format : 44.100 Hz; 16 Bit; Stereo


TOC of the extracted CD

Track | Start | Length | Start sector | End sector
––––––––––––––––––––––––––––-
1 | 0:00.00 | 6:03.13 | 0 | 27237
2 | 6:03.13 | 4:39.04 | 27238 | 48166
3 | 10:42.17 | 4:18.54 | 48167 | 67570
4 | 15:00.71 | 5:51.35 | 67571 | 93930
5 | 20:52.31 | 4:47.16 | 93931 | 115471
6 | 25:39.47 | 4:57.28 | 115472 | 137774
7 | 30:37.00 | 7:27.51 | 137775 | 171350
8 | 38:04.51 | 4:05.36 | 171351 | 189761


Range status and errors

Selected range

Filename C:\Documents and Settings\Администратор\Рабочий стол\Lossless Galaxy Rip by ALLexxess\2010 Beyond The Purple (10CD Box Set Warner Music Japan)\1974 Burn\Deep Purple - Burn.wav

Peak level 100.0 %
Extraction speed 0.5 X
Range quality 100.0 %
Test CRC 9CB227FA
Copy CRC 9CB227FA
Copy OK

No errors occurred


AccurateRip summary

Track 1 not present in database
Track 2 not present in database
Track 3 not present in database
Track 4 not present in database
Track 5 not present in database
Track 6 not present in database
Track 7 not present in database
Track 8 not present in database

None of the tracks are present in the AccurateRip database

End of status report

==== Log checksum EBC91A4FC34FDD43B85F9156FEE2FB0063519E99B9CE8669D56D2C9D458CB7B3 ====

foobar2000 1.2.6 / Dynamic Range Meter 1.1.1
log date: 2015-03-02 19:26:14

––––––––––––––––––––––––––––––––––––––––
Analyzed: Deep Purple / Burn
––––––––––––––––––––––––––––––––––––––––

DR Peak RMS Duration Track
––––––––––––––––––––––––––––––––––––––––
DR7 0.00 dB -8.94 dB 6:03 01-Burn
DR7 0.00 dB -8.72 dB 4:39 02-Might Just Take Your Life
DR8 0.00 dB -8.89 dB 4:19 03-Lay Down, Stay Down
DR7 0.00 dB -8.66 dB 5:51 04-Sail Away
DR9 0.00 dB -10.05 dB 4:47 05-You Fool No One
DR9 0.00 dB -9.60 dB 4:57 06-What's Goin' On Here
DR7 0.00 dB -9.71 dB 7:28 07-Mistreated
DR9 0.00 dB -10.25 dB 4:05 08-'A' 200
––––––––––––––––––––––––––––––––––––––––

Number of tracks: 8
Official DR value: DR8

Samplerate: 44100 Hz
Channels: 2
Bits per sample: 16
Bitrate: 974 kbps
Codec: FLAC
================================================================================

[CUETools log; Date: 02.03.2015 19:20:59; Version: 2.1.5]
[CTDB TOCID: kULUlDlMt3jo8g4HxFmTcNLyjeo-] found.
Track | CTDB Status
1 | (5/5) Accurately ripped
2 | (5/5) Accurately ripped
3 | (5/5) Accurately ripped
4 | (5/5) Accurately ripped
5 | (5/5) Accurately ripped
6 | (5/5) Accurately ripped
7 | (5/5) Accurately ripped
8 | (5/5) Accurately ripped
[AccurateRip ID: 000cfd43-00569758-6709e208] found.
Track [ CRC | V2 ] Status
01 [2285e82c|b9ebd5d1] (0+3/3) Accurately ripped
02 [c91e39a0|cddf7305] (0+3/3) Accurately ripped
03 [a23bd9d7|8665dcfc] (0+3/3) Accurately ripped
04 [09f3421d|3d5f36db] (0+3/3) Accurately ripped
05 [f8977d4b|2099dd75] (0+3/3) Accurately ripped
06 [f929354e|4004961d] (0+3/3) Accurately ripped
07 [56c66e1a|b6297184] (0+3/3) Accurately ripped
08 [4d6069c0|e71e81de] (0+3/3) Accurately ripped

Track Peak [ CRC32 ] [W/O NULL] [ LOG ]
– 100,0 [9CB227FA] [D2677065] CRC32
01 100,0 [8BFA1F32] [EA7FFCDD]
02 100,0 [D41569E1] [1865E98A]
03 100,0 [B549C231] [2961824F]
04 100,0 [4083780D] [333ED950]
05 100,0 [D1E89BCC] [1F05885E]
06 100,0 [25F6B54B] [DAC4E7EE]
07 100,0 [0D7F2681] [AFA16EC9]
08 100,0 [440F39C6] [B0D11BB9]

Deep Purple - Beyond The Purple (2010) {10CD Box Set, Remastered, Japan} Re-Up

Disc 8: Deep Purple - Stormbringer (1974)
EAC Rip | FLAC (Img) + Cue + Log ~ 280 Mb | MP3 CBR320 ~ 89 Mb
WEA International Inc. #WPCR-13931

Stormbringer is the ninth studio album by Deep Purple, released in November 1974. On this album, the soul and funk elements that were only hinted at on Burn are much more prominent. In 1990, the album was remastered and re-released in the US by Metal Blade Records with distribution by Warner Bros. This record has been the object of much renewed interest: Friday Music label released it stateside on July 31, 2007 (along with Made in Europe and Come Taste the Band). It is unclear which tapes were used as a source for this release, but the label's website claims that the album has been digitally remastered (but not expanded). Additionally EMI (Deep Purple's label for much of the world outside the US) worked with Glenn Hughes on a remastered, expanded version of the album (much like the one done with Burn) which includes bonus remixes/alternate takes. Originally due on fall 2007, it was ultimately released on February 23, 2009 as a "35th Anniversary Edition" for the European/international market only. The release has been expanded into a limited edition 2 disc set: the first disc is the full remastered album along with the new remixes, and the second disc is a DVD containing the quadraphonic mix in 4.1 audio as originally released in the USA back in 1975. Once the CD/DVD edition sells out a single CD edition will follow it. A limited double gatefold vinyl edition was also released.
Track List:

01. Stormbringer [04:06]
02. Love Don't Mean A Thing [04:24]
03. Holy Man [04:29]
04. Hold On [05:05]
05. Lady Double Dealer [03:21]
06. You Can't Do It Right (With The One You Love) [03:25]
07. High Ball Shooter [04:28]
08. The Gypsy [04:03]
09. Soldier Of Fortune [03:14]

Total time: 00:36:45

• David Coverdale • lead vocals
• Ritchie Blackmore • guitar
• Glenn Hughes • bass, vocals
• Jon Lord • organ, keyboards
• Ian Paice • drums

Exact Audio Copy V1.0 beta 1 from 15. November 2010

EAC extraction logfile from 4. March 2011, 22:32

Deep Purple / Stormbringer

Used drive : HL-DT-STDVDRAM GSA-H60N Adapter: 2 ID: 0

Read mode : Secure
Utilize accurate stream : Yes
Defeat audio cache : Yes
Make use of C2 pointers : No

Read offset correction : 667
Overread into Lead-In and Lead-Out : No
Fill up missing offset samples with silence : Yes
Delete leading and trailing silent blocks : No
Null samples used in CRC calculations : Yes
Used interface : Native Win32 interface for Win NT & 2000

Used output format : Internal WAV Routines
Sample format : 44.100 Hz; 16 Bit; Stereo


TOC of the extracted CD

Track | Start | Length | Start sector | End sector
––––––––––––––––––––––––––––-
1 | 0:00.00 | 4:06.35 | 0 | 18484
2 | 4:06.35 | 4:24.23 | 18485 | 38307
3 | 8:30.58 | 4:30.23 | 38308 | 58580
4 | 13:01.06 | 5:07.50 | 58581 | 81655
5 | 18:08.56 | 3:21.53 | 81656 | 96783
6 | 21:30.34 | 3:25.40 | 96784 | 112198
7 | 24:55.74 | 4:28.30 | 112199 | 132328
8 | 29:24.29 | 4:06.13 | 132329 | 150791
9 | 33:30.42 | 3:14.54 | 150792 | 165395


Range status and errors

Selected range

Filename C:\Documents and Settings\Администратор\Рабочий стол\Lossless Galaxy Rip by ALLexxess\2010 Beyond The Purple (10CD Box Set Warner Music Japan)\1974 Stormbringer\Deep Purple - Stormbringer.wav

Peak level 100.0 %
Extraction speed 0.4 X
Range quality 100.0 %
Test CRC BBEF1D4F
Copy CRC BBEF1D4F
Copy OK

No errors occurred


AccurateRip summary

Track 1 not present in database
Track 2 not present in database
Track 3 not present in database
Track 4 not present in database
Track 5 not present in database
Track 6 not present in database
Track 7 not present in database
Track 8 not present in database
Track 9 not present in database

None of the tracks are present in the AccurateRip database

End of status report

==== Log checksum 07B45D7B5F6070DE7B15FA745172160165CFC6FC03C5087F705402015DAB9934 ====

foobar2000 1.2.6 / Dynamic Range Meter 1.1.1
log date: 2015-03-02 19:25:40

––––––––––––––––––––––––––––––––––––––––
Analyzed: Deep Purple / Stormbringer
––––––––––––––––––––––––––––––––––––––––

DR Peak RMS Duration Track
––––––––––––––––––––––––––––––––––––––––
DR7 0.00 dB -7.78 dB 4:06 01-Stormbringer
DR8 0.00 dB -9.38 dB 4:24 02-Love Don't Mean A Thing
DR8 0.00 dB -9.61 dB 4:30 03-Holy Man
DR8 0.00 dB -9.28 dB 5:08 04-Hold On
DR7 0.00 dB -7.95 dB 3:22 05-Lady Double Dealer
DR7 0.00 dB -8.52 dB 3:26 06-You Can't Do It Right (With The One You Love)
DR8 0.00 dB -8.71 dB 4:28 07-High Ball Shooter
DR7 0.00 dB -8.49 dB 4:06 08-The Gypsy
DR8 0.00 dB -9.50 dB 3:15 09-Soldier Of Fortune
––––––––––––––––––––––––––––––––––––––––

Number of tracks: 9
Official DR value: DR8

Samplerate: 44100 Hz
Channels: 2
Bits per sample: 16
Bitrate: 1013 kbps
Codec: FLAC
================================================================================

[CUETools log; Date: 02.03.2015 19:21:25; Version: 2.1.5]
[CTDB TOCID: YXfi3cQKj7WTlg2YyP9XQJTae7c-] found.
Track | CTDB Status
1 | (5/5) Accurately ripped
2 | (5/5) Accurately ripped
3 | (5/5) Accurately ripped
4 | (5/5) Accurately ripped
5 | (5/5) Accurately ripped
6 | (5/5) Accurately ripped
7 | (5/5) Accurately ripped
8 | (5/5) Accurately ripped
9 | (5/5) Accurately ripped
[AccurateRip ID: 000d0a02-005f112c-70089d09] found.
Track [ CRC | V2 ] Status
01 [68619d0f|3ff2b1de] (0+3/3) Accurately ripped
02 [4375576d|ba9e3b9c] (0+3/3) Accurately ripped
03 [3e1f3bf5|1a679d39] (0+3/3) Accurately ripped
04 [232ea972|762b1f55] (0+3/3) Accurately ripped
05 [613c7b6d|b07bfbc0] (0+3/3) Accurately ripped
06 [585f8e17|3a9b7982] (0+3/3) Accurately ripped
07 [344dcfbe|9512651a] (0+3/3) Accurately ripped
08 [4ddd0ab8|740073ff] (0+3/3) Accurately ripped
09 [e6b4316e|860c5f22] (0+3/3) Accurately ripped

Track Peak [ CRC32 ] [W/O NULL] [ LOG ]
– 100,0 [BBEF1D4F] [B32F54D5] CRC32
01 100,0 [855FAAA7] [4229870E]
02 100,0 [03DC50FB] [F3108ACD]
03 100,0 [F787A448] [75733F37]
04 100,0 [D4C1E7BE] [9AC3E44F]
05 100,0 [5FA85AE1] [E9561FAE]
06 100,0 [AF8518C1] [D9DAA38D]
07 100,0 [2CDED4F5] [1E2F5E29]
08 100,0 [FEEED41A] [26799FA0]
09 100,0 [AFC2B2AE] [222132B0]

Deep Purple - Beyond The Purple (2010) {10CD Box Set, Remastered, Japan} Re-Up

Disc 9: Deep Purple - Come Taste The Band (1975)
EAC Rip | FLAC (Img) + Cue + Log ~ 266 Mb | MP3 CBR320 ~ 90 Mb
WEA International Inc. #WPCR-13932

Come Taste the Band is the tenth studio album by the English rock band Deep Purple originally released in October 1975. The album was co-produced and engineered by the band and longtime associate Martin Birch. It is the only Deep Purple studio record featuring Tommy Bolin, who replaced Ritchie Blackmore on guitar. When Blackmore left the band, many observers and critics assumed that Deep Purple would not continue. It was David Coverdale who asked Jon Lord to keep the band together, and Tommy Bolin was asked to take the guitar slot. A deluxe edition of the album was released in 2010. In 1990, the album was remastered and re-released in the US by Metal Blade Records and distributed by Warner Bros. It was re-released again on the Friday Music label on July 31, 2007 (along with Made in Europe and Stormbringer). While the label's website claims that the album has been digitally remastered, it is unclear which tapes were used as a source for this remastering, but it is unlikely the original master tapes were used, as EMI had repeatedly claimed over the years that the master tapes of this album were missing. In December 2009, the Deep Purple Appreciation Society (DPAS) reported the original multi-track masters had recently surfaced and that an official remastered version with bonus tracks (including remixes by Glenn Hughes and Kevin Shirley) would see a release in 2010. Released on October 25, 2010, the 2-CD Deluxe 35th Anniversary edition includes the original album in remastered form plus a rare US single edit of "You Keep on Moving" on the first disc, and a full album remix and two unissued tracks on the second disc: "Same in LA" a three minute out-take from the final release in 1975, and "Bolin/Paice Jam" a five minute instrumental jam with Ian Paice and Tommy Bolin.
Track List:

01. Comin' Home [03:54]
02. Lady Luck [02:46]
03. Gettin' Tighter [03:36]
04. Dealer [03:49]
05. I Need Love [04:22]
06. Drifter [04:01]
07. Love Child [03:05]
08. This Time Around / Owed To 'G' (Instrumental) [06:08]
09. You Keep On Moving [05:19]

Total time: 00:37:22

• Tommy Bolin • guitars, vocals, bass guitar on "Comin' Home"
• David Coverdale • lead vocals
• Glenn Hughes • bass, vocals (lead vocals on "Gettin' Tighter" and "This Time Around")
• Jon Lord • keyboards, piano, synthesizer, backing vocals on "Comin' Home", bass on "This Time Around"
• Ian Paice • drums, percussion

Exact Audio Copy V1.0 beta 1 from 15. November 2010

EAC extraction logfile from 4. March 2011, 23:41

Deep Purple / Come Taste The Band

Used drive : HL-DT-STDVDRAM GSA-H60N Adapter: 2 ID: 0

Read mode : Secure
Utilize accurate stream : Yes
Defeat audio cache : Yes
Make use of C2 pointers : No

Read offset correction : 667
Overread into Lead-In and Lead-Out : No
Fill up missing offset samples with silence : Yes
Delete leading and trailing silent blocks : No
Null samples used in CRC calculations : Yes
Used interface : Native Win32 interface for Win NT & 2000

Used output format : Internal WAV Routines
Sample format : 44.100 Hz; 16 Bit; Stereo


TOC of the extracted CD

Track | Start | Length | Start sector | End sector
––––––––––––––––––––––––––––-
1 | 0:00.00 | 3:56.47 | 0 | 17746
2 | 3:56.47 | 2:47.30 | 17747 | 30301
3 | 6:44.02 | 3:38.21 | 30302 | 46672
4 | 10:22.23 | 3:51.43 | 46673 | 64040
5 | 14:13.66 | 4:23.06 | 64041 | 83771
6 | 18:36.72 | 4:03.72 | 83772 | 102068
7 | 22:40.69 | 3:09.38 | 102069 | 116281
8 | 25:50.32 | 6:12.46 | 116282 | 144227
9 | 32:03.03 | 5:19.54 | 144228 | 168206


Range status and errors

Selected range

Filename C:\Documents and Settings\Администратор\Рабочий стол\Lossless Galaxy Rip by ALLexxess\2010 Beyond The Purple (10CD Box Set Warner Music Japan)\1975 Come Taste The Band\Deep Purple - Come Taste The Band.wav

Peak level 100.0 %
Extraction speed 0.7 X
Range quality 99.9 %
Test CRC 46C95CC7
Copy CRC 46C95CC7
Copy OK

No errors occurred


AccurateRip summary

Track 1 not present in database
Track 2 not present in database
Track 3 not present in database
Track 4 not present in database
Track 5 not present in database
Track 6 not present in database
Track 7 not present in database
Track 8 not present in database
Track 9 not present in database

None of the tracks are present in the AccurateRip database

End of status report

==== Log checksum 5F8C1377BBD991C7045B7B98F750675D8F58FB0CA110638188C173E0329535A7 ====

foobar2000 1.2.6 / Dynamic Range Meter 1.1.1
log date: 2015-03-02 19:23:18

––––––––––––––––––––––––––––––––––––––––
Analyzed: Deep Purple / Come Taste The Band
––––––––––––––––––––––––––––––––––––––––

DR Peak RMS Duration Track
––––––––––––––––––––––––––––––––––––––––
DR8 0.00 dB -8.54 dB 3:57 01-Comin' Home
DR9 0.00 dB -9.68 dB 2:47 02-Lady Luck
DR8 0.00 dB -9.27 dB 3:38 03-Gettin' Tighter
DR8 0.00 dB -9.65 dB 3:52 04-Dealer
DR9 0.00 dB -10.68 dB 4:23 05-I Need Love
DR9 0.00 dB -10.26 dB 4:04 06-Drifter
DR9 0.00 dB -10.43 dB 3:10 07-Love Child
DR9 0.00 dB -10.88 dB 6:13 08-This Time Around / Owed To 'G' (Instrumental)
DR8 0.00 dB -10.95 dB 5:20 09-You Keep On Moving
––––––––––––––––––––––––––––––––––––––––

Number of tracks: 9
Official DR value: DR8

Samplerate: 44100 Hz
Channels: 2
Bits per sample: 16
Bitrate: 945 kbps
Codec: FLAC
================================================================================

[CUETools log; Date: 02.03.2015 19:21:51; Version: 2.1.5]
[CTDB TOCID: qHmuXMUQv8H4_n4uSbhrYbB5PXc-] found.
Track | CTDB Status
1 | (5/5) Accurately ripped
2 | (5/5) Accurately ripped
3 | (5/5) Accurately ripped
4 | (5/5) Accurately ripped
5 | (5/5) Accurately ripped
6 | (5/5) Accurately ripped
7 | (5/5) Accurately ripped
8 | (5/5) Accurately ripped
9 | (5/5) Accurately ripped
[AccurateRip ID: 000bccc9-0057e717-6c08c209] found.
Track [ CRC | V2 ] Status
01 [33759a64|becb891f] (0+3/3) Accurately ripped
02 [5557d052|6564b043] (0+3/3) Accurately ripped
03 [6fc2e7f3|b0383d47] (0+3/3) Accurately ripped
04 [82f4e95a|334ac2c6] (0+3/3) Accurately ripped
05 [6cf493b5|fb981683] (0+3/3) Accurately ripped
06 [3d9fb817|57e06b10] (0+3/3) Accurately ripped
07 [76642497|3de1c6a7] (0+3/3) Accurately ripped
08 [6a07e8c8|9554b809] (0+3/3) Accurately ripped
09 [1869a242|fda76feb] (0+3/3) Accurately ripped

Track Peak [ CRC32 ] [W/O NULL] [ LOG ]
– 100,0 [46C95CC7] [00F572B5] CRC32
01 100,0 [02758AD3] [853AC5FC]
02 100,0 [1B621B21] [D0FA11A8]
03 100,0 [206DA0F5] [FA0AD0A5]
04 100,0 [D3B27026] [D645CF5C]
05 100,0 [BEFA8051] [F7422124]
06 100,0 [36B60316] [531548AC]
07 100,0 [4D57BAB5] [BD019762]
08 100,0 [822B12A1] [E33097EE]
09 100,0 [726F8CDB] [37C798C3]

Deep Purple - Beyond The Purple (2010) {10CD Box Set, Remastered, Japan} Re-Up

Disc 10: Deep Purple - Made In Europe (1976)
EAC Rip | FLAC (Img) + Cue + Log ~ 316 Mb | MP3 CBR320 ~ 110 Mb
Label: WEA International Inc. | Catalog#: WPCR - 13933

Made in Europe is a live album released by Deep Purple, recorded on the final dates in 1975 on which Ritchie Blackmore was a member of Deep Purple. It was released in 1976 after the group broke up. Made in Europe features songs recorded live 4 April in Graz, Austria, 5 April in Saarbrucken, Germany, and 7 April 1975 in Paris, France with the Rolling Stones Mobile Studio. According to the liner notes included on Mk III: The Final Concerts, though, the material featured on Made in Europe came, for the most part, from the Saarbrucken show. Additionally, this performance is said to have experienced extensive studio editing and/or overdubbing of crowd noise and applause. Certainly there is a tape-loop of applause, given away by a whistling fan. The songs featured on the album are from Deep Purple's Burn and Stormbringer albums. In 1990, the album was remastered and re-released in the US by Metal Blade Records with distribution by Warner Bros. This record, which had been out of print in the US, was re-released by Friday Music label on July 31, 2007 (along with Stormbringer and Come Taste the Band). While the label's website claims that the album has been digitally remastered, it is unclear which tapes were used as a source for this release.
Track List:

01. Burn [07:30]
02. Mistreated [11:41]
03. Lady Double Dealer [04:17]
04. You Fool No One [16:40]
05. Stormbringer [05:34]

Total time: 00:45:47

• Ritchie Blackmore • guitar
• David Coverdale • lead vocals
• Glenn Hughes • bass and vocals
• Jon Lord • Hammond organ and keyboards
• Ian Paice • drums

Exact Audio Copy V1.0 beta 1 from 15. November 2010

EAC extraction logfile from 4. March 2011, 23:05

Deep Purple / Made In Europe

Used drive : HL-DT-STDVDRAM GSA-H60N Adapter: 2 ID: 0

Read mode : Secure
Utilize accurate stream : Yes
Defeat audio cache : Yes
Make use of C2 pointers : No

Read offset correction : 667
Overread into Lead-In and Lead-Out : No
Fill up missing offset samples with silence : Yes
Delete leading and trailing silent blocks : No
Null samples used in CRC calculations : Yes
Used interface : Native Win32 interface for Win NT & 2000

Used output format : Internal WAV Routines
Sample format : 44.100 Hz; 16 Bit; Stereo


TOC of the extracted CD

Track | Start | Length | Start sector | End sector
––––––––––––––––––––––––––––-
1 | 0:00.00 | 7:32.24 | 0 | 33923
2 | 7:32.24 | 11:42.26 | 33924 | 86599
3 | 19:14.50 | 4:17.51 | 86600 | 105925
4 | 23:32.26 | 16:40.58 | 105926 | 180983
5 | 40:13.09 | 5:34.33 | 180984 | 206066


Range status and errors

Selected range

Filename C:\Documents and Settings\Администратор\Рабочий стол\Lossless Galaxy Rip by ALLexxess\2010 Beyond The Purple (10CD Box Set Warner Music Japan)\1976 Made In Europe\Deep Purple - Made In Europe.wav

Peak level 100.0 %
Extraction speed 0.7 X
Range quality 100.0 %
Test CRC A56DF250
Copy CRC A56DF250
Copy OK

No errors occurred


AccurateRip summary

Track 1 not present in database
Track 2 not present in database
Track 3 not present in database
Track 4 not present in database
Track 5 not present in database

None of the tracks are present in the AccurateRip database

End of status report

==== Log checksum 05B11446C746D8DBFDBC0F0C28FB05A52B4A4AA37FE188D1D8D8541A1104AE33 ====

foobar2000 1.2.6 / Dynamic Range Meter 1.1.1
log date: 2015-03-02 19:22:50

––––––––––––––––––––––––––––––––––––––––
Analyzed: Deep Purple / Made In Europe
––––––––––––––––––––––––––––––––––––––––

DR Peak RMS Duration Track
––––––––––––––––––––––––––––––––––––––––
DR8 0.00 dB -9.11 dB 7:32 01-Burn
DR8 0.00 dB -11.09 dB 11:42 02-Mistreated
DR8 0.00 dB -8.79 dB 4:18 03-Lady Double Dealer
DR7 0.00 dB -10.11 dB 16:41 04-You Fool No One
DR7 0.00 dB -7.90 dB 5:34 05-Stormbringer
––––––––––––––––––––––––––––––––––––––––

Number of tracks: 5
Official DR value: DR7

Samplerate: 44100 Hz
Channels: 2
Bits per sample: 16
Bitrate: 917 kbps
Codec: FLAC
================================================================================

[CUETools log; Date: 02.03.2015 19:22:23; Version: 2.1.5]
[CTDB TOCID: msAwnhFTmhgcMY4j5oRdBHPIIwc-] found.
Track | CTDB Status
1 | (5/5) Accurately ripped
2 | (5/5) Accurately ripped
3 | (5/5) Accurately ripped
4 | (5/5) Accurately ripped
5 | (5/5) Accurately ripped
[AccurateRip ID: 00095c7d-002c2383-320abb05] found.
Track [ CRC | V2 ] Status
01 [fbe5c89e|a54306c1] (0+3/3) Accurately ripped
02 [32d75b14|9b05f738] (0+3/3) Accurately ripped
03 [a7ccad26|032222e9] (0+3/3) Accurately ripped
04 [902c4ac2|69877268] (0+3/3) Accurately ripped
05 [e015b183|0488a0d3] (0+3/3) Accurately ripped

Track Peak [ CRC32 ] [W/O NULL] [ LOG ]
– 100,0 [A56DF250] [41F3C52E] CRC32
01 100,0 [09908E1B] [F72E5EC1]
02 100,0 [ACBBC4D4] [B37FF140]
03 100,0 [5299DC06] [F1D36CE7]
04 100,0 [A75009FC] [AC399A8C]
05 100,0 [6A0559C1] [547CFA7D]

Deep Purple - Beyond The Purple (2010) {10CD Box Set, Remastered, Japan} Re-Up


All thanks go to "ALLexxess"

>>> Deep Purple in my Blog <<<

DOWNLOAD: