Tags
Language
Tags

Deep Purple - In Rock (1970) Re-up

Posted By: v3122
Deep Purple - In Rock (1970) Re-up

Deep Purple - In Rock (1970)
EAC | Flac(Image) + Cue + Log & MP3 CBR 320Kbps
1987 | EMI, CDP 7 46239 2 | ~ 244 or 103 Mb | Scans(jpg) -> 16 Mb
Hard Rock

After satisfying all of their classical music kinks with keyboard player Jon Lord's overblown Concerto for Group and Orchestra, Deep Purple's soon to be classic Mark II version made its proper debut and established the sonic blueprint that would immortalize this lineup of the band on 1970's awesome In Rock. The cacophony of sound (spearheaded by Ritchie Blackmore's blistering guitar solo) introducing opener "Speed King" made it immediately obvious that the band was no longer fooling around, but the slightly less intense "Bloodsucker" did afford stunned listeners a chance to catch their breaths before the band launched into the album's epic, ten-minute tour de force, "Child in Time." In what still stands as arguably his single greatest performance, singer Ian Gillan led his bandmates on a series of hypnotizing crescendos, from the song's gentle beginning through to its ear-shattering climax and then back again for an even more intense encore that brought the original vinyl album's seismic first side to a close. Side two opened with the searing power chords of "Flight of the Rat" – another example of the band's new take-no-prisoners hard rock stance, though at nearly eight minutes, it too found room for some extended soloing from Blackmore and Lord. Next, "Into the Fire" and "Living Wreck" proved more concise but equally appealing, and though closer "Hard Lovin' Man" finally saw the new-look Deep Purple waffling on a bit too long before descending into feedback, the die was cast for one of heavy metal's defining albums.

by Eduardo Rivadavia, allmusic
Deep Purple - In Rock (1970):

Deep Purple - In Rock (1970) Re-up

Tracklist:

01. Speed King [05:53]
02. Bloodsucker [04:10]
03. Child In Time [10:19]
04. Flight Of The Rat [07:55]
05. Into The Fire [03:29]
06. Living Wreck [04:32]
07. Hard Lovin' Man [07:10]

Exact Audio Copy V0.99 prebeta 5 from 4. May 2009

EAC extraction logfile from 9. August 2013, 0:19

DEEP PURPLE / Deep Purple In Rock ( CDP 7 46239 2 )

Used drive : ASUS DRW-24B3ST Adapter: 5 ID: 0

Read mode : Secure
Utilize accurate stream : Yes
Defeat audio cache : Yes
Make use of C2 pointers : No

Read offset correction : 6
Overread into Lead-In and Lead-Out : No
Fill up missing offset samples with silence : Yes
Delete leading and trailing silent blocks : No
Null samples used in CRC calculations : Yes
Used interface : Native Win32 interface for Win NT & 2000

Used output format : User Defined Encoder
Selected bitrate : 1024 kBit/s
Quality : High
Add ID3 tag : No
Command line compressor : C:\Program Files (x86)\EAC\WV\wavpack.exe
Additional command line options : -h -hh -m %s %d


TOC of the extracted CD

Track | Start | Length | Start sector | End sector
––––––––––––––––––––––––––––-
1 | 0:00.33 | 5:53.60 | 33 | 26567
2 | 5:54.18 | 4:10.07 | 26568 | 45324
3 | 10:04.25 | 10:19.03 | 45325 | 91752
4 | 20:23.28 | 7:55.05 | 91753 | 127382
5 | 28:18.33 | 3:29.37 | 127383 | 143094
6 | 31:47.70 | 4:32.28 | 143095 | 163522
7 | 36:20.23 | 7:10.27 | 163523 | 195799


Range status and errors

Selected range

Filename W:\DEEP PURPLE\1970- Deep Purple In Rock (UK 1987 EMI Records • CDP 7 46239 2)\DEEP PURPLE - Deep Purple In Rock ( CDP 7 46239 2 ).wav

Peak level 86.0 %
Range quality 99.9 %
Test CRC E17D3293
Copy CRC E17D3293
Copy OK

No errors occurred


AccurateRip summary

Track 1 accurately ripped (confidence 52) [BB364B0D]
Track 2 accurately ripped (confidence 57) [1E9C9BB4]
Track 3 accurately ripped (confidence 55) [250015DD]
Track 4 accurately ripped (confidence 56) [72F6A21A]
Track 5 accurately ripped (confidence 55) [C9BC1241]
Track 6 accurately ripped (confidence 57) [0981321D]
Track 7 accurately ripped (confidence 54) [0922A7AA]

All tracks accurately ripped

End of status report

foobar2000 1.2.9 / Dynamic Range Meter 1.1.1
log date: 2017-05-04 21:01:27

––––––––––––––––––––––––––––––––––––––––
Analyzed: DEEP PURPLE / Deep Purple In Rock ( CDP 7 46239 2 )
––––––––––––––––––––––––––––––––––––––––

DR Peak RMS Duration Track
––––––––––––––––––––––––––––––––––––––––
DR9 -1.72 dB -13.78 dB 5:54 01-Speed King
DR9 -1.31 dB -14.30 dB 4:10 02-Bloodsucker
DR9 -2.77 dB -14.88 dB 10:19 03-Child In Time
DR10 -1.48 dB -14.01 dB 7:55 04-Flight Of The Rat
DR9 -2.03 dB -12.49 dB 3:29 05-Into The Fire
DR9 -2.60 dB -14.03 dB 4:32 06-Living Wreck
DR9 -1.39 dB -13.16 dB 7:10 07-Hard Lovin' Man
––––––––––––––––––––––––––––––––––––––––

Number of tracks: 7
Official DR value: DR9

Samplerate: 44100 Hz
Channels: 2
Bits per sample: 16
Bitrate: 762 kbps
Codec: FLAC

[CUETools log; Date: 04.05.2017 21:01:18; Version: 2.1.4]
Pregap length 00:00:33.
[CTDB TOCID: ffnXntY1.WvEZ.NmBwDoDtxTVuQ-] found.
Track | CTDB Status
1 | (332/343) Accurately ripped, or (2/343) differs in 2547 samples @00:12:21-00:12:23
2 | (336/343) Accurately ripped
3 | (331/343) Accurately ripped
4 | (328/343) Accurately ripped
5 | (326/343) Accurately ripped
6 | (324/343) Accurately ripped, or (2/343) differs in 2340 samples @00:00:28-00:00:30
7 | (330/343) Accurately ripped
[AccurateRip ID: 000c1b88-0048ac4e-4e0a3207] found.
Track [ CRC | V2 ] Status
01 [bb364b0d|14d3181b] (052+088/344) Accurately ripped
02 [1e9c9bb4|9f1e8759] (057+090/350) Accurately ripped
03 [250015dd|b2f82cee] (056+088/347) Accurately ripped
04 [72f6a21a|3e20224a] (057+090/348) Accurately ripped
05 [c9bc1241|e4f88417] (055+090/353) Accurately ripped
06 [0981321d|902a6b8a] (057+088/347) Accurately ripped
07 [0922a7aa|045bd32d] (054+085/337) Accurately ripped
Offsetted by 67:
01 [0893e6af] (004/344) Accurately ripped
02 [b8cd60ab] (004/350) Accurately ripped
03 [4e5263cf] (004/347) Accurately ripped
04 [daf26e82] (004/348) Accurately ripped
05 [45e0fb1f] (004/353) Accurately ripped
06 [811efc2e] (004/347) Accurately ripped
07 [0d263669] (004/337) Accurately ripped
Offsetted by 395:
01 [bca2efdf] (022/344) Accurately ripped
02 [b71ba6d3] (022/350) Accurately ripped
03 [51ecf47f] (022/347) Accurately ripped
04 [d8004042] (021/348) Accurately ripped
05 [b2e0cffc] (022/353) Accurately ripped
06 [eef142b9] (022/347) Accurately ripped
07 [4ea66f51] (022/337) Accurately ripped
Offsetted by 533:
01 [5fceb9fb] (049/344) Accurately ripped
02 [5bdbcdb5] (048/350) Accurately ripped
03 [aadb40fb] (049/347) Accurately ripped
04 [ae2d16f2] (047/348) Accurately ripped
05 [fdd250c1] (049/353) Accurately ripped
06 [b87ecfe6] (047/347) Accurately ripped
07 [f3930423] (046/337) Accurately ripped
Offsetted by 1170:
01 [dfd612d9] (016/344) Accurately ripped
02 [02b6f07e] (016/350) Accurately ripped
03 [d4325b89] (016/347) Accurately ripped
04 [8acbd48a] (015/348) Accurately ripped
05 [95173c00] (016/353) Accurately ripped
06 [894fbef8] (015/347) Accurately ripped
07 [cd517f24] (016/337) Accurately ripped
Offsetted by 1358:
01 [6c810881] (002/344) Accurately ripped
02 [a415c14a] (002/350) Accurately ripped
03 [fbb9c771] (002/347) Accurately ripped
04 [ae9230aa] (002/348) Accurately ripped
05 [0d84fb20] (002/353) Accurately ripped
06 [f45ac684] (002/347) Accurately ripped
07 [9b726790] (002/337) Accurately ripped
Offsetted by -1083:
01 [0e26fd1b] (000/344) No match (V2 was not tested)
02 [068c1ca5] (000/350) No match (V2 was not tested)
03 [be90911b] (000/347) No match (V2 was not tested)
04 [e2277172] (000/348) No match (V2 was not tested)
05 [cc8269a5] (000/353) No match (V2 was not tested)
06 [1c1b26f2] (000/347) No match (V2 was not tested)
07 [5972b393] (000/337) No match (V2 was not tested)

Track Peak [ CRC32 ] [W/O NULL] [ LOG ]
– 86,0 [E17D3293] [9E629DB7] CRC32
01 81,9 [B49A573E] [8F4C622A]
02 86,0 [5A8D7189] [60C9D140]
03 72,6 [A5123885] [63611FFD]
04 84,3 [3A75310F] [0F430BBA]
05 79,2 [A862256D] [7B78E46D]
06 74,1 [1BC0844A] [E4F0BAE8]
07 85,2 [83032104] [250DDCD1]

Deep Purple - In Rock (1970) Re-up

All thanks go to the original releaser

Deep Purple in my Blog

Download Deep Purple - In Rock (1970):