Tags
Language
Tags

Deep Purple - In Rock (1970) [30th Anniversary, WPCR-10190, Japan]

Posted By: v3122
Deep Purple - In Rock (1970) [30th Anniversary, WPCR-10190, Japan]

Deep Purple - In Rock (1970)
EAC | Flac(Image) + Cue + Log & MP3 CBR 320Kbps
Warner-Pioneer, WPCR-10190 | ~ 299 or 121 Mb | Scans Included
Hard Rock

After satisfying all of their classical music kinks with keyboard player Jon Lord's overblown Concerto for Group and Orchestra, Deep Purple's soon to be classic Mark II version made its proper debut and established the sonic blueprint that would immortalize this lineup of the band on 1970's awesome In Rock. The cacophony of sound (spearheaded by Ritchie Blackmore's blistering guitar solo) introducing opener "Speed King" made it immediately obvious that the band was no longer fooling around, but the slightly less intense "Bloodsucker" did afford stunned listeners a chance to catch their breaths before the band launched into the album's epic, ten-minute tour de force, "Child in Time." In what still stands as arguably his single greatest performance, singer Ian Gillan led his bandmates on a series of hypnotizing crescendos, from the song's gentle beginning through to its ear-shattering climax and then back again for an even more intense encore that brought the original vinyl album's seismic first side to a close. Side two opened with the searing power chords of "Flight of the Rat" – another example of the band's new take-no-prisoners hard rock stance, though at nearly eight minutes, it too found room for some extended soloing from Blackmore and Lord. Next, "Into the Fire" and "Living Wreck" proved more concise but equally appealing, and though closer "Hard Lovin' Man" finally saw the new-look Deep Purple waffling on a bit too long before descending into feedback, the die was cast for one of heavy metal's defining albums.

by Eduardo Rivadavia, AMG
Deep Purple - In Rock (1970):

Deep Purple - In Rock (1970) [30th Anniversary, WPCR-10190, Japan]

Tracklist:

01. Speed King [4:23]
02. Bloodsucker [4:16]
03. Child In Time [10:22]
04. Flight Of The Rat [7:57]
05. Into The Fire [3:30]
06. Living Wreck [4:33]
07. Hard Lovin' Man [7:13]

Exact Audio Copy V0.99 prebeta 5 from 4. May 2009

EAC extraction logfile from 14. May 2012, 10:56

Deep Purple / In Rock [Gold CD]

Used drive : ASUS DRW-24B3ST Adapter: 0 ID: 0

Read mode : Secure
Utilize accurate stream : Yes
Defeat audio cache : Yes
Make use of C2 pointers : No

Read offset correction : 6
Overread into Lead-In and Lead-Out : No
Fill up missing offset samples with silence : Yes
Delete leading and trailing silent blocks : No
Null samples used in CRC calculations : Yes
Used interface : Native Win32 interface for Win NT & 2000

Used output format : User Defined Encoder
Selected bitrate : 1024 kBit/s
Quality : High
Add ID3 tag : No
Command line compressor : C:\Program Files (x86)\EAC\WV\wavpack.exe
Additional command line options : -h -hh -m %s %d


TOC of the extracted CD

Track | Start | Length | Start sector | End sector
––––––––––––––––––––––––––––-
1 | 0:00.00 | 4:23.23 | 0 | 19747
2 | 4:23.23 | 4:15.45 | 19748 | 38917
3 | 8:38.68 | 10:21.65 | 38918 | 85557
4 | 19:00.58 | 7:57.02 | 85558 | 121334
5 | 26:57.60 | 3:30.00 | 121335 | 137084
6 | 30:27.60 | 4:32.45 | 137085 | 157529
7 | 35:00.30 | 7:12.70 | 157530 | 189999


Range status and errors

Selected range

Filename G:\DEEP PURPLE\1970- In Rock- Gold CD (JP 2001 WEA-Warner Music • WPCR-10190)\Deep Purple - In Rock [Gold CD].wav

Peak level 97.7 %
Range quality 99.9 %
Test CRC 4B9B6A19
Copy CRC 4B9B6A19
Copy OK

No errors occurred


AccurateRip summary

Track 1 accurately ripped (confidence 4) [8F140AB7]
Track 2 accurately ripped (confidence 4) [269086EB]
Track 3 accurately ripped (confidence 3) [55EA4843]
Track 4 accurately ripped (confidence 3) [16696537]
Track 5 accurately ripped (confidence 3) [80AB5908]
Track 6 accurately ripped (confidence 3) [534A2C24]
Track 7 accurately ripped (confidence 3) [EC7A23DE]

All tracks accurately ripped

End of status report

foobar2000 1.2.9 / Dynamic Range Meter 1.1.1
log date: 2016-11-16 12:47:44

––––––––––––––––––––––––––––––––––––––––
Analyzed: Deep Purple / In Rock [Gold CD]
––––––––––––––––––––––––––––––––––––––––

DR Peak RMS Duration Track
––––––––––––––––––––––––––––––––––––––––
DR9 -0.62 dB -10.83 dB 4:23 01-Speed King
DR8 -1.04 dB -11.30 dB 4:16 02-Bloodsucker
DR7 -0.20 dB -9.96 dB 10:22 03-Child In Time
DR9 -0.20 dB -10.29 dB 7:57 04-Flight Of The Rat
DR9 -0.39 dB -10.45 dB 3:30 05-Into The Fire
DR9 -0.20 dB -11.78 dB 4:33 06-Living Wreck
DR9 -0.77 dB -11.79 dB 7:13 07-Hard Lovin' Man
––––––––––––––––––––––––––––––––––––––––

Number of tracks: 7
Official DR value: DR8

Samplerate: 44100 Hz
Channels: 2
Bits per sample: 16
Bitrate: 893 kbps
Codec: FLAC

[CUETools log; Date: 16.11.2016 12:47:34; Version: 2.1.4]
[CTDB TOCID: Mi4HKdbI7DBFtJmohQW6xdnIi.w-] found.
Track | CTDB Status
1 | (4/4) Accurately ripped
2 | (4/4) Accurately ripped
3 | (3/4) Accurately ripped
4 | (4/4) Accurately ripped
5 | (4/4) Accurately ripped
6 | (4/4) Accurately ripped
7 | (4/4) Accurately ripped
[AccurateRip ID: 000b725e-00456eea-4809e507] found.
Track [ CRC | V2 ] Status
01 [8f140ab7|2bacc32d] (4+3/7) Accurately ripped
02 [269086eb|5e619823] (4+3/7) Accurately ripped
03 [55ea4843|bc3e8036] (3+3/6) Accurately ripped
04 [16696537|ddcc50f6] (3+3/6) Accurately ripped
05 [80ab5908|95d67e4f] (3+3/6) Accurately ripped
06 [534a2c24|1ea05208] (3+3/6) Accurately ripped
07 [ec7a23de|b8a5223e] (3+3/6) Accurately ripped

Track Peak [ CRC32 ] [W/O NULL] [ LOG ]
– 97,7 [4B9B6A19] [BCFA1718] CRC32
01 93,0 [151CB353] [178B0E99]
02 88,7 [21351763] [0683EFB9]
03 97,7 [A1AE1694] [01984D35]
04 97,7 [1B8C7F39] [DE8EA553]
05 95,6 [5B3E4C57] [4C865A1F]
06 97,7 [9ADA4945] [212F60E4]
07 91,5 [9C064E89] [85085902]

Deep Purple - In Rock (1970) [30th Anniversary, WPCR-10190, Japan]

All thanks go to the original releaser

Deep Purple in my Blog

Download Deep Purple - In Rock (1970):