Tags
Language
Tags

Deep Purple - Infinite (2017) {6 Bonus Tracks} Re-Up

Posted By: popsakov
Deep Purple - Infinite (2017) {6 Bonus Tracks} Re-Up

Deep Purple - Infinite (2017) {6 Bonus Tracks}
EAC Rip | FLAC (Img) + Cue + Log ~ 530 Mb | MP3 CBR320 ~ 173 Mb
Full Scans ~ 158 Mb | 01:11:53 | RAR 5% Recovery
Hard Rock, Classic Rock | earMusic #0211848EMU | Unofficial Release

No one, least of all Deep Purple themselves, expected the success of 2013's Now What?! It placed at number one on four European album charts and in the Top Ten of six other countries. It also sold exceptionally well: It was certified Gold in Poland, Germany (where it sold over 100,000), the Czech Republic, and Russia – it was the band's first album to crack the U.K.'s Top 40 charts in 20 years.

For InFinite, Deep Purple re-enlisted producer Bob Ezrin. At this point, he is almost a sixth member. This the longest running lineup in their history. InFinite is a heavier and more expansive record than its predecessor, but it's not as consistent. Ian Gillian is in excellent form – still possessing intense expressive power and range, his falsetto remains intact four decades on. Don Airey's organ and keys – so elemental in DP's musical architecture – is physical, atmospheric, and dynamic. He and guitarist Steve Morse combine brute force with imagination and finesse. Ian Pace, who had a mini-stroke last year, seems to have recovered fully. Roger Glover remains a bassist whose musical signature is so dominant it is only rivaled by Black Sabbath's Geezer Butler.

Things get off to a great start with "Time for Bedlam." Despite its slightly corny sci-fi spoken intro with Gillian's voice put through a processor, it acquits itself with a massive swirling charge worthy of the band's glory years. It also features Gillian's best lyrics – he tends to go over the top elsewhere. It's followed by the commanding blues-rock boogie of "Hip Boots," where Gillian's swagger rises above a biting mix of snare, kick drum, and dual leads from organ and guitar; but it's actually Glover who drives the tune. On tracks such as "All I Got Is You" and "The Surprising," this outfit doesn't let the listener forget they're the same band who delivered "Child in Time" and "When a Blind Man Cries." The latter is downright prog as it melds power ballad to metal in a gorgeous mix that includes wonderfully layered backing vocals and Airey's neo-classical keys that evoke the memory of Jon Lord. While the musical attack in "One Night in Vegas" is righteous (complete with a pumping barrelhouse blues acoustic piano woven into the hard rock bombast), Gillian's lyrics are bloated with excess. Somehow, though, it doesn't really matter; his singing is so commanding atop the band's sass and strut, it's enjoyable regardless. "On Top of the World" has the craziest Gillian lyrics ever, but again, DP's crunchy choogle carries them to the finish line. The evocation of vintage psychedelia and Led Zeppelin in "Birds of Prey" makes it one of the more compelling tunes here. Unfortunately, there are two clunkers that sound like filler: the terribly clichéd "Johnny's Band" and a perfunctory read of the Doors' "Roadhouse Blues." Otherwise, InFinite is a winner; it proves not only that Now What?! was no fluke, but that Deep Purple, even at this stage, still have plenty left to offer musically and creatively.

~ Thom Jurek, All Music
Deep Purple - Infinite (2017) {6 Bonus Tracks} Re-Up


***************

Deep Purple - Infinite (2017) {6 Bonus Tracks} Re-Up

Track List:

01. Time For Bedlam [0:04:35.01]
02. Hip Boots [0:03:23.37]
03. All I Got Is You [0:04:42.33]
04. One Night In Vegas [0:03:23.72]
05. Get Me Outta Here [0:03:58.52]
06. The Surprising [0:05:57.44]
07. Johnny's Band [0:03:51.27]
08. On Top Of The World [0:04:01.50]
09. Birds Of Prey [0:05:47.69]
10. Roadhouse Blues [0:06:01.18]
11. Paradise Bar (bonus track) [0:04:10.23]
12. All The Time In The World (bonus track) [0:03:49.10]
13. First Sign Of Madness (bonus track) [0:04:27.00]
14. Simple Folk (bonus track) [0:01:15.59]
15. Above And Beyond (bonus track) [0:05:29.68]
16. Uncommon Man (bonus track) [0:06:58.03]

Personnel:
Ian Paice - drums
Ian Gillan - lead vocals
Roger Glover - bass
Steve Morse - guitar, vocals
Don Airey - keyboards

Exact Audio Copy V1.1 from 23. June 2015

Отчёт EAC об извлечении, выполненном 27. апреля 2017, 12:36

Deep Purple / Infinite (+ 6 bonus tracks)

Дисковод: ATAPI iHAS122 C Adapter: 1 ID: 3

Режим чтения : Достоверность
Использование точного потока : Да
Отключение кэша аудио : Да
Использование указателей C2 : Нет

Коррекция смещения при чтении : 6
Способность читать области Lead-in и Lead-out : Нет
Заполнение пропущенных сэмплов тишиной : Да
Удаление блоков с тишиной в начале и конце : Нет
При вычислениях CRC использовались нулевые сэмплы : Да
Интерфейс : Встроенный Win32-интерфейс для Win NT/2000

Выходной формат : Пользовательский кодировщик
Выбранный битрейт : 768 kBit/s
Качество : Высокий
Добавление ID3-тега : Нет
Утилита сжатия : C:\Program Files\Exact Audio Copy\FLAC\FLAC.EXE
Дополнительные параметры : -6 -V -T "ARTIST=%artist%" -T "TITLE=%title%" -T "ALBUM=%albumtitle%" -T "DATE=%year%" -T "TRACKNUMBER=%tracknr%" -T "GENRE=%genre%" -T "COMMENT=%comment%" -T "BAND=%albuminterpret%" -T "ALBUMARTIST=%albuminterpret%" -T "COMPOSER=%composer%" %haslyrics%–tag-from-file=LYRICS="%lyricsfile%"%haslyrics% -T "DISCNUMBER=%cdnumber%" -T "TOTALDISCS=%totalcds%" -T "TOTALTRACKS=%numtracks%" %hascover%–picture="%coverfile%"%hascover% %source% -o %dest%


TOC извлечённого CD

Трек | Старт | Длительность | Начальный сектор | Конечный сектор
––––––––––––––––––––––––––––––––––-
1 | 0:00.00 | 4:35.01 | 0 | 20625
2 | 4:35.01 | 3:23.37 | 20626 | 35887
3 | 7:58.38 | 4:42.33 | 35888 | 57070
4 | 12:40.71 | 3:23.72 | 57071 | 72367
5 | 16:04.68 | 3:58.52 | 72368 | 90269
6 | 20:03.45 | 5:57.44 | 90270 | 117088
7 | 26:01.14 | 3:51.27 | 117089 | 134440
8 | 29:52.41 | 4:01.50 | 134441 | 152565
9 | 33:54.16 | 5:47.69 | 152566 | 178659
10 | 39:42.10 | 6:01.18 | 178660 | 205752
11 | 45:43.28 | 4:10.23 | 205753 | 224525
12 | 49:53.51 | 3:49.10 | 224526 | 241710
13 | 53:42.61 | 4:27.00 | 241711 | 261735
14 | 58:09.61 | 1:15.59 | 261736 | 267419
15 | 59:25.45 | 5:29.68 | 267420 | 292162
16 | 64:55.38 | 6:58.03 | 292163 | 323515


Характеристики диапазона извлечения и сообщения об ошибках

Выбранный диапазон

Имя файла D:\New Uploads 01.12.2016\Deep Purple - Infinite (+ 6 bonus tracks) - 2017 71'55''\Deep Purple - Infinite (+ 6 bonus tracks).wav

Пиковый уровень 100.0 %
Скорость извлечения 4.3 X
Качество диапазона 99.8 %
CRC теста 694D2A54
CRC копии 694D2A54
Копирование… OK

Ошибок не произошло

Конец отчёта

–– CUETools DB Plugin V2.1.6

[CTDB TOCID: 3RorAIw0qy5luPmeWaUNrWE1PBs-] found
Submit result: 3RorAIw0qy5luPmeWaUNrWE1PBs- has been confirmed
Track | CTDB Status
1 | (1/1) Accurately ripped
2 | (1/1) Accurately ripped
3 | (1/1) Accurately ripped
4 | (1/1) Accurately ripped
5 | (1/1) Accurately ripped
6 | (1/1) Accurately ripped
7 | (1/1) Accurately ripped
8 | (1/1) Accurately ripped
9 | (1/1) Accurately ripped
10 | (1/1) Accurately ripped
11 | (1/1) Accurately ripped
12 | (1/1) Accurately ripped
13 | (1/1) Accurately ripped
14 | (1/1) Accurately ripped
15 | (1/1) Accurately ripped
16 | (1/1) Accurately ripped


==== Контрольная сумма отчёта 61FDAE597822E9E6A9FE6F9EBA02709B0741B67DB41A2B0097972F35FF9A6A9F ====

foobar2000 1.2.6 / Dynamic Range Meter 1.1.1
log date: 2017-04-28 14:03:12

––––––––––––––––––––––––––––––––––––––––
Analyzed: Deep Purple / Infinite (+ 6 bonus tracks)
––––––––––––––––––––––––––––––––––––––––

DR Peak RMS Duration Track
––––––––––––––––––––––––––––––––––––––––
DR7 0.00 dB -8.28 dB 4:35 01-Time For Bedlam
DR6 0.00 dB -7.08 dB 3:23 02-Hip Boots
DR7 0.00 dB -7.74 dB 4:42 03-All I Got Is You
DR7 0.00 dB -7.49 dB 3:24 04-One Night In Vegas
DR6 0.00 dB -7.43 dB 3:59 05-Get Me Outta Here
DR7 0.00 dB -9.36 dB 5:58 06-The Surprising
DR7 0.00 dB -8.78 dB 3:51 07-Johnny's Band
DR7 0.00 dB -9.20 dB 4:02 08-On Top Of The World
DR6 0.00 dB -7.84 dB 5:48 09-Birds Of Prey
DR7 0.00 dB -8.18 dB 6:01 10-Roadhouse Blues
DR7 -0.02 dB -8.86 dB 4:10 11-Paradise Bar (bonus track)
DR7 -0.05 dB -8.09 dB 3:49 12-All The Time In The World (bonus track)
DR6 -0.11 dB -7.10 dB 4:27 13-First Sign Of Madness (bonus track)
DR9 -1.12 dB -13.92 dB 1:16 14-Simple Folk (bonus track)
DR7 -0.02 dB -8.44 dB 5:30 15-Above And Beyond (bonus track)
DR7 -0.02 dB -10.10 dB 6:58 16-Uncommon Man (bonus track)
––––––––––––––––––––––––––––––––––––––––

Number of tracks: 16
Official DR value: DR7

Samplerate: 44100 Hz
Channels: 2
Bits per sample: 16
Bitrate: 980 kbps
Codec: FLAC
================================================================================

[CUETools log; Date: 28.04.2017 14:03:12; Version: 2.1.5]
[CTDB TOCID: 3RorAIw0qy5luPmeWaUNrWE1PBs-] found.
Track | CTDB Status
1 | (2/2) Accurately ripped
2 | (2/2) Accurately ripped
3 | (2/2) Accurately ripped
4 | (2/2) Accurately ripped
5 | (2/2) Accurately ripped
6 | (2/2) Accurately ripped
7 | (2/2) Accurately ripped
8 | (2/2) Accurately ripped
9 | (2/2) Accurately ripped
10 | (2/2) Accurately ripped
11 | (2/2) Accurately ripped
12 | (2/2) Accurately ripped
13 | (2/2) Accurately ripped
14 | (2/2) Accurately ripped
15 | (2/2) Accurately ripped
16 | (2/2) Accurately ripped
[AccurateRip ID: 0028d45c-01eca290-0210d910] disk not present in database.

Track Peak [ CRC32 ] [W/O NULL] [ LOG ]
– 100,0 [694D2A54] [39C1A04E] CRC32
01 100,0 [4D6C2001] [2AC1A47C]
02 100,0 [75C332C6] [E10EDB6C]
03 100,0 [E6731905] [C394DE55]
04 100,0 [FC52A76E] [1E6E96E2]
05 100,0 [2701033E] [FF1F5CF0]
06 100,0 [2087F398] [33645541]
07 100,0 [43626CF0] [68884865]
08 100,0 [65AE47C0] [979E309A]
09 100,0 [60BA2DCD] [03B0777C]
10 100,0 [68F013AE] [C2B03F24]
11 99,7 [0C2D2EF6] [7F74038D]
12 99,4 [D32FE227] [AE7BE100]
13 98,7 [4B83E48B] [055415CB]
14 87,8 [8F79CEF2] [4C1BFC40]
15 99,7 [816E34AB] [E073216E]
16 99,7 [5CD35BA5] [19950579]

Deep Purple - Infinite (2017) {6 Bonus Tracks} Re-Up


All thanks go to BluesHouse

>>> Deep Purple in my Blog <<<

DOWNLOAD: