Subcategories
Tags
Language
Tags

Deep Purple - Live At Montreux 2006 (2007) {Japan 1st Press} Re-Up

Posted By: popsakov
Deep Purple - Live At Montreux 2006 (2007) {Japan 1st Press} Re-Up

Deep Purple - Live At Montreux 2006 (2007) {Japan 1st Press}
2CD | EAC Rip | FLAC (Img) + Cue + Log ~ 786 Mb | MP3 CBR320 ~ 269 Mb
Covers Included | 00:48:33 + 00:56:30 | RAR 5% Recovery
Hard Rock | Ward Records #TKCW-32181

Live at Montreux 2006: They All Came Down to Montreux is the first live release by English hard rock band Deep Purple's mk VIII lineup. This concert was recorded in Montreux, during 2006 Rapture of the Deep tour.

They All Came Down to Montreux was recorded in 2006 during Deep Purple's world tour promoting their album Rapture of the Deep. Fans of the Machine Head era lineup should check this out, as vocalist Ian Gillan, bassist Roger Glover and drummer Ian Paice are featured. Among the 12 tracks are "Lazy," "Highway Star," "Space Truckin" and "Smoke on the Water."

~ Al Campbell, All Music

***************

Deep Purple - Live At Montreux 2006 (2007) {Japan 1st Press} Re-Up

Track List CD1:

01. Pictures Of Home [0:03:56.63]
02. Things I Never Said [0:05:43.46]
03. Strange Kind Of Woman [0:05:04.56]
04. Rapture Of The Deep [0:05:16.36]
05. Wrong Man [0:04:23.42]
06. The Well-Dressed Guitar [0:08:25.00]
07. Kiss Tomorrow Goodbye [0:04:19.04]
08. When A Blind Man Cries [0:03:32.32]
09. Lazy [0:07:51.51]

Exact Audio Copy V1.2 from 12. August 2016

EAC extraction logfile from 3. December 2016, 15:18

Deep Purple / Live at Montreux 2006 (CD1)[TKCW-32181]

Used drive : PIONEER DVD-RW DVR-111L Adapter: 4 ID: 0

Read mode : Secure
Utilize accurate stream : Yes
Defeat audio cache : Yes
Make use of C2 pointers : No

Read offset correction : 48
Overread into Lead-In and Lead-Out : No
Fill up missing offset samples with silence : Yes
Delete leading and trailing silent blocks : No
Null samples used in CRC calculations : Yes
Used interface : Installed external ASPI interface

Used output format : User Defined Encoder
Selected bitrate : 128 kBit/s
Quality : High
Add ID3 tag : No
Command line compressor : C:\Program Files (x86)\Exact Audio Copy\wavpack-4.60.1\wavpack.exe
Additional command line options : -hm -w "Year=%year%" -w "Genre=%genre%" %source% %dest%


TOC of the extracted CD

Track | Start | Length | Start sector | End sector
––––––––––––––––––––––––––––-
1 | 0:00.00 | 3:56.63 | 0 | 17762
2 | 3:56.63 | 5:43.46 | 17763 | 43533
3 | 9:40.34 | 5:04.56 | 43534 | 66389
4 | 14:45.15 | 5:16.36 | 66390 | 90125
5 | 20:01.51 | 4:23.42 | 90126 | 109892
6 | 24:25.18 | 8:25.00 | 109893 | 147767
7 | 32:50.18 | 4:19.04 | 147768 | 167196
8 | 37:09.22 | 3:32.32 | 167197 | 183128
9 | 40:41.54 | 7:51.51 | 183129 | 218504


Range status and errors

Selected range

Filename G:\Rips by Alder\Deep Purple - Live at Montreux 2006 (CD1)[TKCW-32181].wav

Peak level 99.8 %
Extraction speed 6.7 X
Range quality 100.0 %
Test CRC DE6FA5BA
Copy CRC DE6FA5BA
Copy OK

No errors occurred


AccurateRip summary

Track 1 accurately ripped (confidence 2) [F490173A] (AR v2)
Track 2 accurately ripped (confidence 2) [D88B9BB2] (AR v2)
Track 3 accurately ripped (confidence 2) [7C6F6562] (AR v2)
Track 4 accurately ripped (confidence 2) [B3F59F8D] (AR v2)
Track 5 accurately ripped (confidence 2) [2ACA9DBB] (AR v2)
Track 6 accurately ripped (confidence 2) [84F250F0] (AR v2)
Track 7 accurately ripped (confidence 2) [1FAFFC1C] (AR v2)
Track 8 accurately ripped (confidence 2) [F928C5C9] (AR v2)
Track 9 accurately ripped (confidence 2) [676C430A] (AR v2)

All tracks accurately ripped

End of status report

–– CUETools DB Plugin V2.1.6

[CTDB TOCID: Ft_M0r3kMpXxlYPYLMv8tkQB4cY-] found
Submit result: Ft_M0r3kMpXxlYPYLMv8tkQB4cY- has been confirmed
Track | CTDB Status
1 | (2/2) Accurately ripped
2 | (2/2) Accurately ripped
3 | (2/2) Accurately ripped
4 | (2/2) Accurately ripped
5 | (2/2) Accurately ripped
6 | (2/2) Accurately ripped
7 | (2/2) Accurately ripped
8 | (2/2) Accurately ripped
9 | (2/2) Accurately ripped


==== Log checksum B18FB77ABBB110DEAFB13CF13440C1C548D9B7F5BA5BDDF4EE152B40C758B4F4 ====

foobar2000 1.2.6 / Dynamic Range Meter 1.1.1
log date: 2016-12-05 18:56:37

––––––––––––––––––––––––––––––––––––––––
Analyzed: Deep Purple / Live at Montreux 2006 (CD1)[TKCW-32181]
––––––––––––––––––––––––––––––––––––––––

DR Peak RMS Duration Track
––––––––––––––––––––––––––––––––––––––––
DR9 -0.12 dB -10.93 dB 3:57 01-Pictures Of Home
DR7 -0.88 dB -9.08 dB 5:44 02-Things I Never Said
DR7 -0.04 dB -9.04 dB 5:05 03-Strange Kind Of Woman
DR9 -1.11 dB -11.54 dB 5:16 04-Rapture Of The Deep
DR8 -0.64 dB -10.32 dB 4:24 05-Wrong Man
DR9 -0.83 dB -12.96 dB 8:25 06-The Well-Dressed Guitar
DR7 -0.02 dB -9.03 dB 4:19 07-Kiss Tomorrow Goodbye
DR9 -0.97 dB -12.12 dB 3:32 08-When A Blind Man Cries
DR6 -1.00 dB -9.77 dB 7:52 09-Lazy
––––––––––––––––––––––––––––––––––––––––

Number of tracks: 9
Official DR value: DR8

Samplerate: 44100 Hz
Channels: 2
Bits per sample: 16
Bitrate: 947 kbps
Codec: FLAC
================================================================================

[CUETools log; Date: 05.12.2016 18:55:51; Version: 2.1.5]
[CTDB TOCID: Ft_M0r3kMpXxlYPYLMv8tkQB4cY-] found.
Track | CTDB Status
1 | (3/3) Accurately ripped
2 | (3/3) Accurately ripped
3 | (3/3) Accurately ripped
4 | (3/3) Accurately ripped
5 | (3/3) Accurately ripped
6 | (3/3) Accurately ripped
7 | (3/3) Accurately ripped
8 | (3/3) Accurately ripped
9 | (3/3) Accurately ripped
[AccurateRip ID: 000fef51-00763518-750b6109] found.
Track [ CRC | V2 ] Status
01 [5a16b30e|f490173a] (2+2/4) Accurately ripped
02 [c99312b2|d88b9bb2] (2+2/4) Accurately ripped
03 [a9dd80f5|7c6f6562] (2+2/4) Accurately ripped
04 [5c19fd27|b3f59f8d] (2+2/4) Accurately ripped
05 [2bad8e7a|2aca9dbb] (2+2/4) Accurately ripped
06 [fcaa3c96|84f250f0] (2+2/4) Accurately ripped
07 [b6a9df6e|1faffc1c] (2+2/4) Accurately ripped
08 [74b0518b|f928c5c9] (2+2/4) Accurately ripped
09 [2a698f70|676c430a] (2+2/4) Accurately ripped

Track Peak [ CRC32 ] [W/O NULL] [ LOG ]
– 99,8 [DE6FA5BA] [61421702] CRC32
01 98,6 [407DEE0C] [F7AE3A6C]
02 90,3 [3748CE95] [2DE85155]
03 99,5 [5840D07D] [F824D27F]
04 88,0 [78368D5C] [646CF69B]
05 92,8 [BE8F2FCB] [840E4A83]
06 90,9 [C6ECE3AD] [6F4C2877]
07 99,8 [64821065] [A5D16BC7]
08 89,4 [8B5AF2C0] [48ECCCED]
09 89,1 [C232A227] [EBA5D773]

Deep Purple - Live At Montreux 2006 (2007) {Japan 1st Press} Re-Up

Track List CD2:

01. Keyboard Solo [0:04:56.71]
02. Perfect Strangers [0:06:00.72]
03. Space Truckin' [0:04:50.41]
04. Highway Star [0:08:45.32]
05. Smoke On The Water [0:08:39.51]
06. Hush [0:06:29.14]
07. Too Much Fun [0:07:50.22]
08. Black Night [0:08:57.35]

Exact Audio Copy V1.2 from 12. August 2016

EAC extraction logfile from 3. December 2016, 15:42

Deep Purple / Live at Montreux 2006 (CD2)[TKCW-32181]

Used drive : PIONEER DVD-RW DVR-111L Adapter: 4 ID: 0

Read mode : Secure
Utilize accurate stream : Yes
Defeat audio cache : Yes
Make use of C2 pointers : No

Read offset correction : 48
Overread into Lead-In and Lead-Out : No
Fill up missing offset samples with silence : Yes
Delete leading and trailing silent blocks : No
Null samples used in CRC calculations : Yes
Used interface : Installed external ASPI interface

Used output format : User Defined Encoder
Selected bitrate : 128 kBit/s
Quality : High
Add ID3 tag : No
Command line compressor : C:\Program Files (x86)\Exact Audio Copy\wavpack-4.60.1\wavpack.exe
Additional command line options : -hm -w "Year=%year%" -w "Genre=%genre%" %source% %dest%


TOC of the extracted CD

Track | Start | Length | Start sector | End sector
––––––––––––––––––––––––––––-
1 | 0:00.00 | 4:56.71 | 0 | 22270
2 | 4:56.71 | 6:00.72 | 22271 | 49342
3 | 10:57.68 | 4:50.41 | 49343 | 71133
4 | 15:48.34 | 8:45.32 | 71134 | 110540
5 | 24:33.66 | 8:39.51 | 110541 | 149516
6 | 33:13.42 | 6:29.14 | 149517 | 178705
7 | 39:42.56 | 7:50.22 | 178706 | 213977
8 | 47:33.03 | 8:57.35 | 213978 | 254287


Range status and errors

Selected range

Filename G:\Rips by Alder\Deep Purple - Live at Montreux 2006 (CD2)[TKCW-32181].wav

Peak level 99.8 %
Extraction speed 7.0 X
Range quality 100.0 %
Test CRC 47779B58
Copy CRC 47779B58
Copy OK

No errors occurred


AccurateRip summary

Track 1 accurately ripped (confidence 2) [8D1D3DE1] (AR v2)
Track 2 accurately ripped (confidence 2) [4F65AAA0] (AR v2)
Track 3 accurately ripped (confidence 2) [A4EC4BA6] (AR v2)
Track 4 accurately ripped (confidence 2) [12B423F8] (AR v2)
Track 5 accurately ripped (confidence 2) [24F40973] (AR v2)
Track 6 accurately ripped (confidence 2) [66C32990] (AR v2)
Track 7 accurately ripped (confidence 2) [A981D4F3] (AR v2)
Track 8 accurately ripped (confidence 2) [6E399384] (AR v2)

All tracks accurately ripped

End of status report

–– CUETools DB Plugin V2.1.6

[CTDB TOCID: MCE6e.MdaY.5bw2YLbqDCzIgJbk-] found
Submit result: MCE6e.MdaY.5bw2YLbqDCzIgJbk- has been confirmed
Track | CTDB Status
1 | (2/2) Accurately ripped
2 | (2/2) Accurately ripped
3 | (2/2) Accurately ripped
4 | (2/2) Accurately ripped
5 | (2/2) Accurately ripped
6 | (2/2) Accurately ripped
7 | (2/2) Accurately ripped
8 | (2/2) Accurately ripped


==== Log checksum 053F186B6C12A05096C54DDC442F636C62071BDC8633A61E007035F094F92813 ====

foobar2000 1.2.6 / Dynamic Range Meter 1.1.1
log date: 2016-12-05 18:54:27

––––––––––––––––––––––––––––––––––––––––
Analyzed: Deep Purple / Live at Montreux 2006 (CD2)[TKCW-32181]
––––––––––––––––––––––––––––––––––––––––

DR Peak RMS Duration Track
––––––––––––––––––––––––––––––––––––––––
DR11 -1.31 dB -15.32 dB 4:57 01-Keyboard Solo
DR6 -0.59 dB -8.22 dB 6:01 02-Perfect Strangers
DR6 -0.42 dB -8.67 dB 4:51 03-Space Truckin'
DR6 -0.71 dB -8.35 dB 8:45 04-Highway Star
DR7 -0.24 dB -9.27 dB 8:40 05-Smoke On The Water
DR6 -0.01 dB -8.21 dB 6:29 06-Hush
DR4 -0.14 dB -7.49 dB 7:50 07-Too Much Fun
DR4 -0.07 dB -7.96 dB 8:57 08-Black Night
––––––––––––––––––––––––––––––––––––––––

Number of tracks: 8
Official DR value: DR6

Samplerate: 44100 Hz
Channels: 2
Bits per sample: 16
Bitrate: 997 kbps
Codec: FLAC
================================================================================

[CUETools log; Date: 05.12.2016 18:54:29; Version: 2.1.5]
[CTDB TOCID: MCE6e.MdaY.5bw2YLbqDCzIgJbk-] found.
Track | CTDB Status
1 | (3/3) Accurately ripped
2 | (3/3) Accurately ripped
3 | (3/3) Accurately ripped
4 | (3/3) Accurately ripped
5 | (3/3) Accurately ripped
6 | (3/3) Accurately ripped
7 | (3/3) Accurately ripped
8 | (3/3) Accurately ripped
[AccurateRip ID: 001004b2-006d8821-850d3e08] found.
Track [ CRC | V2 ] Status
01 [210140ac|8d1d3de1] (2+2/4) Accurately ripped
02 [e29a39f0|4f65aaa0] (2+2/4) Accurately ripped
03 [d41ca815|a4ec4ba6] (2+2/4) Accurately ripped
04 [164a93e6|12b423f8] (2+2/4) Accurately ripped
05 [79bf3425|24f40973] (2+2/4) Accurately ripped
06 [75408280|66c32990] (2+2/4) Accurately ripped
07 [1e7bf023|a981d4f3] (2+2/4) Accurately ripped
08 [308373e5|6e399384] (2+2/4) Accurately ripped

Track Peak [ CRC32 ] [W/O NULL] [ LOG ]
– 99,8 [47779B58] [7DE2F639] CRC32
01 85,9 [0A98610A] [27C57A8A]
02 93,4 [22A3AC67] [1D8F07D4]
03 95,3 [962E92C1] [2E1F83EB]
04 92,1 [E1581A7E] [2D0A6A05]
05 97,3 [31397976] [A12BE11D]
06 99,8 [12C044A9] [CB45E125]
07 98,3 [63E3214A] [0149F830]
08 99,2 [D9F97BBA] [FE4F7AE6]

Personnel:
Ian Gillan - vocals, harmonica
Steve Morse - guitar
Roger Glover - bass
Ian Paice - drums
Don Airey - keyboards

With:
Michael Bradford - guitar on «Hush», «Too Much Fun» and «Black Night»
Claude Nobs - harmonica on «Too Much Fun»

Deep Purple - Live At Montreux 2006 (2007) {Japan 1st Press} Re-Up


All thanks go to Alder

>>> Deep Purple in my Blog <<<

DOWNLOAD: