Tags
Language
Tags

Deep Purple - Rapture Of The Deep: Limited Touredition (2006)

Posted By: popsakov
Deep Purple - Rapture Of The Deep: Limited Touredition (2006)

Deep Purple - Rapture Of The Deep: Limited Touredition (2006)
2CD | EAC Rip | FLAC (Img) + Cue + Log ~ 768 Mb | MP3 CBR320 ~ 269 Mb
Full Scans | 00:55:48 + 00:42:44 | RAR 5% Recovery
Hard Rock, Classic Rock | Edel Records #0169342ERE

Deep Purple's 2005 album Rapture of the Deep generally maintains the quality of 2003's surprisingly sturdy Bananas. It's the second release from the re-energized lineup of vocalist Ian Gillan, guitarist Steve Morse, bass guitarist Roger Glover, drummer Ian Paice, and keyboardist Don Airey, who replaced the retired Jon Lord. The band's comfort level has increased, and after nearly a decade on board, Morse's stamp is all over the place. At first, this guitar genius' presence was noticeable because of what it lacked – the incredibly distinctive Fender Stratocaster electric guitar tone of Ritchie Blackmore. Thus, sometimes Deep Purple didn't sound like Deep Purple. However, the variety of tones Morse incorporates in his style gives the pioneering heavy metal quintet more sonic weaponry. Airey's long, respectable career as a journeyman keyboardist-for-hire pretty much guaranteed he would largely adopt Lord's organ-based style, at least at first, but he has expanded his sound on Rapture of the Deep, too. "Money Talks," "Girls Like That," and "Wrong Man" ride strong riffs and rhythms into decent grooves. "Rapture of the Deep" floats along on a lightly hypnotic wave. The mature ballad "Clearly Quite Absurd" has a lilting, controlled tempo, and it's the biggest surprise on the album; Gillan's singing is appropriately subdued while Airey's piano supplies the beauty and Morse's gradually ascending riffs toward the end build the tension. "MTV" is a vicious, bile-spewing, all-out attack on how the modern music industry treats classic rock/heritage artists, although in 2005 Deep Purple clearly appeals more to VH1 Classic than MTV. Initially, the song risks biting the hand that feeds by correctly criticizing classic rock radio for not playing new music by veteran artists. The last verse is a cannon blast that pummels clueless, uninformed disc jockeys who, during interviews, butcher artists' names ("Mr. Grover 'n' Mr. Gillian"), get facts wrong (misinterpreting the Frank Zappa-inspired "Smoke on the Water" legend), and avoid in-depth discussion of new music (like Bananas) in order to record more station IDs. Rapture of the Deep – Deep Purple's first album for Eagle Records – misses equaling Bananas by a notch or two, but it's a good example of how many veteran artists still maintain creative vitality. This special Tour Edition features an additional CD of bonus tracks and material.

~ Bret Adams, All Music

***************

Deep Purple - Rapture Of The Deep: Limited Touredition (2006)

Track List CD1:

01. Money Talks [5:33]
02. Girls Like That [4:03]
03. Wrong Man [4:53]
04. Rapture Of The Deep [5:56]
05. Clearly Quite Absurd [5:25]
06. Don't Let Go [4:34]
07. Back To Back [4:05]
08. Kiss Tomorrow Goodbye [4:20]
09. MTV [4:56]
10. Junkyard Blues [5:33]
11. Before Time Began [6:30]

Exact Audio Copy V0.99 prebeta 5 from 4. May 2009

EAC extraction logfile from 12. August 2010, 19:58

Deep Purple / Rapture Of The Deep (limited touredition CD1)

Used drive : SONY DVD RW DRU-700A Adapter: 0 ID: 0

Read mode : Secure
Utilize accurate stream : Yes
Defeat audio cache : Yes
Make use of C2 pointers : No

Read offset correction : 12
Overread into Lead-In and Lead-Out : No
Fill up missing offset samples with silence : Yes
Delete leading and trailing silent blocks : No
Null samples used in CRC calculations : Yes
Used interface : Native Win32 interface for Win NT & 2000

Used output format : Internal WAV Routines
Sample format : 44.100 Hz; 16 Bit; Stereo


TOC of the extracted CD

Track | Start | Length | Start sector | End sector
––––––––––––––––––––––––––––-
1 | 0:00.00 | 5:32.74 | 0 | 24973
2 | 5:32.74 | 4:02.48 | 24974 | 43171
3 | 9:35.47 | 4:53.18 | 43172 | 65164
4 | 14:28.65 | 5:55.59 | 65165 | 91848
5 | 20:24.49 | 5:25.26 | 91849 | 116249
6 | 25:50.00 | 4:33.59 | 116250 | 136783
7 | 30:23.59 | 4:04.74 | 136784 | 155157
8 | 34:28.58 | 4:19.47 | 155158 | 174629
9 | 38:48.30 | 4:56.26 | 174630 | 196855
10 | 43:44.56 | 5:33.18 | 196856 | 221848
11 | 49:17.74 | 6:30.01 | 221849 | 251099


Range status and errors

Selected range

Filename D:\Audio\Deep Purple - Rapture Of The Deep (limited touredition CD1).wav

Peak level 98.8 %
Range quality 100.0 %
Test CRC 7590240B
Copy CRC 7590240B
Copy OK

No errors occurred


AccurateRip summary

Track 1 accurately ripped (confidence 19) [908EBCD7]
Track 2 accurately ripped (confidence 20) [5290C475]
Track 3 accurately ripped (confidence 20) [8EEBB496]
Track 4 accurately ripped (confidence 20) [D30623E9]
Track 5 accurately ripped (confidence 20) [DCEA6AFF]
Track 6 accurately ripped (confidence 20) [D455EFA0]
Track 7 accurately ripped (confidence 20) [3A5EB518]
Track 8 accurately ripped (confidence 20) [5DE0BC9C]
Track 9 accurately ripped (confidence 20) [1B8229A8]
Track 10 accurately ripped (confidence 20) [83CAB1E2]
Track 11 accurately ripped (confidence 20) [278E78B6]

All tracks accurately ripped

End of status report

foobar2000 1.3.16 / Dynamic Range Meter 1.1.1
log date: 2018-10-30 11:31:00

––––––––––––––––––––––––––––––––––––––––
Analyzed: Deep Purple / Rapture Of The Deep (limited touredition CD1)
––––––––––––––––––––––––––––––––––––––––

DR Peak RMS Duration Track
––––––––––––––––––––––––––––––––––––––––
DR5 -0.10 dB -7.10 dB 5:33 01-Money Talks
DR7 -0.10 dB -8.83 dB 4:03 02-Girls Like That
DR7 -0.10 dB -8.02 dB 4:53 03-Wrong Man
DR7 -0.10 dB -7.83 dB 5:56 04-Rapture Of The Deep
DR5 -0.10 dB -6.49 dB 5:25 05-Clearly Quite Absurd
DR6 -0.10 dB -7.59 dB 4:34 06-Don't Let Go
DR6 -0.10 dB -7.93 dB 4:05 07-Back To Back
DR6 -0.10 dB -7.57 dB 4:20 08-Kiss Tomorrow Goodbye
DR7 -0.10 dB -8.15 dB 4:56 09-MTV
DR9 -0.10 dB -10.37 dB 5:33 10-Junkyard Blues
DR8 -0.10 dB -10.13 dB 6:30 11-Before Time Began
––––––––––––––––––––––––––––––––––––––––

Number of tracks: 11
Official DR value: DR7

Samplerate: 44100 Hz
Channels: 2
Bits per sample: 16
Bitrate: 1003 kbps
Codec: FLAC
================================================================================

[CUETools log; Date: 30.10.2018 11:30:16; Version: 2.1.6]
[CTDB TOCID: DFUp4LUnjhMxtzxL1yZZHk5ZTjY-] found.
Track | CTDB Status
1 | (94/95) Accurately ripped
2 | (95/95) Accurately ripped
3 | (95/95) Accurately ripped
4 | (95/95) Accurately ripped
5 | (95/95) Accurately ripped
6 | (94/95) Accurately ripped
7 | (94/95) Accurately ripped
8 | (94/95) Accurately ripped
9 | (94/95) Accurately ripped
10 | (94/95) Accurately ripped
11 | (92/95) Accurately ripped
[AccurateRip ID: 00168c9b-00c3268f-900d140b] found.
Track [ CRC | V2 ] Status
01 [908ebcd7|a8c02af9] (27+32/80) Accurately ripped
02 [5290c475|c7121b6a] (28+32/81) Accurately ripped
03 [8eebb496|8627ba9a] (28+32/81) Accurately ripped
04 [d30623e9|8fc153ba] (28+32/81) Accurately ripped
05 [dcea6aff|1cb941ce] (28+32/81) Accurately ripped
06 [d455efa0|07fd2f39] (28+32/81) Accurately ripped
07 [3a5eb518|62690550] (28+32/79) Accurately ripped
08 [5de0bc9c|8dbc6d6e] (28+31/80) Accurately ripped
09 [1b8229a8|9479bb5d] (28+32/79) Accurately ripped
10 [83cab1e2|52f80e18] (28+31/80) Accurately ripped
11 [278e78b6|f67958fa] (28+31/80) Accurately ripped
Offsetted by -676:
01 [bbc559b7] (02/80) Accurately ripped
02 [4d2a4249] (02/81) Accurately ripped
03 [2655e542] (02/81) Accurately ripped
04 [82400b69] (02/81) Accurately ripped
05 [5ca6e3ab] (02/81) Accurately ripped
06 [bb910b50] (02/81) Accurately ripped
07 [2c02dd9c] (02/79) Accurately ripped
08 [ed1177b0] (02/80) Accurately ripped
09 [648dedf4] (02/79) Accurately ripped
10 [51dda35a] (02/80) Accurately ripped
11 [94562146] (02/80) Accurately ripped
Offsetted by -664:
01 [ceb23417] (08/80) Accurately ripped
02 [2a6bb32d] (08/81) Accurately ripped
03 [be2814de] (08/81) Accurately ripped
04 [883a78e9] (08/81) Accurately ripped
05 [5d69fb47] (08/81) Accurately ripped
06 [e97336c0] (08/81) Accurately ripped
07 [01da14f0] (08/79) Accurately ripped
08 [f828d6d4] (08/80) Accurately ripped
09 [8f2fcdb0] (08/79) Accurately ripped
10 [6f887932] (08/80) Accurately ripped
11 [759fd716] (08/80) Accurately ripped
Offsetted by -798:
01 [a60802e7] (00/80) No match
02 [5910f13b] (00/81) No match
03 [1ed25690] (00/81) No match
04 [4578b229] (00/81) No match
05 [2a3cc8f9] (00/81) No match (V2 was not tested)
06 [e915a708] (00/81) No match
07 [adf6d5c6] (00/79) No match
08 [fc4e85c2] (00/80) No match
09 [08758b52] (00/79) No match
10 [ceea2546] (00/80) No match
11 [21e8be2e] (00/80) No match
Offsetted by -6:
01 [87184fa7] (02/80) Accurately ripped
02 [63f00c03] (02/81) Accurately ripped
03 [43029cc8] (02/81) Accurately ripped
04 [d008ed29] (02/81) Accurately ripped
05 [5c88df31] (02/81) Accurately ripped
06 [bd64d9e8] (02/81) Accurately ripped
07 [cf73196e] (00/79) No match (V2 was not tested)
08 [d8550d0a] (02/80) Accurately ripped
09 [063139ca] (00/79) No match (V2 was not tested)
10 [74f546f6] (02/80) Accurately ripped
11 [36e99dce] (02/80) Accurately ripped
Offsetted by 6:
01 [9a052a07] (00/80) No match (V2 was not tested)
02 [41317ce7] (00/81) No match (V2 was not tested)
03 [dad4cc64] (00/81) No match (V2 was not tested)
04 [d6035aa9] (00/81) No match (V2 was not tested)
05 [5d4bf6cd] (00/81) No match (V2 was not tested)
06 [eb470558] (00/81) No match (V2 was not tested)
07 [a54a50c2] (00/79) No match (V2 was not tested)
08 [e36c6c2e] (00/80) No match (V2 was not tested)
09 [30d31986] (00/79) No match (V2 was not tested)
10 [92a01cce] (00/80) No match (V2 was not tested)
11 [1833539e] (00/80) No match (V2 was not tested)

Track Peak [ CRC32 ] [W/O NULL] [ LOG ]
– 98,8 [7590240B] [CFEE69DA] CRC32
01 98,8 [86106666] [8E01D255]
02 98,8 [4741CC91] [54EDDABA]
03 98,8 [DDA3794A] [CFB89E86]
04 98,8 [468A1DD1] [0EEA63C8]
05 98,8 [E3F6C594] [4C58DF55]
06 98,8 [8F553379] [D89569A6]
07 98,8 [C1073027] [730B0AA3]
08 98,8 [1A41BAC7] [451BD485]
09 98,8 [499CD3E1] [51CDC04B]
10 98,8 [617A8D84] [1EDB14AA]
11 98,8 [DC103487] [F01BCC13]

Track List CD2:

01. Clearly Quite Absurd (New Version) [3:39]
02. Things I Never Said [4:49]
03. The Well-Dressed Guitar (Studio Version) [2:52]
04. Rapture Of The Deep (Live 2005) [5:15]
05. Wrong Man (Live 2005) [4:29]
06. Highway Star (Live 2005) [8:09]
07. Smoke On The Water (Live 2005) [6:50]
08. Perfect Strangers (Live 2005) [6:41]

Exact Audio Copy V0.99 prebeta 5 from 4. May 2009

EAC extraction logfile from 12. August 2010, 20:47

Deep Purple / Rapture Of The Deep (limited touredition CD2)

Used drive : SONY DVD RW DRU-700A Adapter: 0 ID: 0

Read mode : Secure
Utilize accurate stream : Yes
Defeat audio cache : Yes
Make use of C2 pointers : No

Read offset correction : 12
Overread into Lead-In and Lead-Out : No
Fill up missing offset samples with silence : Yes
Delete leading and trailing silent blocks : No
Null samples used in CRC calculations : Yes
Used interface : Native Win32 interface for Win NT & 2000

Used output format : Internal WAV Routines
Sample format : 44.100 Hz; 16 Bit; Stereo


TOC of the extracted CD

Track | Start | Length | Start sector | End sector
––––––––––––––––––––––––––––-
1 | 0:00.00 | 3:38.55 | 0 | 16404
2 | 3:38.55 | 4:48.55 | 16405 | 38059
3 | 8:27.35 | 2:51.59 | 38060 | 50943
4 | 11:19.19 | 5:15.12 | 50944 | 74580
5 | 16:34.31 | 4:29.12 | 74581 | 94767
6 | 21:03.43 | 8:09.34 | 94768 | 131476
7 | 29:13.02 | 6:50.00 | 131477 | 162226
8 | 36:03.02 | 6:40.73 | 162227 | 192299


Range status and errors

Selected range

Filename D:\Audio\Deep Purple - Rapture Of The Deep (limited touredition CD2).wav

Peak level 99.9 %
Range quality 100.0 %
Test CRC 4B128CBC
Copy CRC 4B128CBC
Copy OK

No errors occurred


AccurateRip summary

Track 1 accurately ripped (confidence 18) [4A45C624]
Track 2 accurately ripped (confidence 19) [66130DAC]
Track 3 accurately ripped (confidence 19) [D0674EC4]
Track 4 accurately ripped (confidence 19) [2A7FEACB]
Track 5 accurately ripped (confidence 19) [D551609D]
Track 6 accurately ripped (confidence 19) [76762C1B]
Track 7 accurately ripped (confidence 19) [91B1236F]
Track 8 accurately ripped (confidence 19) [A9411868]

All tracks accurately ripped

End of status report

foobar2000 1.3.16 / Dynamic Range Meter 1.1.1
log date: 2018-10-30 11:33:24

––––––––––––––––––––––––––––––––––––––––
Analyzed: Deep Purple / Rapture Of The Deep (limited touredition CD2)
––––––––––––––––––––––––––––––––––––––––

DR Peak RMS Duration Track
––––––––––––––––––––––––––––––––––––––––
DR5 -3.25 dB -9.76 dB 3:39 01-Clearly Quite Absurd (New Version)
DR8 0.00 dB -8.74 dB 4:49 02-Things I Never Said
DR5 -3.00 dB -9.25 dB 2:52 03-The Well-Dressed Guitar (Studio Version)
DR6 -0.75 dB -7.38 dB 5:15 04-Rapture Of The Deep (Live 2005)
DR6 -0.75 dB -7.90 dB 4:29 05-Wrong Man (Live 2005)
DR5 -0.75 dB -7.69 dB 8:09 06-Highway Star (Live 2005)
DR5 -0.75 dB -7.60 dB 6:50 07-Smoke On The Water (Live 2005)
DR6 -0.75 dB -8.05 dB 6:41 08-Perfect Strangers (Live 2005)
––––––––––––––––––––––––––––––––––––––––

Number of tracks: 8
Official DR value: DR6

Samplerate: 44100 Hz
Channels: 2
Bits per sample: 16
Bitrate: 981 kbps
Codec: FLAC
================================================================================

[CUETools log; Date: 30.10.2018 11:32:53; Version: 2.1.6]
[CTDB TOCID: 88WkrQ4KNqVM.lOP2xhtX_ssSl0-] found.
Track | CTDB Status
1 | (91/92) Accurately ripped
2 | (91/92) Accurately ripped
3 | (91/92) Accurately ripped
4 | (91/92) Accurately ripped
5 | (91/92) Accurately ripped
6 | (90/92) Accurately ripped
7 | (89/92) Accurately ripped
8 | (90/92) Accurately ripped
[AccurateRip ID: 000b9bba-004ff92f-690a0408] found.
Track [ CRC | V2 ] Status
01 [4a45c624|b9b8f654] (26+30/76) Accurately ripped
02 [66130dac|773ba281] (27+30/77) Accurately ripped
03 [d0674ec4|ea4a782d] (27+30/77) Accurately ripped
04 [2a7feacb|7a79998e] (27+30/76) Accurately ripped
05 [d551609d|6cba9a59] (27+30/77) Accurately ripped
06 [76762c1b|e6ed6fe2] (27+30/77) Accurately ripped
07 [91b1236f|aee8ff0e] (27+30/77) Accurately ripped
08 [a9411868|b6e6d286] (27+30/76) Accurately ripped
Offsetted by -676:
01 [8e643354] (02/76) Accurately ripped
02 [479829bc] (02/77) Accurately ripped
03 [fb1693f8] (02/77) Accurately ripped
04 [29996703] (02/76) Accurately ripped
05 [583e666d] (02/77) Accurately ripped
06 [035f42eb] (02/77) Accurately ripped
07 [15d1d05f] (02/77) Accurately ripped
08 [968c9928] (02/76) Accurately ripped
Offsetted by -664:
01 [b005be44] (08/76) Accurately ripped
02 [7594490c] (08/77) Accurately ripped
03 [a0f52bbc] (08/77) Accurately ripped
04 [8480b69b] (08/76) Accurately ripped
05 [226aaa7d] (08/77) Accurately ripped
06 [4e200bfb] (08/77) Accurately ripped
07 [bea54e0f] (08/77) Accurately ripped
08 [223e00e8] (08/76) Accurately ripped
Offsetted by -667:
01 [279d5b88] (00/76) No match (V2 was not tested)
02 [2a154138] (00/77) No match (V2 was not tested)
03 [377d85cb] (00/77) No match (V2 was not tested)
04 [6dc6e2b5] (00/76) No match (V2 was not tested)
05 [6fdf9979] (00/77) No match (V2 was not tested)
06 [fb6fd9b7] (00/77) No match (V2 was not tested)
07 [54706ea3] (00/77) No match (V2 was not tested)
08 [3f51a6f8] (00/76) No match (V2 was not tested)
Offsetted by 6:
01 [5b168b9c] (00/76) No match (V2 was not tested)
02 [fd111d54] (00/77) No match (V2 was not tested)
03 [a3569aa6] (00/77) No match (V2 was not tested)
04 [57f39297] (00/76) No match (V2 was not tested)
05 [3a6782a5] (00/77) No match (V2 was not tested)
06 [1bd690a3] (00/77) No match (V2 was not tested)
07 [661ae247] (00/77) No match (V2 was not tested)
08 [6f19cc48] (00/76) No match (V2 was not tested)

Track Peak [ CRC32 ] [W/O NULL] [ LOG ]
– 99,9 [4B128CBC] [C9BCEE0D] CRC32
01 68,7 [DDDAC61F] [8AC912DB]
02 99,9 [EEB03E81] [228B53A1]
03 70,7 [E81D7A98] [FBAB9BD4]
04 91,7 [47188850] [9219737D]
05 91,7 [43B92A9D] [24AB6033]
06 91,7 [1D8F07AE] [31D815DE]
07 91,7 [91D25C80] [A466D2ED]
08 91,7 [DED5438E] [94FC8A2B]

Personnel:
Ian Gillan - lead vocals
Steve Morse - guitar, backing vocals
Don Airey - keyboards
Roger Glover - bass
Ian Paice - drums

Deep Purple - Rapture Of The Deep: Limited Touredition (2006)


All thanks go to the original ripper(s) …

>>> Deep Purple in my Blog <<<

DOWNLOAD: