Subcategories

Deep Purple - Scandinavian Nights: Live In Stockholm 1970 (1991) {Japan 1st press}

Posted By: popsakov
Deep Purple - Scandinavian Nights: Live In Stockholm 1970 (1991) {Japan 1st press}

Deep Purple - Scandinavian Nights: Live In Stockholm 1970 (1991)
EAC Rip | FLAC (Img) + Cue + Log ~ 713 Mb | MP3 CBR320 ~ 280 Mb
Scans (JPG, 300 dpi) ~ 8 Mb | RAR 5% Recovery
Hard Rock, Heavy Metal, Progressive Rock | Metal Mania / Teichiku Records #TECP-40778~79

This early live set by Purple Mark II, complete on two discs, was recorded in Stockholm, Sweden in 1970, and it showcases the band at its most extended. The jams on "Wring That Neck" and "Mandrake Root" clock in at around half an hour apiece. An instrumental version of the Rolling Stones' "Paint It Black" leads into the requisite drum solo, and also included is the longest-ever recording of "Child in Time." Some of this (especially "Mandrake Root") can be trying to the patience of someone who wasn't there. But this was the era when hundreds of bands were stretching out every night, and Purple, with the skills and imaginations of Jon Lord and Ritchie Blackmore to call on, did it better than many, at its climaxes reaching a fiery intensity matched by few others.
~ Stephen Raiteri, All Music

***************

Deep Purple - Scandinavian Nights: Live In Stockholm 1970 (1991) {Japan 1st press}

Deep Purple - Scandinavian Nights: Live In Stockholm 1970 (1991) {Japan 1st press}

Track List CD1:

01. Wring That Neck [0:34:22.15]
02. Speed King [0:10:45.02]
03. Into The Fire [0:04:47.13]
04. Paint It Back [0:09:49.70]

Exact Audio Copy V1.1 from 23. June 2015

EAC extraction logfile from 21. June 2016, 12:33

Deep Purple / Scandinavian Nights (CD 1)[TECP-40778]

Used drive : HL-DT-STBD-RE BH10LS38 Adapter: 1 ID: 1

Read mode : Secure
Utilize accurate stream : Yes
Defeat audio cache : Yes
Make use of C2 pointers : No

Read offset correction : 667
Overread into Lead-In and Lead-Out : No
Fill up missing offset samples with silence : Yes
Delete leading and trailing silent blocks : No
Null samples used in CRC calculations : Yes
Used interface : Installed external ASPI interface

Used output format : User Defined Encoder
Selected bitrate : 128 kBit/s
Quality : High
Add ID3 tag : No
Command line compressor : C:\Program Files (x86)\Exact Audio Copy\wavpack-4.60.1\wavpack.exe
Additional command line options : -hm -w "Year=%year%" -w "Genre=%genre%" %source% %dest%


TOC of the extracted CD

Track | Start | Length | Start sector | End sector
––––––––––––––––––––––––––––-
1 | 0:00.00 | 34:22.15 | 0 | 154664
2 | 34:22.15 | 10:45.02 | 154665 | 203041
3 | 45:07.17 | 4:47.13 | 203042 | 224579
4 | 49:54.30 | 9:49.70 | 224580 | 268824


Range status and errors

Selected range

Filename G:\Rips by Alder\Deep Purple - Scandinavian Nights (CD 1)[TECP-40778].wav

Peak level 90.2 %
Extraction speed 7.5 X
Range quality 100.0 %
Test CRC EACE75FC
Copy CRC EACE75FC
Copy OK

No errors occurred


AccurateRip summary

Track 1 accurately ripped (confidence 1) [AD9B644B] (AR v2)
Track 2 accurately ripped (confidence 1) [A9F4CF42] (AR v2)
Track 3 accurately ripped (confidence 1) [D909CD84] (AR v2)
Track 4 accurately ripped (confidence 1) [BE46DDC5] (AR v2)

All tracks accurately ripped

End of status report

–– CUETools DB Plugin V2.1.6

[CTDB TOCID: hCxC94bUyDi6i1WiR78CyGiJE3I-] found
Submit result: hCxC94bUyDi6i1WiR78CyGiJE3I- has been confirmed
Track | CTDB Status
1 | (1/1) Accurately ripped
2 | (1/1) Accurately ripped
3 | (1/1) Accurately ripped
4 | (1/1) Accurately ripped


==== Log checksum 6954341BCD52E6A0F04424B1EC9AB89DF29646E87151CC9F448B09DB8DCA56D4 ====

foobar2000 1.2.6 / Dynamic Range Meter 1.1.1
log date: 2016-06-22 20:38:54

––––––––––––––––––––––––––––––––––––––––
Analyzed: Deep Purple / Scandinavian Nights (CD 1)[TECP-40778]
––––––––––––––––––––––––––––––––––––––––

DR Peak RMS Duration Track
––––––––––––––––––––––––––––––––––––––––
DR12 -1.19 dB -18.79 dB 34:22 01-Wring That Neck
DR11 -1.60 dB -16.60 dB 10:45 02-Speed King
DR11 -1.09 dB -15.69 dB 4:47 03-Into The Fire
DR10 -0.89 dB -15.87 dB 9:50 04-Paint It Back
––––––––––––––––––––––––––––––––––––––––

Number of tracks: 4
Official DR value: DR11

Samplerate: 44100 Hz
Channels: 2
Bits per sample: 16
Bitrate: 776 kbps
Codec: FLAC
================================================================================

[CUETools log; Date: 22.06.2016 20:38:55; Version: 2.1.5]
[CTDB TOCID: hCxC94bUyDi6i1WiR78CyGiJE3I-] found.
Track | CTDB Status
1 | (2/2) Accurately ripped
2 | (2/2) Accurately ripped
3 | (2/2) Accurately ripped
4 | (2/2) Accurately ripped
[AccurateRip ID: 000cfca8-00303b46-3a0e0004] found.
Track [ CRC | V2 ] Status
01 [07b226c0|ad9b644b] (0+1/1) Accurately ripped
02 [bc8d685d|a9f4cf42] (0+1/1) Accurately ripped
03 [bc925ae0|d909cd84] (0+1/1) Accurately ripped
04 [b9576d3e|be46ddc5] (0+1/1) Accurately ripped

Track Peak [ CRC32 ] [W/O NULL] [ LOG ]
– 90,2 [EACE75FC] [73177F84] CRC32
01 87,2 [309A0535] [20B329FA]
02 83,1 [333C7F96] [84CC2DA9]
03 88,2 [0E68C54F] [BDD6B5B6]
04 90,2 [920AB9E8] [1D6D6EC4]

Deep Purple - Scandinavian Nights: Live In Stockholm 1970 (1991) {Japan 1st press}

Deep Purple - Scandinavian Nights: Live In Stockholm 1970 (1991) {Japan 1st press}

Track List CD2:

01. Mandrake Root [0:28:39.62]
02. Child In Time [0:20:28.68]
03. Black Night [0:07:34.20]

Exact Audio Copy V1.1 from 23. June 2015

EAC extraction logfile from 21. June 2016, 12:51

Deep Purple / Scandinavian Nights (Disc 2)[TECP-40779]

Used drive : HL-DT-STBD-RE BH10LS38 Adapter: 1 ID: 1

Read mode : Secure
Utilize accurate stream : Yes
Defeat audio cache : Yes
Make use of C2 pointers : No

Read offset correction : 667
Overread into Lead-In and Lead-Out : No
Fill up missing offset samples with silence : Yes
Delete leading and trailing silent blocks : No
Null samples used in CRC calculations : Yes
Used interface : Installed external ASPI interface

Used output format : User Defined Encoder
Selected bitrate : 128 kBit/s
Quality : High
Add ID3 tag : No
Command line compressor : C:\Program Files (x86)\Exact Audio Copy\wavpack-4.60.1\wavpack.exe
Additional command line options : -hm -w "Year=%year%" -w "Genre=%genre%" %source% %dest%


TOC of the extracted CD

Track | Start | Length | Start sector | End sector
––––––––––––––––––––––––––––-
1 | 0:00.00 | 28:39.62 | 0 | 128986
2 | 28:39.62 | 20:28.68 | 128987 | 221154
3 | 49:08.55 | 7:34.20 | 221155 | 255224


Range status and errors

Selected range

Filename G:\Rips by Alder\Deep Purple - Scandinavian Nights (Disc 2)[TECP-40779].wav

Peak level 97.9 %
Extraction speed 7.3 X
Range quality 99.9 %
Test CRC C26D6AF6
Copy CRC C26D6AF6
Copy OK

No errors occurred


AccurateRip summary

Track 1 accurately ripped (confidence 1) [DF055DEA] (AR v2)
Track 2 accurately ripped (confidence 1) [7DC07B33] (AR v2)
Track 3 accurately ripped (confidence 1) [1EBF6F50] (AR v2)

All tracks accurately ripped

End of status report

–– CUETools DB Plugin V2.1.6

[CTDB TOCID: PAQdHrLc0PCuvNEaXwecWDIzebY-] found
Submit result: PAQdHrLc0PCuvNEaXwecWDIzebY- has been confirmed
Track | CTDB Status
1 | (3/3) Accurately ripped
2 | (3/3) Accurately ripped
3 | (3/3) Accurately ripped


==== Log checksum 5E4E9F5985F1E400187C7D14CA91502117964BA1448808C299253D10657F0557 ====

foobar2000 1.2.6 / Dynamic Range Meter 1.1.1
log date: 2016-06-22 20:40:41

––––––––––––––––––––––––––––––––––––––––
Analyzed: Deep Purple / Scandinavian Nights (Disc 2)[TECP-40779]
––––––––––––––––––––––––––––––––––––––––

DR Peak RMS Duration Track
––––––––––––––––––––––––––––––––––––––––
DR10 -0.36 dB -12.79 dB 28:40 01-Mandrake Root
DR11 -0.98 dB -15.75 dB 20:29 02-Child In Time
DR10 -0.18 dB -12.70 dB 7:34 03-Black Night
––––––––––––––––––––––––––––––––––––––––

Number of tracks: 3
Official DR value: DR10

Samplerate: 44100 Hz
Channels: 2
Bits per sample: 16
Bitrate: 853 kbps
Codec: FLAC
================================================================================

[CUETools log; Date: 22.06.2016 20:40:42; Version: 2.1.5]
[CTDB TOCID: PAQdHrLc0PCuvNEaXwecWDIzebY-] found.
Track | CTDB Status
1 | (4/4) Accurately ripped
2 | (4/4) Accurately ripped
3 | (4/4) Accurately ripped
[AccurateRip ID: 00093cb7-001da344-1d0d4b03] found.
Track [ CRC | V2 ] Status
01 [127a3e28|df055dea] (1+1/2) Accurately ripped
02 [7fb5f800|7dc07b33] (1+1/2) Accurately ripped
03 [5bcf48eb|1ebf6f50] (1+1/2) Accurately ripped

Track Peak [ CRC32 ] [W/O NULL] [ LOG ]
– 97,9 [C26D6AF6] [387BC964] CRC32
01 95,9 [58CABE2C] [C04268D7]
02 89,3 [E6BB0623] [546E4168]
03 97,9 [62370DD1] [9AFD7995]

Personnel:

Ian Gillan - vocals, percussion
Ritchie Blackmore - guitar
Jon Lord - organ, keyboards
Roger Glover - bass
Ian Paice - drums
Deep Purple - Scandinavian Nights: Live In Stockholm 1970 (1991) {Japan 1st press}

All thanks go to Alder

"Deep Purple" in my blog!

Download: