Deep Purple - A Fire In The Sky (2017) {3CD}

Posted By: SERTiL
Deep Purple - A Fire In The Sky (2017) {3CD}

Deep Purple - A Fire In The Sky
EAC Rip | FLAC (image)+cue, log, artwork | 52:03 min | 305 MB
Label: Parlophone ‎– 0190295934583 | Tracks: 40 | Rls.date: 2017
Classic Rock, Hard Rock

The three-disc version of A FIRE IN THE SKY dives even deeper into Purple's past with 40 songs and includes at least one track from every studio album through Now What?!. It also provides the ultimate showcase for the group's various incarnations through the years. To date, more than a dozen musicians have appeared on a Deep Purple album.

Deep Purple - A Fire In The Sky (2017) {3CD}


CD1
1. Hell To Pay
2. Vincent Price
3. Wrong Man
4. Rapture Of The Deep
5. Sun Goes Down
6. Any Fule Kno That
7. Sometimes I Feel Like Screaming
8. Vavoom: Ted The Mechanic
9. The Battle Rages On
10. King Of Dreams
11. Call Of The Wild
12. Bad Attitude
13. Knocking At Your Back Door
14. Perfect Strangers

CD2
1. You Keep On Moving
2. Dealer (2010 Kevin Shirley Remix)
3. Stormbringer
4. Soldier Of Fortune
5. Mistreated
6. Might Just Take Your Life
7. Burn
8. Rat Bat Blue
9. Woman From Tokyo
10. Space Truckin'
11. Smoke On The Water
12. When A Blind Man Cries

CD3
1. Highway Star
2. Demon's Eye
3. Fireball
4. Strange Kind Of Woman
5. Child In Time
6. Speed King
7. Black Night
8. Hallelujah
9. Emmaretta
10. The Bird Has Flown
11. Wring That Neck
12. Kentucky Woman
13. Mandrake Root
14. Hush

Exact Audio Copy V1.3 from 2. September 2016

Отчёт EAC об извлечении, выполненном 8. ноября 2017, 14:37

Deep Purple / A Fire In The Sky (CD1)

Дисковод: PLEXTOR BD-R PX-LB950SA Adapter: 1 ID: 1

Режим чтения : Достоверность
Использование точного потока : Да
Отключение кэша аудио : Да
Использование указателей C2 : Нет

Коррекция смещения при чтении : 6
Способность читать области Lead-in и Lead-out : Нет
Заполнение пропущенных сэмплов тишиной : Да
Удаление блоков с тишиной в начале и конце : Нет
При вычислениях CRC использовались нулевые сэмплы : Да
Интерфейс : Встроенный Win32-интерфейс для Win NT/2000

Выходной формат : Внутренние WAV-операции
Формат сэмплов : 44.100 Гц; 16 бит; стерео


TOC извлечённого CD

Трек | Старт | Длительность | Начальный сектор | Конечный сектор
––––––––––––––––––––––––––––––––––-
1 | 0:00.00 | 5:11.68 | 0 | 23392
2 | 5:11.68 | 4:45.63 | 23393 | 44830
3 | 9:57.56 | 4:54.03 | 44831 | 66883
4 | 14:51.59 | 5:56.05 | 66884 | 93588
5 | 20:47.64 | 4:11.23 | 93589 | 112436
6 | 24:59.12 | 4:29.43 | 112437 | 132654
7 | 29:28.55 | 7:31.10 | 132655 | 166489
8 | 36:59.65 | 4:16.44 | 166490 | 185733
9 | 41:16.34 | 5:56.36 | 185734 | 212469
10 | 47:12.70 | 5:26.67 | 212470 | 236986
11 | 52:39.62 | 4:36.52 | 236987 | 257738
12 | 57:16.39 | 4:45.00 | 257739 | 279113
13 | 62:01.39 | 7:04.09 | 279114 | 310922
14 | 69:05.48 | 5:28.56 | 310923 | 335578


Характеристики диапазона извлечения и сообщения об ошибках

Выбранный диапазон

Имя файла C:\Deep Purple - A Fire In The Sky - (FLAC) - 2017\CD1\Deep Purple - A Fire In The Sky (CD1).wav

Пиковый уровень 97.0 %
Скорость извлечения 3.8 X
Качество диапазона 99.9 %
CRC теста AD5EF3ED
CRC копии AD5EF3ED
Копирование… OK

Ошибок не произошло


AccurateRip: сводка

Трек 1 отсутствует в базе данных
Трек 2 отсутствует в базе данных
Трек 3 отсутствует в базе данных
Трек 4 отсутствует в базе данных
Трек 5 отсутствует в базе данных
Трек 6 отсутствует в базе данных
Трек 7 отсутствует в базе данных
Трек 8 отсутствует в базе данных
Трек 9 отсутствует в базе данных
Трек 10 отсутствует в базе данных
Трек 11 отсутствует в базе данных
Трек 12 отсутствует в базе данных
Трек 13 отсутствует в базе данных
Трек 14 отсутствует в базе данных

Ни одного трека нет в базе AccurateRip

Конец отчёта

–– CUETools DB Plugin V2.1.6

[CTDB TOCID: z7xxnCdP2IGtjvgVeiFT0N.61y0-] found
Submit result: z7xxnCdP2IGtjvgVeiFT0N.61y0- has been confirmed
Track | CTDB Status
1 | (3/8) Accurately ripped, or (5/8) differs in 289 samples @03:07:64-03:07:73,03:08:13-03:08:15
2 | (8/8) Accurately ripped
3 | (8/8) Accurately ripped
4 | (8/8) Accurately ripped
5 | (8/8) Accurately ripped
6 | (8/8) Accurately ripped
7 | (8/8) Accurately ripped
8 | (8/8) Accurately ripped
9 | (8/8) Accurately ripped
10 | (8/8) Accurately ripped
11 | (8/8) Accurately ripped
12 | (8/8) Accurately ripped
13 | (3/8) Accurately ripped
14 | (8/8) Accurately ripped

Exact Audio Copy V1.3 from 2. September 2016

Отчёт EAC об извлечении, выполненном 8. ноября 2017, 15:22

Deep Purple / A fire In The Sky (CD2)

Дисковод: PLEXTOR BD-R PX-LB950SA Adapter: 1 ID: 1

Режим чтения : Достоверность
Использование точного потока : Да
Отключение кэша аудио : Да
Использование указателей C2 : Нет

Коррекция смещения при чтении : 6
Способность читать области Lead-in и Lead-out : Нет
Заполнение пропущенных сэмплов тишиной : Да
Удаление блоков с тишиной в начале и конце : Нет
При вычислениях CRC использовались нулевые сэмплы : Да
Интерфейс : Встроенный Win32-интерфейс для Win NT/2000

Выходной формат : Внутренние WAV-операции
Формат сэмплов : 44.100 Гц; 16 бит; стерео


TOC извлечённого CD

Трек | Старт | Длительность | Начальный сектор | Конечный сектор
––––––––––––––––––––––––––––––––––-
1 | 0:00.00 | 5:20.48 | 0 | 24047
2 | 5:20.48 | 3:56.35 | 24048 | 41782
3 | 9:17.08 | 4:07.09 | 41783 | 60316
4 | 13:24.17 | 3:15.33 | 60317 | 74974
5 | 16:39.50 | 7:28.02 | 74975 | 108576
6 | 24:07.52 | 4:39.06 | 108577 | 129507
7 | 28:46.58 | 6:01.33 | 129508 | 156615
8 | 34:48.16 | 5:26.11 | 156616 | 181076
9 | 40:14.27 | 5:50.50 | 181077 | 207376
10 | 46:05.02 | 4:34.56 | 207377 | 227982
11 | 50:39.58 | 5:41.24 | 227983 | 253581
12 | 56:21.07 | 3:31.30 | 253582 | 269436


Характеристики диапазона извлечения и сообщения об ошибках

Выбранный диапазон

Имя файла C:\Deep Purple - A Fire In The Sky - (FLAC) - 2017\CD2\Deep Purple - A fire In The Sky (CD2).wav

Пиковый уровень 99.8 %
Скорость извлечения 3.5 X
Качество диапазона 100.0 %
CRC теста CBD519E9
CRC копии CBD519E9
Копирование… OK

Ошибок не произошло


AccurateRip: сводка

Трек 1 отсутствует в базе данных
Трек 2 отсутствует в базе данных
Трек 3 отсутствует в базе данных
Трек 4 отсутствует в базе данных
Трек 5 отсутствует в базе данных
Трек 6 отсутствует в базе данных
Трек 7 отсутствует в базе данных
Трек 8 отсутствует в базе данных
Трек 9 отсутствует в базе данных
Трек 10 отсутствует в базе данных
Трек 11 отсутствует в базе данных
Трек 12 отсутствует в базе данных

Ни одного трека нет в базе AccurateRip

Конец отчёта

–– CUETools DB Plugin V2.1.6

[CTDB TOCID: QQiAj_zugGMBaTfXHqD7XAsMyfk-] found
Submit result: QQiAj_zugGMBaTfXHqD7XAsMyfk- has been confirmed
Track | CTDB Status
1 | (9/9) Accurately ripped
2 | (9/9) Accurately ripped
3 | (9/9) Accurately ripped
4 | (9/9) Accurately ripped
5 | (9/9) Accurately ripped
6 | (9/9) Accurately ripped
7 | (9/9) Accurately ripped
8 | (9/9) Accurately ripped
9 | (9/9) Accurately ripped
10 | (9/9) Accurately ripped
11 | (9/9) Accurately ripped
12 | (9/9) Accurately ripped

Exact Audio Copy V1.3 from 2. September 2016

Отчёт EAC об извлечении, выполненном 8. ноября 2017, 16:01

Deep Purple / A Fire In The Sky (CD3)

Дисковод: PLEXTOR BD-R PX-LB950SA Adapter: 1 ID: 1

Режим чтения : Достоверность
Использование точного потока : Да
Отключение кэша аудио : Да
Использование указателей C2 : Нет

Коррекция смещения при чтении : 6
Способность читать области Lead-in и Lead-out : Нет
Заполнение пропущенных сэмплов тишиной : Да
Удаление блоков с тишиной в начале и конце : Нет
При вычислениях CRC использовались нулевые сэмплы : Да
Интерфейс : Встроенный Win32-интерфейс для Win NT/2000

Выходной формат : Внутренние WAV-операции
Формат сэмплов : 44.100 Гц; 16 бит; стерео


TOC извлечённого CD

Трек | Старт | Длительность | Начальный сектор | Конечный сектор
––––––––––––––––––––––––––––––––––-
1 | 0:00.00 | 6:08.60 | 0 | 27659
2 | 6:08.60 | 5:20.46 | 27660 | 51705
3 | 11:29.31 | 3:24.16 | 51706 | 67021
4 | 14:53.47 | 3:52.34 | 67022 | 84455
5 | 18:46.06 | 10:17.35 | 84456 | 130765
6 | 29:03.41 | 4:20.48 | 130766 | 150313
7 | 33:24.14 | 3:27.10 | 150314 | 165848
8 | 36:51.24 | 3:41.63 | 165849 | 182486
9 | 40:33.12 | 3:25.67 | 182487 | 197928
10 | 43:59.04 | 3:04.31 | 197929 | 211759
11 | 47:03.35 | 5:13.14 | 211760 | 235248
12 | 52:16.49 | 4:43.56 | 235249 | 256529
13 | 57:00.30 | 5:58.13 | 256530 | 283392
14 | 62:58.43 | 4:12.03 | 283393 | 302295


Характеристики диапазона извлечения и сообщения об ошибках

Выбранный диапазон

Имя файла C:\Deep Purple - A Fire In The Sky - (FLAC) - 2017\CD3\Deep Purple - A Fire In The Sky (CD3).wav

Пиковый уровень 97.0 %
Скорость извлечения 3.8 X
Качество диапазона 100.0 %
CRC теста 4E6DEB96
CRC копии 4E6DEB96
Копирование… OK

Ошибок не произошло


AccurateRip: сводка

Трек 1 отсутствует в базе данных
Трек 2 отсутствует в базе данных
Трек 3 отсутствует в базе данных
Трек 4 отсутствует в базе данных
Трек 5 отсутствует в базе данных
Трек 6 отсутствует в базе данных
Трек 7 отсутствует в базе данных
Трек 8 отсутствует в базе данных
Трек 9 отсутствует в базе данных
Трек 10 отсутствует в базе данных
Трек 11 отсутствует в базе данных
Трек 12 отсутствует в базе данных
Трек 13 отсутствует в базе данных
Трек 14 отсутствует в базе данных

Ни одного трека нет в базе AccurateRip

Конец отчёта

–– CUETools DB Plugin V2.1.6

[CTDB TOCID: Ubh4nhBiUfRAfnTo7JFRGAMVWxE-] found
Submit result: Ubh4nhBiUfRAfnTo7JFRGAMVWxE- has been confirmed
Track | CTDB Status
1 | (8/8) Accurately ripped
2 | (8/8) Accurately ripped
3 | (8/8) Accurately ripped
4 | (3/8) Accurately ripped
5 | (8/8) Accurately ripped
6 | (8/8) Accurately ripped
7 | (8/8) Accurately ripped
8 | (3/8) Accurately ripped
9 | (8/8) Accurately ripped
10 | (3/8) Accurately ripped
11 | (3/8) Accurately ripped
12 | (3/8) Accurately ripped
13 | (3/8) Accurately ripped
14 | (8/8) Accurately ripped


Deep Purple - A Fire In The Sky (2017) {3CD}


Thanks to the Original customer.