Deep-Dive-Corp. - 4 Albums (2000-2009)

Posted By: gribovar
Deep-Dive-Corp. - 4 Albums (2000-2009)

Deep-Dive-Corp. - 4 Albums (2000-2009)
EAC Rip | FLAC (image+.cue+log) - 1,71 GB | MP3 CBR 320 kbps (LAME 3.93) - 679 MB | Covers included
Genre: Chillout, Downtempo, Ambient | RAR 3% Rec. | Label: Free Form, In-D Records

Deep-Dive-Corp. was formed in 1999 in Hamburg. The driving force and front man of the band is Peter Musebrink. To date, DDC have released 8 albums, the first 3 on Jubilee Records, and subsequent releases with their new label, In-D Records. Deep-Dive-Corp.'s music is hard to describe as it ranges between so man different styles ranging from ChillOut to ClubTunes and back and has found its way onto many compilations, such as the Lovefield Comp, Nirvana Lounge, Le Café Abstrait, N.Y. Lounge, DJ-Magazine, Luftkastellet, Hotel Costes, History of Chill, to name just a few.
The amazing feedback of their debut album "Support Your Local Groover" (2000) was no unexpected surprise. The range of Deep Dive Corp.'s music has a main connecting thread through all the tracks which fits them all together as an emotionally-experienced album.
"Freestyle Floating" (2005) sounds like the logical progression of the DeepDiveSound. With a more driving feeling and a slightly faster groove-base, Deep Dive Corp. repeats the excitement of their live shows in CD-format. A groovy, positive party-atmosphere that make for shaking hips and bobbing heads. Guest musicians like Hellmut Hattler/bass (TabTwo, Kraan) and Dennis Le Gree/voc. (Starlight Express, R. Kelly, etc.) keep the funk-level up.
"Undiscovered" (2007) is a remix CD, a new look back at DDC's work thru the spectacles of artists like Ibizarre (Hands Up), Timewarp Inc. (Blue), Havana Boys (Phony), Ohm-G (Walker), Razoof (Beloved) + Klovn (Brilliance), to name just a few. It´s a cd full of unreleased RMXs plus Deep Dive Corp.´s new track "Shine" which is included in the latest compilation "Luftkastellet 5" from Music For Dreams Records, the very innovative label from Denmark.
Influenced by DDC's adopted island Ibiza, the seventh album of the corporation ("More Bass", 2009) is a statement for easy going, but dynamic relaxation. The eclectric mix of Dubgrooves, Synthpop, Chillout and ethno beats gives this work a personal touch. Numerous callaborations (with amongst others: Michele Adamson, Ricoloop, Bahram Ji, Sissi Perlinger, Hellmut Hattler, Anne Clark) underline the versatility and variety on the album. Strictly speaking, the album's title "More Bass" describes what is valid for all DDC albums: Load of Bass!

Deep-Dive-Corp. - 4 Albums (2000-2009)

Deep-Dive-Corp. - Support Your Local Groover (2000)
EAC Rip | FLAC (image+.cue+log) - 463 MB | MP3 CBR 320 kbps (LAME 3.93) - 175 MB | Covers (4 MB) included
Genre: Chillout, Downtempo, Ambient | RAR 3% Rec. | Label: Free Form (ffr 023)

Tracklist:
01. Deep Dive
02. Summertime
03. Imagination
04. Bali Hi
05. Enjoy
06. Back & Forth
07. Dish
08. Laugh
09. Gogodancer
10. Trippin'
11. Free Audio Samples

Total time: 01:12:31

Exact Audio Copy V0.99 prebeta 4 from 23. January 2008

EAC extraction logfile from 16. April 2008, 18:38

Deep-Dive-Corp. / Support Your Local Groover

Used drive : PIONEER DVD-RW DVR-112D Adapter: 3 ID: 0

Read mode : Secure
Utilize accurate stream : Yes
Defeat audio cache : Yes
Make use of C2 pointers : No

Read offset correction : 48
Overread into Lead-In and Lead-Out : No
Fill up missing offset samples with silence : Yes
Delete leading and trailing silent blocks : No
Null samples used in CRC calculations : Yes
Used interface : Installed external ASPI interface

Used output format : User Defined Encoder
Selected bitrate : 192 kBit/s
Quality : Low
Add ID3 tag : Yes
Command line compressor : C:\Program Files\E A C Audio\Flac\flac.exe
Additional command line options : -V -8 -T "artist=%a" -T "title=%t" -T "album=%g" -T "date=%y" -T "tracknumber=%n" -T "genre=%m" %s
Use compression offset : 0


TOC of the extracted CD

Track | Start | Length | Start sector | End sector
––––––––––––––––––––––––––––-
1 | 0:00.00 | 7:49.05 | 0 | 35179
2 | 7:49.05 | 6:29.32 | 35180 | 64386
3 | 14:18.37 | 6:47.56 | 64387 | 94967
4 | 21:06.18 | 7:39.07 | 94968 | 129399
5 | 28:45.25 | 6:57.02 | 129400 | 160676
6 | 35:42.27 | 7:02.08 | 160677 | 192334
7 | 42:44.35 | 6:40.08 | 192335 | 222342
8 | 49:24.43 | 6:51.02 | 222343 | 253169
9 | 56:15.45 | 9:04.69 | 253170 | 294038
10 | 65:20.39 | 5:41.41 | 294039 | 319654
11 | 71:02.05 | 1:29.14 | 319655 | 326343


Range status and errors

Selected range

Filename G:\Lossless\Deep-Dive-Corp. - Support Your Local Groover\Deep-Dive-Corp. - Support Your Local Groover.wav

Peak level 99.9 %
Range quality 100.0 %
Test CRC 4933513D
Copy CRC 4933513D
Copy OK

No errors occurred


AccurateRip summary

Track 1 not present in database
Track 2 not present in database
Track 3 not present in database
Track 4 not present in database
Track 5 not present in database
Track 6 not present in database
Track 7 not present in database
Track 8 not present in database
Track 9 not present in database
Track 10 not present in database
Track 11 not present in database

None of the tracks are present in the AccurateRip database

End of status report

[CUETools log; Date: 02.05.2017 15:55:39; Version: 2.1.4]
Truncated 4608 extra samples in some input files.
[CTDB TOCID: QWsFM6UtuCRO4N6szzI2TGpG49M-] found.
Track | CTDB Status
1 | (10/10) Accurately ripped
2 | (10/10) Accurately ripped
3 | (10/10) Accurately ripped
4 | (10/10) Accurately ripped
5 | (10/10) Accurately ripped
6 | (10/10) Accurately ripped
7 | (10/10) Accurately ripped
8 | (10/10) Accurately ripped
9 | (10/10) Accurately ripped
10 | (10/10) Accurately ripped
11 | (10/10) Accurately ripped
[AccurateRip ID: 001fedd2-011320ce-a710ff0b] found.
Track [ CRC | V2 ] Status
01 [73a704ed|dea57ff0] (02+00/15) Accurately ripped
02 [dc7a97cd|a4962f16] (02+00/15) Accurately ripped
03 [97f20cb1|3fa0ee3b] (02+00/15) Accurately ripped
04 [1cfa5074|b3902f48] (02+00/15) Accurately ripped
05 [d1a66aec|4126b67f] (02+00/15) Accurately ripped
06 [640e3381|30931ae0] (02+00/15) Accurately ripped
07 [e572c22c|7fa6e883] (02+00/15) Accurately ripped
08 [5e00d575|240d4bb4] (02+00/15) Accurately ripped
09 [2af0b245|2906669b] (02+00/15) Accurately ripped
10 [99db5d97|7a8422ad] (02+00/14) Accurately ripped
11 [a789aa93|c24a10c5] (02+00/15) Accurately ripped
Offsetted by 164:
01 [bcdde54e] (07/15) Accurately ripped
02 [c33944b3] (07/15) Accurately ripped
03 [9c112896] (07/15) Accurately ripped
04 [1017dc3c] (07/15) Accurately ripped
05 [838f2d5b] (07/15) Accurately ripped
06 [153104f6] (07/15) Accurately ripped
07 [c3ee57b9] (07/15) Accurately ripped
08 [e2429700] (07/15) Accurately ripped
09 [57008584] (07/15) Accurately ripped
10 [cceda210] (07/14) Accurately ripped
11 [029800db] (07/15) Accurately ripped

Track Peak [ CRC32 ] [W/O NULL] [ LOG ]
– 99,9 [4933513D] [125914D5] CRC32
01 97,0 [090060E1] [9D7F109C]
02 98,0 [3A085C27] [E3797ABD]
03 98,0 [19940D25] [DC908707]
04 97,0 [87BA1773] [3FCA19EE]
05 99,3 [27EB9666] [6F36BE5B]
06 98,1 [0896E925] [9FB9B54E]
07 97,1 [90832501] [5E5AD4EF]
08 99,9 [8BEBCE3C] [93B051AA]
09 99,1 [2C7498BF] [280566B3]
10 94,4 [0A22FAF8] [4785CC8D]
11 95,2 [F01738D1] [46F8CD0F]

Deep-Dive-Corp. - 4 Albums (2000-2009)

Deep-Dive-Corp. - Freestyle Floating (2005)
EAC Rip | FLAC (image+.cue+log) - 404 MB | MP3 CBR 320 kbps (LAME 3.93) - 161 MB | Covers (5 MB) included
Genre: Chillout, Downtempo, Ambient | RAR 3% Rec. | Label: In-D Records (IND99100)

Tracklist:
01. Walker
02. Rising Sun
03. Marsimba
04. So Funky
05. Stack
06. Coastline
07. Little Ditty
08. Daydreaming
09. Spank
10. I'm In
11. The Eagle

Total time: 01:06:18

Exact Audio Copy V0.99 prebeta 4 from 23. January 2008

EAC extraction logfile from 30. April 2008, 1:00

Deep-Dive-Corp. / Freestyle Floating

Used drive : PIONEER DVD-RW DVR-112D Adapter: 3 ID: 0

Read mode : Secure
Utilize accurate stream : Yes
Defeat audio cache : Yes
Make use of C2 pointers : No

Read offset correction : 48
Overread into Lead-In and Lead-Out : No
Fill up missing offset samples with silence : Yes
Delete leading and trailing silent blocks : No
Null samples used in CRC calculations : Yes
Used interface : Installed external ASPI interface

Used output format : User Defined Encoder
Selected bitrate : 192 kBit/s
Quality : Low
Add ID3 tag : Yes
Command line compressor : C:\Program Files\E A C Audio\Flac\flac.exe
Additional command line options : -V -8 -T "artist=%a" -T "title=%t" -T "album=%g" -T "date=%y" -T "tracknumber=%n" -T "genre=%m" %s
Use compression offset : 0


TOC of the extracted CD

Track | Start | Length | Start sector | End sector
––––––––––––––––––––––––––––-
1 | 0:00.00 | 7:22.17 | 0 | 33166
2 | 7:22.17 | 6:14.14 | 33167 | 61230
3 | 13:36.31 | 7:29.61 | 61231 | 94966
4 | 21:06.17 | 4:30.71 | 94967 | 115287
5 | 25:37.13 | 5:22.07 | 115288 | 139444
6 | 30:59.20 | 5:14.64 | 139445 | 163058
7 | 36:14.09 | 7:08.24 | 163059 | 195182
8 | 43:22.33 | 5:55.63 | 195183 | 221870
9 | 49:18.21 | 7:07.20 | 221871 | 253915
10 | 56:25.41 | 5:03.04 | 253916 | 276644
11 | 61:28.45 | 4:48.60 | 276645 | 298304


Range status and errors

Selected range

Filename G:\Lossless\Deep-Dive-Corp. - Freestyle Floating\Deep-Dive-Corp. - Freestyle Floating.wav

Peak level 98.3 %
Range quality 100.0 %
Test CRC 88D585C9
Copy CRC 88D585C9
Copy OK

No errors occurred


AccurateRip summary

Track 1 not present in database
Track 2 not present in database
Track 3 not present in database
Track 4 not present in database
Track 5 not present in database
Track 6 not present in database
Track 7 not present in database
Track 8 not present in database
Track 9 not present in database
Track 10 not present in database
Track 11 not present in database

None of the tracks are present in the AccurateRip database

End of status report

[CUETools log; Date: 02.05.2017 15:56:11; Version: 2.1.4]
Truncated 4608 extra samples in some input files.
[CTDB TOCID: bCtTY6rDFSz2a9R_TLXXvz9DSUA-] found.
Track | CTDB Status
1 | (9/9) Accurately ripped
2 | (9/9) Accurately ripped
3 | (9/9) Accurately ripped
4 | (9/9) Accurately ripped
5 | (8/9) Accurately ripped
6 | (9/9) Accurately ripped
7 | (9/9) Accurately ripped
8 | (9/9) Accurately ripped
9 | (9/9) Accurately ripped
10 | (9/9) Accurately ripped
11 | (9/9) Accurately ripped
[AccurateRip ID: 001c4695-00f2af7d-a60f890b] found.
Track [ CRC | V2 ] Status
01 [65ff22d9|e77fc730] (5+2/7) Accurately ripped
02 [1b61de38|bef5296c] (5+2/7) Accurately ripped
03 [55b583b8|7bac4116] (4+2/6) Accurately ripped
04 [03d1a991|7e632cef] (5+2/7) Accurately ripped
05 [d0ec7931|d7343286] (4+2/6) Accurately ripped
06 [f06e7634|58b9295e] (5+2/7) Accurately ripped
07 [4cbb7be1|ed8aa637] (3+2/5) Accurately ripped
08 [bc688da8|86cea6c8] (3+2/5) Accurately ripped
09 [91a3585b|5e214995] (4+2/6) Accurately ripped
10 [dfb0f386|2e4b1c0f] (5+2/7) Accurately ripped
11 [12d1f9a3|b0339e13] (5+2/7) Accurately ripped

Track Peak [ CRC32 ] [W/O NULL] [ LOG ]
– 98,3 [88D585C9] [1AB2887D] CRC32
01 97,7 [B44D26DA] [0B488AF5]
02 97,7 [51BCD961] [8110952C]
03 97,7 [4D09A4A0] [9117F6D5]
04 98,3 [71F228A6] [12A519D5]
05 97,7 [BA65B66F] [1471DC7A]
06 97,7 [C80A6566] [DABF5E63]
07 97,7 [DB071D85] [CDA52745]
08 97,7 [91ED739C] [0F93CAF0]
09 97,7 [31E8700F] [60513412]
10 97,7 [73F2D6B9] [30209AAB]
11 97,7 [5C99E981] [E2A26A29]

Deep-Dive-Corp. - 4 Albums (2000-2009)

Deep-Dive-Corp. - Undiscovered (2007)
EAC Rip | FLAC (image+.cue+log) - 449 MB | MP3 CBR 320 kbps (LAME 3.93) - 171 MB | Covers (5 MB) included
Genre: Chillout, Downtempo, Ambient | RAR 3% Rec. | Label: In-D Records (IND99111)

Tracklist:
01. Rising Sun (Flipside's Shine Rmx)
02. Shine
03. Walker (Ohm-G Rmx)
04. Hands Up (Ibizarre's Sunset Rmx)
05. Beloved (Razoof Rmx)
06. Peter Gunn (Deep Dive Corp. Rmx)
07. Jiyou (Gerit Van Der Meer (Orbient) Rmx)
08. Blue (Timewarp Inc. Rmx)
09. Stack (Karl Moestl Rmx2)
10. Phony (Havana Boys Go Divin' Rmx)
11. Brilliance (Klovn's Deeper Diving Dub)

Total time: 01:10:20

Exact Audio Copy V0.99 prebeta 4 from 23. January 2008

EAC extraction logfile from 29. April 2008, 11:17

Deep Dive Corp. / Undicovered

Used drive : PIONEER DVD-RW DVR-112D Adapter: 3 ID: 0

Read mode : Secure
Utilize accurate stream : Yes
Defeat audio cache : Yes
Make use of C2 pointers : No

Read offset correction : 48
Overread into Lead-In and Lead-Out : No
Fill up missing offset samples with silence : Yes
Delete leading and trailing silent blocks : No
Null samples used in CRC calculations : Yes
Used interface : Installed external ASPI interface

Used output format : User Defined Encoder
Selected bitrate : 192 kBit/s
Quality : Low
Add ID3 tag : Yes
Command line compressor : C:\Program Files\E A C Audio\Flac\flac.exe
Additional command line options : -V -8 -T "artist=%a" -T "title=%t" -T "album=%g" -T "date=%y" -T "tracknumber=%n" -T "genre=%m" %s
Use compression offset : 0


TOC of the extracted CD

Track | Start | Length | Start sector | End sector
––––––––––––––––––––––––––––-
1 | 0:00.00 | 8:05.67 | 0 | 36441
2 | 8:05.67 | 7:27.47 | 36442 | 70013
3 | 15:33.39 | 7:13.48 | 70014 | 102536
4 | 22:47.12 | 5:40.16 | 102537 | 128052
5 | 28:27.28 | 5:53.03 | 128053 | 154530
6 | 34:20.31 | 5:53.01 | 154531 | 181006
7 | 40:13.32 | 5:31.14 | 181007 | 205845
8 | 45:44.46 | 6:43.05 | 205846 | 236075
9 | 52:27.51 | 5:56.31 | 236076 | 262806
10 | 58:24.07 | 7:16.21 | 262807 | 295527
11 | 65:40.28 | 4:39.62 | 295528 | 316514


Range status and errors

Selected range

Filename G:\Lossless\Deep Dive Corp. - Undicovered\Deep Dive Corp. - Undicovered.wav

Peak level 100.0 %
Range quality 99.9 %
Test CRC B7AFBD44
Copy CRC B7AFBD44
Copy OK

No errors occurred


AccurateRip summary

Track 1 not present in database
Track 2 not present in database
Track 3 not present in database
Track 4 not present in database
Track 5 not present in database
Track 6 not present in database
Track 7 not present in database
Track 8 not present in database
Track 9 not present in database
Track 10 not present in database
Track 11 not present in database

None of the tracks are present in the AccurateRip database

End of status report

[CUETools log; Date: 02.05.2017 15:56:51; Version: 2.1.4]
Truncated 4608 extra samples in some input files.
[CTDB TOCID: lgvJ70CThjlLYkvFGu2VwWv4Fjw-] found.
Track | CTDB Status
1 | (5/5) Accurately ripped
2 | (5/5) Accurately ripped
3 | (5/5) Accurately ripped
4 | (5/5) Accurately ripped
5 | (5/5) Accurately ripped
6 | (5/5) Accurately ripped
7 | (5/5) Accurately ripped
8 | (5/5) Accurately ripped
9 | (5/5) Accurately ripped
10 | (5/5) Accurately ripped
11 | (5/5) Accurately ripped
[AccurateRip ID: 001e5aec-010308d5-a4107c0b] found.
Track [ CRC | V2 ] Status
01 [69409315|3c7daddf] (0+4/4) Accurately ripped
02 [8aa322f7|76ce1f00] (0+4/4) Accurately ripped
03 [2bcf05a9|df89b07d] (0+4/4) Accurately ripped
04 [9ecc57eb|6e2415fc] (0+4/4) Accurately ripped
05 [6714ca64|37022a75] (0+4/4) Accurately ripped
06 [deb85b8c|a37d6208] (0+4/4) Accurately ripped
07 [7caa0aa2|72881c3f] (0+4/4) Accurately ripped
08 [fa707c9e|e89ca1bd] (0+4/4) Accurately ripped
09 [a2c1067c|b31985da] (0+4/4) Accurately ripped
10 [e151c53b|500de65f] (0+4/4) Accurately ripped
11 [57beab6b|b2ad1420] (0+4/4) Accurately ripped

Track Peak [ CRC32 ] [W/O NULL] [ LOG ]
– 100,0 [B7AFBD44] [21799E43] CRC32
01 99,3 [13BEC30E] [39046359]
02 99,3 [AA89F5EA] [523572DB]
03 99,5 [D3F948FB] [8B611194]
04 99,2 [EE275E51] [E6DEC1FA]
05 100,0 [7D241F2E] [3BD22B60]
06 99,6 [676A0E4E] [8D071708]
07 99,3 [87EEA0DA] [45EBAC49]
08 100,0 [3EEA9E8B] [7638E865]
09 95,0 [2F98B5B9] [F5E3F08D]
10 98,8 [8EFD3D02] [EFDACE62]
11 98,7 [F9286025] [38355CB8]

Deep-Dive-Corp. - 4 Albums (2000-2009)

Deep-Dive-Corp. - More Bass (2009)
EAC Rip | FLAC (image+.cue+log) - 394 MB | MP3 CBR 320 kbps (LAME 3.93) - 172 MB | Covers (10 MB) included
Genre: Chillout, Downtempo, Ambient | RAR 3% Rec. | Label: In-D Records (IND99114)

Tracklist:
01. B Jam (feat. Hellmut Hattler)
02. Pirates (feat. Michelle Adamson)
03. Missing & Kissing
04. The Touch (feat. Hellmut Hattler)
05. Enjoy The Silence (feat. Ricoloop)
06. Fragile (feat. Bahram Ji & Boris)
07. Shine (Faster Version)
08. Paradisi (feat. Maria, Sofia, Sinni & Sissi Perlinger)
09. Geeva (feat. Hellmut Hattler)
10. Unreal (feat. Michelle Adamson)
11. Away
12. Anne Clark - Off Grid (Deep Dive Corp Rmx, Bonus track)

Total time: 01:08:35

Exact Audio Copy V0.99 prebeta 4 from 23. January 2008

EAC extraction logfile from 30. June 2009, 10:37

Deep Dive Corp. / More Bass

Used drive : PIONEER DVD-RW DVR-112D Adapter: 1 ID: 0

Read mode : Secure
Utilize accurate stream : Yes
Defeat audio cache : Yes
Make use of C2 pointers : No

Read offset correction : 48
Overread into Lead-In and Lead-Out : No
Fill up missing offset samples with silence : Yes
Delete leading and trailing silent blocks : No
Null samples used in CRC calculations : Yes
Used interface : Installed external ASPI interface

Used output format : User Defined Encoder
Selected bitrate : 192 kBit/s
Quality : Low
Add ID3 tag : Yes
Command line compressor : C:\Program Files\E A C Audio\Flac\flac.exe
Additional command line options : -V -8 -T "artist=%a" -T "title=%t" -T "album=%g" -T "date=%y" -T "tracknumber=%n" -T "genre=%m" %s


TOC of the extracted CD

Track | Start | Length | Start sector | End sector
––––––––––––––––––––––––––––-
1 | 0:00.00 | 5:46.01 | 0 | 25950
2 | 5:46.01 | 6:58.07 | 25951 | 57307
3 | 12:44.08 | 5:57.20 | 57308 | 84102
4 | 18:41.28 | 6:32.44 | 84103 | 113546
5 | 25:13.72 | 4:04.32 | 113547 | 131878
6 | 29:18.29 | 6:41.13 | 131879 | 161966
7 | 35:59.42 | 6:45.25 | 161967 | 192366
8 | 42:44.67 | 4:31.73 | 192367 | 212764
9 | 47:16.65 | 5:30.31 | 212765 | 237545
10 | 52:47.21 | 4:11.56 | 237546 | 256426
11 | 56:59.02 | 8:25.30 | 256427 | 294331
12 | 65:24.32 | 3:10.11 | 294332 | 308592


Range status and errors

Selected range

Filename G:\Deep Dive Corp - More Bass\Deep Dive Corp. - More Bass\Deep Dive Corp. - More Bass.wav

Peak level 98.1 %
Range quality 99.9 %
Test CRC 8FC2F2C7
Copy CRC 8FC2F2C7
Copy OK

No errors occurred


AccurateRip summary

Track 1 not present in database
Track 2 not present in database
Track 3 not present in database
Track 4 not present in database
Track 5 not present in database
Track 6 not present in database
Track 7 not present in database
Track 8 not present in database
Track 9 not present in database
Track 10 not present in database
Track 11 not present in database
Track 12 not present in database

None of the tracks are present in the AccurateRip database

End of status report

[CUETools log; Date: 02.05.2017 15:57:27; Version: 2.1.4]
[CTDB TOCID: ZPgelfHfkPz6NiSnqwjiLqtBIS4-] found.
Track | CTDB Status
1 | (8/8) Accurately ripped
2 | (8/8) Accurately ripped
3 | (8/8) Accurately ripped
4 | (8/8) Accurately ripped
5 | (8/8) Accurately ripped
6 | (8/8) Accurately ripped
7 | (8/8) Accurately ripped
8 | (8/8) Accurately ripped
9 | (8/8) Accurately ripped
10 | (8/8) Accurately ripped
11 | (8/8) Accurately ripped
12 | (8/8) Accurately ripped
[AccurateRip ID: 001fb071-0125ae60-a810120c] found.
Track [ CRC | V2 ] Status
01 [2a848c72|1cf1f41c] (0+3/3) Accurately ripped
02 [309b91c4|7dd3d156] (0+3/3) Accurately ripped
03 [c59e6986|3f8c2c79] (0+3/3) Accurately ripped
04 [b6578240|42dcfe8e] (0+3/3) Accurately ripped
05 [063b0f88|7f8f0d0e] (0+3/3) Accurately ripped
06 [30633c04|affc84c8] (0+3/3) Accurately ripped
07 [d671d289|450b8c28] (0+3/3) Accurately ripped
08 [c58effcc|bb98c6b1] (0+3/3) Accurately ripped
09 [60fbe651|8bfe3172] (0+3/3) Accurately ripped
10 [6988e818|ebb36fa5] (0+3/3) Accurately ripped
11 [dee94ddd|3aaa2b86] (0+3/3) Accurately ripped
12 [85404e50|3bab025c] (0+3/3) Accurately ripped

Track Peak [ CRC32 ] [W/O NULL] [ LOG ]
– 98,1 [8FC2F2C7] [B9D22A0F] CRC32
01 96,6 [328BBE27] [2758716D]
02 98,1 [978B1A8C] [784E01ED]
03 96,6 [B7B1566A] [34FD9E0C]
04 96,6 [B718CBED] [13B40A41]
05 92,8 [52BCED2B] [A849ABE6]
06 96,6 [7C170398] [B67790F2]
07 96,6 [AC7F7E70] [07760312]
08 96,6 [805C3107] [9A020C8A]
09 96,6 [2C44FCC0] [B0E17C87]
10 96,6 [89F2D081] [EEBBBD0C]
11 96,6 [43A4D56E] [B7B87372]
12 96,6 [6F176D26] [846F4B00]

Thanks to sklon