Subcategories

Def Leppard - Pyromania (2008) [5xSHM-CD, Promo Box] Repost

Posted By: v3122
Def Leppard - Pyromania (2008) [5xSHM-CD, Promo Box] Repost

Def Leppard - Pyromania (2008)
EAC | Flac(Image) + Cue + Log & MP3 CBR 320Kbps
Universal/Vertigo UICY-93450~54 | ~ 1761 or 765 Mb | Artwork(jpg) -> 245 Mb
Hard Rock

Def Leppard are an English rock band formed in 1977 in Sheffield as part of the new wave of British heavy metal movement. Since 1992, the band has consisted of Joe Elliott (lead vocals), Rick Savage (bass, backing vocals), Rick Allen (drums, backing vocals), Phil Collen (guitars, backing vocals), and Vivian Campbell (guitars, backing vocals). This is the band's longest lasting line-up.

The band's strongest commercial success came between the early 1980s and the early 1990s. Their 1981 album, High 'n' Dry, was produced by Robert John "Mutt" Lange, who helped them begin to define their style, and the album's standout track "Bringin' On the Heartbreak" became one of the first rock videos played on MTV in 1982. The band's next studio album, Pyromania, was released in January 1983, with "Photograph" and "Rock of Ages" as the lead singles. In the U.S., Pyromania was certified diamond (10× platinum), making Def Leppard among the most popular music groups at the time. In 2003, the album ranked number 384 on Rolling Stone's 500 Greatest Albums of All Time.

Def Leppard's fourth album Hysteria, released in 1987, topped the UK and U.S. album charts. As of 2009, it has reached beyond the success of Pyromania, having been certified 12× platinum for sales of over 12 million in the U.S. and has gone on to sell over 25 million copies worldwide. The album spawned seven hit singles, including the U.S. Billboard Hot 100 number one "Love Bites", alongside "Pour Some Sugar on Me", "Hysteria", "Armageddon It", "Animal", "Rocket", and "Women". Their next studio album, Adrenalize (the first following the death of guitarist Steve Clark), reached number one in UK and U.S. charts in 1992, and contained several hits, including "Let's Get Rocked" and "Have You Ever Needed Someone So Bad". Their 1993 album, Retro Active, contained the acoustic hit song "Two Steps Behind". Their greatest-hits album Vault, released in 1995, featured the UK hit "When Love & Hate Collide".

As one of the world's best-selling music artists, Def Leppard have sold more than 100 million records worldwide, and have two albums with RIAA diamond certification, Pyromania and Hysteria. They are one of only five rock bands with two original studio albums selling over 10 million copies in the U.S. The band were ranked No. 31 in VH1's "100 Greatest Artists of Hard Rock" and ranked No. 70 in "100 Greatest Artists of All Time"…

~ wiki
Def Leppard - Pyromania (2008):

Def Leppard - Pyromania (2008) [5xSHM-CD, Promo Box] Repost

Tracklist CD1 - On Through The Night 1980:

1. Rock Brigade - 3:10
2. Hello America - 3:28
3. Sorrow Is A Woman - 3:55
4. It Could Be You - 2:34
5. Satellite - 4:28
6. When The Walls Came Tumbling Down - 4:45
7. Wasted - 3:45
8. Rocks Off - 3:44
9. It Don't Matter - 3:21
10. Answer To The Master - 3:13
11. Overture - 7:46

EAC extraction logfile from 9. May 2008, 19:55 for CD
Def Leppard / On Through The Night {Japan UICY-93450}

Used drive : ASUS DRW-2014L1 Adapter: 0 ID: 3
Read mode : Secure with NO C2, accurate stream, disable cache
Read offset correction : 6
Overread into Lead-In and Lead-Out : No

Used output format : C:\Program Files\FLAC\flac.exe (User Defined Encoder)
320 kBit/s
Additional command line options : -V -8 -T "artist=%a" -T "title=%t" -T "album=%g" -T "date=%y" -T "tracknumber=%n" -T "genre=%m" %s

Other options :
Fill up missing offset samples with silence : Yes
Delete leading and trailing silent blocks : No
Installed external ASPI interface


Track 1
Filename D:\EAC FLAC FILES\01 - Rock Brigade.wav

Pre-gap length 0:00:02.00

Peak level 100.0 %
Track quality 100.0 %
Test CRC 6E52E57C
Copy CRC 6E52E57C
Copy OK

Track 2
Filename D:\EAC FLAC FILES\02 - Hello America.wav

Peak level 99.9 %
Track quality 100.0 %
Test CRC 60E55A44
Copy CRC 60E55A44
Copy OK

Track 3
Filename D:\EAC FLAC FILES\03 - Sorrow Is A Woman.wav

Pre-gap length 0:03:28.04

Peak level 100.0 %
Track quality 100.0 %
Test CRC 2ACE6116
Copy CRC 2ACE6116
Copy OK

Track 4
Filename D:\EAC FLAC FILES\04 - It Could Be You.wav

Pre-gap length 0:07:23.26

Peak level 96.4 %
Track quality 100.0 %
Test CRC 343D6B51
Copy CRC 343D6B51
Copy OK

Track 5
Filename D:\EAC FLAC FILES\05 - Satellite.wav

Pre-gap length 0:09:56.84

Peak level 100.0 %
Track quality 100.0 %
Test CRC 4E7DCA1F
Copy CRC 4E7DCA1F
Copy OK

Track 6
Filename D:\EAC FLAC FILES\06 - When The Walls Came Tumbling Down.wav

Pre-gap length 0:14:25.00

Peak level 100.0 %
Track quality 100.0 %
Test CRC E0795BC1
Copy CRC E0795BC1
Copy OK

Track 7
Filename D:\EAC FLAC FILES\07 - Wasted.wav

Pre-gap length 0:19:10.10

Peak level 100.0 %
Track quality 100.0 %
Test CRC 709B253B
Copy CRC 709B253B
Copy OK

Track 8
Filename D:\EAC FLAC FILES\08 - Rocks Off.wav

Pre-gap length 0:22:55.40

Peak level 100.0 %
Track quality 100.0 %
Test CRC 02491F6B
Copy CRC 02491F6B
Copy OK

Track 9
Filename D:\EAC FLAC FILES\09 - It Don't Matter.wav

Pre-gap length 0:26:39.60

Peak level 94.9 %
Track quality 100.0 %
Test CRC E3399CAA
Copy CRC E3399CAA
Copy OK

Track 10
Filename D:\EAC FLAC FILES\10 - Answer To The Master.wav

Pre-gap length 0:30:01.04

Peak level 94.8 %
Track quality 100.0 %
Test CRC A8C745E0
Copy CRC A8C745E0
Copy OK

Track 11
Filename D:\EAC FLAC FILES\11 - Overture.wav

Pre-gap length 0:33:14.17

Peak level 95.0 %
Track quality 100.0 %
Test CRC FACD97DF
Copy CRC FACD97DF
Copy OK

No errors occured


End of status report


[CUETools log; Date: 30.11.2018 12:36:49; Version: 2.1.4]
[AccurateRip ID: 0010afd4-009299bf-a60a590b] found.
Track [ CRC | V2 ] Status
01 [dfaac5db|301a4992] (06+14/30) Accurately ripped
02 [59a0d528|979cd26a] (06+14/30) Accurately ripped
03 [97689478|192c0281] (06+14/30) Accurately ripped
04 [cde40baf|429c9cb5] (06+14/30) Accurately ripped
05 [3fc970de|543ce8f1] (06+14/30) Accurately ripped
06 [e3d33313|30e3929a] (06+14/30) Accurately ripped
07 [bc96d6c2|1b42503e] (06+14/30) Accurately ripped
08 [ebfcf203|4312e681] (06+14/30) Accurately ripped
09 [3bafd402|711ea90c] (06+14/30) Accurately ripped
10 [9c689b47|1d117021] (06+14/30) Accurately ripped
11 [27d6d42b|ef7dfcad] (06+14/30) Accurately ripped
Offsetted by -1143:
01 [9cfea348] (00/30) No match (V2 was not tested)
02 [71482c5b] (00/30) No match (V2 was not tested)
03 [e7741b5c] (00/30) No match (V2 was not tested)
04 [b5c44635] (00/30) No match (V2 was not tested)
05 [c7a811c5] (00/30) No match (V2 was not tested)
06 [8bc352fa] (00/30) No match (V2 was not tested)
07 [6712d477] (00/30) No match (V2 was not tested)
08 [63788ad6] (00/30) No match (V2 was not tested)
09 [456a962b] (00/30) No match (V2 was not tested)
10 [4a5b147c] (00/30) No match (V2 was not tested)
11 [d81b2c04] (00/30) No match (V2 was not tested)
Offsetted by 6:
01 [2b5f60ab] (00/30) No match (V2 was not tested)
02 [d3880078] (00/30) No match (V2 was not tested)
03 [cf6de510] (00/30) No match (V2 was not tested)
04 [dd78b4b3] (00/30) No match (V2 was not tested)
05 [c77d43a1] (00/30) No match (V2 was not tested)
06 [887b9379] (00/30) No match (V2 was not tested)
07 [27fa8712] (00/30) No match (V2 was not tested)
08 [c3dd1e32] (00/30) No match (V2 was not tested)
09 [5f934aaf] (00/30) No match (V2 was not tested)
10 [1d3b3457] (00/30) No match (V2 was not tested)
11 [3a3cca5c] (00/30) No match (V2 was not tested)

Track Peak [ CRC32 ] [W/O NULL]
– 100,0 [123B7F08] [C429FE65]
01 100,0 [6E52E57C] [3988BDA1]
02 99,9 [60E55A44] [0A2F72DF]
03 100,0 [2ACE6116] [E1D8D7E7]
04 96,4 [343D6B51] [364C469D]
05 100,0 [4E7DCA1F] [5598319E]
06 100,0 [E0795BC1] [6958DBE0]
07 100,0 [709B253B] [7846F045]
08 100,0 [02491F6B] [39EFACBD]
09 94,9 [E3399CAA] [BC81F953]
10 94,8 [A8C745E0] [4B8ABB2A]
11 95,0 [FACD97DF] [93EEFA1C]


Def Leppard - Pyromania (2008) [5xSHM-CD, Promo Box] Repost

Tracklist CD2 - High 'n' Dry 1981:

1. Let It Go - 4:44
2. Another Hit And Run - 4:59
3. High 'n' Dry (Saturday Night) - 3:27
4. Bringin' On The Heartbreak - 4:34
5. Switch 625 - 3:03
6. You Got Me Runnin' - 4:23
7. Lady Strange - 4:39
8. On Through The Night - 5:06
9. Mirror Mirror (Look Into My Eyes) - 4:08
10. No No No - 3:13
11. Bringin' On The Heartbreak [remix] - 4:34
12. Me And My Wine [remix] - 3:41

EAC extraction logfile from 10. May 2008, 13:46 for CD
Def Leppard / High 'n' Dry {Japan UICY-93451}

Used drive : ASUS DRW-2014L1 Adapter: 0 ID: 3
Read mode : Secure with NO C2, accurate stream, disable cache
Read offset correction : 6
Overread into Lead-In and Lead-Out : No

Used output format : C:\Program Files\FLAC\flac.exe (User Defined Encoder)
320 kBit/s
Additional command line options : -V -8 -T "artist=%a" -T "title=%t" -T "album=%g" -T "date=%y" -T "tracknumber=%n" -T "genre=%m" %s

Other options :
Fill up missing offset samples with silence : Yes
Delete leading and trailing silent blocks : No
Installed external ASPI interface


Track 1
Filename D:\EAC FLAC FILES\01 - Let It Go.wav

Pre-gap length 0:00:02.00

Peak level 96.7 %
Track quality 100.0 %
Test CRC 7F237F49
Copy CRC 7F237F49
Copy OK

Track 2
Filename D:\EAC FLAC FILES\02 - Another Hit And Run.wav

Peak level 86.0 %
Track quality 100.0 %
Test CRC 8A50EDBB
Copy CRC 8A50EDBB
Copy OK

Track 3
Filename D:\EAC FLAC FILES\03 - High 'n' Dry (Saturday Night).wav

Peak level 92.1 %
Track quality 100.0 %
Test CRC C9AEEB80
Copy CRC C9AEEB80
Copy OK

Track 4
Filename D:\EAC FLAC FILES\04 - Bringin' On The Heartbreak.wav

Peak level 100.0 %
Track quality 100.0 %
Test CRC 3918AB4D
Copy CRC 3918AB4D
Copy OK

Track 5
Filename D:\EAC FLAC FILES\05 - Switch.wav

Peak level 98.5 %
Track quality 100.0 %
Test CRC 16A61AC6
Copy CRC 16A61AC6
Copy OK

Track 6
Filename D:\EAC FLAC FILES\06 - You Got Me Runnin'.wav

Peak level 100.0 %
Track quality 100.0 %
Test CRC 529325B9
Copy CRC 529325B9
Copy OK

Track 7
Filename D:\EAC FLAC FILES\07 - Lady Strange.wav

Peak level 100.0 %
Track quality 100.0 %
Test CRC 5E9D6311
Copy CRC 5E9D6311
Copy OK

Track 8
Filename D:\EAC FLAC FILES\08 - On Through The Night.wav

Peak level 100.0 %
Track quality 100.0 %
Test CRC E9BC0B48
Copy CRC E9BC0B48
Copy OK

Track 9
Filename D:\EAC FLAC FILES\09 - Mirror, Mirror (Look Into My Eyes).wav

Peak level 100.0 %
Track quality 100.0 %
Test CRC 5EFAD416
Copy CRC 5EFAD416
Copy OK

Track 10
Filename D:\EAC FLAC FILES\10 - No No No.wav

Peak level 100.0 %
Track quality 99.9 %
Test CRC 58D4D909
Copy CRC 58D4D909
Copy OK

Track 11
Filename D:\EAC FLAC FILES\11 - Bringin' On The Hearbreak (Remix).wav

Peak level 100.0 %
Track quality 100.0 %
Test CRC 051CDC38
Copy CRC 051CDC38
Copy OK

Track 12
Filename D:\EAC FLAC FILES\12 - Me & My Wine (Remix).wav

Peak level 99.9 %
Track quality 100.0 %
Test CRC 5CF47A56
Copy CRC 5CF47A56
Copy OK

No errors occured


End of status report


[CUETools log; Date: 30.11.2018 12:28:45; Version: 2.1.4]
[AccurateRip ID: 0016f8da-00d55098-a90bd60c] found.
Track [ CRC | V2 ] Status
01 [9308ae81|9bb97d5d] (04+13/29) Accurately ripped
02 [3753072e|3abba415] (04+13/29) Accurately ripped
03 [fd328daf|b89fe9b1] (04+13/29) Accurately ripped
04 [95c6683e|ee9dcd35] (04+13/29) Accurately ripped
05 [5361beb3|8323af8e] (04+13/29) Accurately ripped
06 [3c4b9af1|71194bfc] (04+13/27) Accurately ripped
07 [f531d402|35860ede] (04+13/29) Accurately ripped
08 [03f8ef80|6ac3dc90] (04+13/27) Accurately ripped
09 [4a9a868a|9eaf6c9e] (04+13/28) Accurately ripped
10 [8778cab6|a4ae706c] (04+13/28) Accurately ripped
11 [38719d77|2836a217] (04+13/28) Accurately ripped
12 [d77c01b1|905b5e5f] (04+13/28) Accurately ripped
Offsetted by -378:
01 [17277ff9] (00/29) No match (V2 was not tested)
02 [ec02035f] (00/29) No match (V2 was not tested)
03 [56871df6] (00/29) No match (V2 was not tested)
04 [3535ff8f] (00/29) No match (V2 was not tested)
05 [d8f9ff77] (00/29) No match (V2 was not tested)
06 [a3421461] (00/27) No match (V2 was not tested)
07 [16cf9f57] (00/29) No match (V2 was not tested)
08 [b132dd76] (00/27) No match (V2 was not tested)
09 [b561a24d] (00/28) No match (V2 was not tested)
10 [24a2bce3] (00/28) No match (V2 was not tested)
11 [deee2d63] (00/28) No match (V2 was not tested)
12 [9ae9441f] (00/28) No match (V2 was not tested)
Offsetted by -360:
01 [7692231f] (00/29) No match (V2 was not tested)
02 [f03ad829] (00/29) No match (V2 was not tested)
03 [50f6bb68] (00/29) No match (V2 was not tested)
04 [d84118c4] (00/29) No match (V2 was not tested)
05 [c8926ec7] (00/29) No match (V2 was not tested)
06 [7f1d8c36] (00/27) No match (V2 was not tested)
07 [302a57b2] (00/29) No match (V2 was not tested)
08 [1493176d] (00/27) No match (V2 was not tested)
09 [743318fd] (00/28) No match (V2 was not tested)
10 [e714f4a6] (00/28) No match (V2 was not tested)
11 [e01b2409] (00/28) No match (V2 was not tested)
12 [92f11796] (00/28) No match (V2 was not tested)

Track Peak [ CRC32 ] [W/O NULL] [ LOG ]
– 100,0 [5CF5AC42] [75B3FA53]
01 96,7 [7F237F49] [AF160ECA] CRC32
02 86,0 [8A50EDBB] [A1749CCB] CRC32
03 92,1 [C9AEEB80] [E4735D6F] CRC32
04 100,0 [3918AB4D] [AB6BC34A] CRC32
05 98,5 [16A61AC6] [E486FA50] CRC32
06 100,0 [529325B9] [3D146A14] CRC32
07 100,0 [5E9D6311] [B6DC241B] CRC32
08 100,0 [E9BC0B48] [8E5D25C5] CRC32
09 100,0 [5EFAD416] [C761388D] CRC32
10 100,0 [58D4D909] [FEE80838] CRC32
11 100,0 [051CDC38] [2846AE9B] CRC32
12 99,9 [5CF47A56] [92B96FB7] CRC32


Def Leppard - Pyromania (2008) [5xSHM-CD, Promo Box] Repost

Tracklist CD3 - Pyromania 1983:

1. Rock Rock (Till You Drop) - 3:55
2. Photograph - 4:17
3. Stagefright - 3:36
4. Too Late For Love - 4:27
5. Die Hard The Hunter - 6:16
6. Foolin' - 4:34
7. Rock Of Ages - 4:08
8. Comin' Under Fire - 4:14
9. Action Not Words - 3:49
10. Billy's Got A Gun - 5:57

EAC extraction logfile from 10. May 2008, 14:57 for CD
Def Leppard / Pyromania {Japan UICY-93452}

Used drive : ASUS DRW-2014L1 Adapter: 0 ID: 3
Read mode : Secure with NO C2, accurate stream, disable cache
Read offset correction : 6
Overread into Lead-In and Lead-Out : No

Used output format : C:\Program Files\FLAC\flac.exe (User Defined Encoder)
320 kBit/s
Additional command line options : -V -8 -T "artist=%a" -T "title=%t" -T "album=%g" -T "date=%y" -T "tracknumber=%n" -T "genre=%m" %s

Other options :
Fill up missing offset samples with silence : Yes
Delete leading and trailing silent blocks : No
Installed external ASPI interface

Track 1
Filename D:\EAC FLAC FILES\01 - Rock Rock (Till You Drop).wav

Pre-gap length 0:00:02.00

Peak level 97.8 %
Track quality 100.0 %
Test CRC 25A89E57
Copy CRC 25A89E57
Copy OK

Track 2
Filename D:\EAC FLAC FILES\02 - Photograph.wav

Peak level 95.5 %
Track quality 100.0 %
Test CRC CCC91736
Copy CRC CCC91736
Copy OK

Track 3
Filename D:\EAC FLAC FILES\03 - Stagefright.wav

Pre-gap length 0:04:16.53

Peak level 88.0 %
Track quality 100.0 %
Test CRC 3C063CD0
Copy CRC 3C063CD0
Copy OK

Track 4
Filename D:\EAC FLAC FILES\04 - Too Late For Love.wav

Pre-gap length 0:07:52.80

Peak level 98.7 %
Track quality 100.0 %
Test CRC 2DFA34FF
Copy CRC 2DFA34FF
Copy OK

Track 5
Filename D:\EAC FLAC FILES\05 - Die Hard The Hunter.wav

Pre-gap length 0:12:19.66

Peak level 97.7 %
Track quality 100.0 %
Test CRC 127BA76E
Copy CRC 127BA76E
Copy OK

Track 6
Filename D:\EAC FLAC FILES\06 - Foolin'.wav

Pre-gap length 0:18:35.66

Peak level 98.1 %
Track quality 100.0 %
Test CRC 56A23617
Copy CRC 56A23617
Copy OK

Track 7
Filename D:\EAC FLAC FILES\07 - Rock Of Ages.wav

Pre-gap length 0:23:09.53

Peak level 95.7 %
Track quality 100.0 %
Test CRC 7CAC68DA
Copy CRC 7CAC68DA
Copy OK

Track 8
Filename D:\EAC FLAC FILES\08 - Comin' Under Fire.wav

Pre-gap length 0:27:17.44

Peak level 95.7 %
Track quality 100.0 %
Test CRC 38A9A913
Copy CRC 38A9A913
Copy OK

Track 9
Filename D:\EAC FLAC FILES\09 - Action! Not Words.wav

Pre-gap length 0:31:31.86

Peak level 82.5 %
Track quality 100.0 %
Test CRC 6C585CBE
Copy CRC 6C585CBE
Copy OK

Track 10
Filename D:\EAC FLAC FILES\10 - Billy's Got A Gun.wav

Pre-gap length 0:35:20.73

Peak level 87.2 %
Track quality 100.0 %
Test CRC 1D4E2D24
Copy CRC 1D4E2D24
Copy OK

No errors occured

End of status report

[CUETools log; Date: 30.11.2018 12:39:47; Version: 2.1.4]
[AccurateRip ID: 000dd967-0066275b-7309ad09] disk not present in database.

Track Peak [ CRC32 ] [W/O NULL]
– 98,7 [9BA9BF1A] [BCDB7CD6]
01 95,5 [CCC91736] [17AD2C04]
02 88,0 [3C063CD0] [70301609]
03 98,7 [2DFA34FF] [6DF015EA]
04 97,7 [127BA76E] [945490E6]
05 98,1 [56A23617] [D64C0EE9]
06 95,7 [7CAC68DA] [B42182F2]
07 95,7 [38A9A913] [2D40F7EA]
08 82,5 [6C585CBE] [462890BF]
09 87,2 [1D4E2D24] [D096E503]


Def Leppard - Pyromania (2008) [5xSHM-CD, Promo Box] Repost

Tracklist CD4 - Hysteria 1987:

1. Women - 5:43
2. Rocket - 6:38
3. Animal - 4:05
4. Love Bites - 5:47
5. Pour Some Sugar On Me - 4:27
6. Armageddon It - 5:34
7. Gods Of War - 6:37
8. Don't Shoot Shotgun - 4:27
9. Run Riot - 4:39
10. Hysteria - 5:55
11. Excitable - 4:19
12. Love And Affection - 4:35
13. Love And Affection [live] - 4:53

EAC extraction logfile from 10. May 2008, 15:54 for CD
Def Leppard / Hysteria {Japan UICY-93453}

Used drive : ASUS DRW-2014L1 Adapter: 0 ID: 3
Read mode : Secure with NO C2, accurate stream, disable cache
Read offset correction : 6
Overread into Lead-In and Lead-Out : No

Used output format : C:\Program Files\FLAC\flac.exe (User Defined Encoder)
320 kBit/s
Additional command line options : -V -8 -T "artist=%a" -T "title=%t" -T "album=%g" -T "date=%y" -T "tracknumber=%n" -T "genre=%m" %s

Other options :
Fill up missing offset samples with silence : Yes
Delete leading and trailing silent blocks : No
Installed external ASPI interface


Track 1
Filename D:\EAC FLAC FILES\01 - Women.wav

Pre-gap length 0:00:02.00

Peak level 96.6 %
Track quality 100.0 %
Test CRC 3913CF7E
Copy CRC 3913CF7E
Copy OK

Track 2
Filename D:\EAC FLAC FILES\02 - Rocket.wav

Peak level 96.7 %
Track quality 100.0 %
Test CRC C7565443
Copy CRC C7565443
Copy OK

Track 3
Filename D:\EAC FLAC FILES\03 - Animal.wav

Peak level 96.6 %
Track quality 100.0 %
Test CRC 493240D0
Copy CRC 493240D0
Copy OK

Track 4
Filename D:\EAC FLAC FILES\04 - Love Bites.wav

Peak level 85.4 %
Track quality 100.0 %
Test CRC 8BF2786E
Copy CRC 8BF2786E
Copy OK

Track 5
Filename D:\EAC FLAC FILES\05 - Pour Some Sugar On Me.wav

Peak level 96.9 %
Track quality 100.0 %
Test CRC EA6C1A14
Copy CRC EA6C1A14
Copy OK

Track 6
Filename D:\EAC FLAC FILES\06 - Armageddon It.wav

Peak level 95.7 %
Track quality 100.0 %
Test CRC 81779B02
Copy CRC 81779B02
Copy OK

Track 7
Filename D:\EAC FLAC FILES\07 - Gods of War.wav

Peak level 96.6 %
Track quality 100.0 %
Test CRC 6DFDEEED
Copy CRC 6DFDEEED
Copy OK

Track 8
Filename D:\EAC FLAC FILES\08 - Don't Shoot Shotgun.wav

Peak level 96.5 %
Track quality 100.0 %
Test CRC 5F018C16
Copy CRC 5F018C16
Copy OK

Track 9
Filename D:\EAC FLAC FILES\09 - Run Riot.wav

Peak level 95.0 %
Track quality 100.0 %
Test CRC 0356D768
Copy CRC 0356D768
Copy OK

Track 10
Filename D:\EAC FLAC FILES\10 - Hysteria.wav

Peak level 96.7 %
Track quality 100.0 %
Test CRC 6A66991A
Copy CRC 6A66991A
Copy OK

Track 11
Filename D:\EAC FLAC FILES\11 - Excitable.wav

Peak level 94.3 %
Track quality 100.0 %
Test CRC 80544B05
Copy CRC 80544B05
Copy OK

Track 12
Filename D:\EAC FLAC FILES\12 - Love and Affection.wav

Peak level 91.5 %
Track quality 100.0 %
Test CRC 30832F3B
Copy CRC 30832F3B
Copy OK

Track 13
Filename D:\EAC FLAC FILES\13 - Love and Affection (Live).wav

Peak level 88.6 %
Track quality 100.0 %
Test CRC 8E68BEA8
Copy CRC 8E68BEA8
Copy OK

No errors occured


End of status report


[CUETools log; Date: 30.11.2018 12:31:49; Version: 2.1.4]
[AccurateRip ID: 00216b2c-014b9a42-be0fd00d] found.
Track [ CRC | V2 ] Status
01 [4d8cd831|b35fed43] (04+24/35) Accurately ripped
02 [5dc5a81a|6770f5f2] (04+24/35) Accurately ripped
03 [d00d1cbc|7cd0f254] (04+24/35) Accurately ripped
04 [562e9268|0e1401c7] (04+24/35) Accurately ripped
05 [675d4dbe|39d8e297] (04+24/35) Accurately ripped
06 [021e5c2e|b289782b] (04+24/35) Accurately ripped
07 [a82abdd2|11e9ed51] (04+24/35) Accurately ripped
08 [f61c84e3|a43fc4d6] (04+24/33) Accurately ripped
09 [1f57ee31|f8524caa] (04+24/35) Accurately ripped
10 [4dca3434|66cfa444] (04+24/35) Accurately ripped
11 [ccd93905|5c70db7d] (04+24/35) Accurately ripped
12 [a72e9a6b|68933595] (04+24/35) Accurately ripped
13 [034941e4|f910dda7] (04+23/32) Accurately ripped
Offsetted by -78:
01 [6938a380] (00/35) No match (V2 was not tested)
02 [193151a7] (00/35) No match (V2 was not tested)
03 [88d1d1cf] (00/35) No match (V2 was not tested)
04 [6aff8f16] (00/35) No match (V2 was not tested)
05 [2ec079d5] (00/35) No match (V2 was not tested)
06 [43fb1cd3] (00/35) No match (V2 was not tested)
07 [581604e3] (00/35) No match (V2 was not tested)
08 [06f8342a] (00/33) No match (V2 was not tested)
09 [99cf0524] (00/35) No match (V2 was not tested)
10 [e79f8027] (00/35) No match (V2 was not tested)
11 [2fff0af3] (00/35) No match (V2 was not tested)
12 [6f9accb6] (00/35) No match (V2 was not tested)
13 [fde0f2e8] (00/32) No match (V2 was not tested)
Offsetted by -18:
01 [a7617f1e] (02/35) Accurately ripped
02 [dc22814e] (02/35) Accurately ripped
03 [8ce6d128] (02/35) Accurately ripped
04 [cf0fa6dc] (02/35) Accurately ripped
05 [5b123c48] (02/35) Accurately ripped
06 [50944870] (02/35) Accurately ripped
07 [95c71b27] (02/35) Accurately ripped
08 [5325becb] (00/33) No match (V2 was not tested)
09 [4b53164a] (02/35) Accurately ripped
10 [f7fc9059] (02/35) Accurately ripped
11 [42e5ca8c] (02/35) Accurately ripped
12 [0d5cf528] (02/35) Accurately ripped
13 [ee589220] (00/32) No match (V2 was not tested)
Offsetted by -17:
01 [2b145cd2] (00/35) No match (V2 was not tested)
02 [1d727845] (00/35) No match (V2 was not tested)
03 [93d235f3] (00/35) No match (V2 was not tested)
04 [73bac9f1] (00/35) No match (V2 was not tested)
05 [5c3b4a70] (00/35) No match (V2 was not tested)
06 [d6519d2c] (00/35) No match (V2 was not tested)
07 [95b89110] (00/35) No match (V2 was not tested)
08 [346a4c8f] (00/33) No match (V2 was not tested)
09 [776a7da4] (00/35) No match (V2 was not tested)
10 [ba5008ef] (00/35) No match (V2 was not tested)
11 [7777dd55] (00/35) No match (V2 was not tested)
12 [401e6f7b] (00/35) No match (V2 was not tested)
13 [61497f72] (00/32) No match
Offsetted by 6:
01 [f48547e0] (00/35) No match (V2 was not tested)
02 [a657726e] (00/35) No match (V2 was not tested)
03 [58f4abde] (00/35) No match (V2 was not tested)
04 [9d06a46f] (00/35) No match (V2 was not tested)
05 [5e2a767f] (00/35) No match (V2 was not tested)
06 [bc928fa8] (00/35) No match (V2 was not tested)
07 [e9fbcbc7] (00/35) No match (V2 was not tested)
08 [afa792ca] (00/33) No match (V2 was not tested)
09 [fbef1233] (00/35) No match (V2 was not tested)
10 [3985b6ee] (00/35) No match (V2 was not tested)
11 [c0f016dc] (00/35) No match (V2 was not tested)
12 [dd5f7fbd] (00/35) No match (V2 was not tested)
13 [b4eed1d0] (00/32) No match (V2 was not tested)
Offsetted by 35:
01 [aae2e3a8] (00/35) No match (V2 was not tested)
02 [ae1a5624] (00/35) No match (V2 was not tested)
03 [3dcf4cb9] (00/35) No match (V2 was not tested)
04 [0bc9795f] (00/35) No match (V2 was not tested)
05 [3aca02f7] (00/35) No match (V2 was not tested)
06 [b5336fe1] (00/35) No match (V2 was not tested)
07 [0801a45d] (00/35) No match (V2 was not tested)
08 [9bc10dcd] (00/33) No match (V2 was not tested)
09 [0b99f1de] (00/35) No match (V2 was not tested)
10 [61fc5349] (00/35) No match (V2 was not tested)
11 [e3eb52de] (00/35) No match (V2 was not tested)
12 [abcd7812] (00/35) No match (V2 was not tested)
13 [ba39b41a] (00/32) No match (V2 was not tested)

Track Peak [ CRC32 ] [W/O NULL] [ LOG ]
– 96,9 [8F3A8CE0] [F639207B]
01 96,6 [3913CF7E] [FE35DABE] CRC32
02 96,7 [C7565443] [47516F15] CRC32
03 96,6 [493240D0] [C959BA5F] CRC32
04 85,4 [8BF2786E] [AF1BD57F] CRC32
05 96,9 [EA6C1A14] [218C8498] CRC32
06 95,7 [81779B02] [E78BF20E] CRC32
07 96,6 [6DFDEEED] [C3B20802] CRC32
08 96,5 [5F018C16] [5CEE1CF9] CRC32
09 95,0 [0356D768] [10AA9BF6] CRC32
10 96,7 [6A66991A] [CDFDA02E] CRC32
11 94,3 [80544B05] [DCCB1A9B] CRC32
12 91,5 [30832F3B] [3F850C2A] CRC32
13 88,6 [8E68BEA8] [53913FDC] CRC32


Def Leppard - Pyromania (2008) [5xSHM-CD, Promo Box] Repost

Tracklist CD5 - Adrenalize 1992:

1. Let's Get Rocked - 4:57
2. Heaven Is - 3:34
3. Make Love Like a Man - 4:16
4. Tonight - 4:03
5. White Lightning - 7:03
6. Stand up (Kick Love into Motion) - 4:33
7. Personal Property - 4:21
8. Have You Ever Needed Someone So Bad - 5:24
9. I Wanna Touch U - 3:38
10. Tear It Down - 3:38
11. Miss You In A Heartbeat - 5:06
12. She's Too Tough - 3:44

EAC extraction logfile from 10. May 2008, 17:13 for CD
Def Leppard / Adrenalize {Japan UICY-93454}

Used drive : ASUS DRW-2014L1 Adapter: 0 ID: 3
Read mode : Secure with NO C2, accurate stream, disable cache
Read offset correction : 6
Overread into Lead-In and Lead-Out : No

Used output format : C:\Program Files\FLAC\flac.exe (User Defined Encoder)
320 kBit/s
Additional command line options : -V -8 -T "artist=%a" -T "title=%t" -T "album=%g" -T "date=%y" -T "tracknumber=%n" -T "genre=%m" %s

Other options :
Fill up missing offset samples with silence : Yes
Delete leading and trailing silent blocks : No
Installed external ASPI interface


Track 1
Filename D:\EAC FLAC FILES\01 - Let's Get Rocked.wav

Pre-gap length 0:00:02.00

Peak level 97.3 %
Track quality 100.0 %
Test CRC 0E2E4230
Copy CRC 0E2E4230
Copy OK

Track 2
Filename D:\EAC FLAC FILES\02 - Heaven Is.wav

Peak level 97.3 %
Track quality 99.9 %
Test CRC 52AC95AD
Copy CRC 52AC95AD
Copy OK

Track 3
Filename D:\EAC FLAC FILES\03 - Make Love Like A Man.wav

Peak level 97.3 %
Track quality 100.0 %
Test CRC BD3D38A6
Copy CRC BD3D38A6
Copy OK

Track 4
Filename D:\EAC FLAC FILES\04 - Tonight.wav

Peak level 97.3 %
Track quality 100.0 %
Test CRC 2E00DAA9
Copy CRC 2E00DAA9
Copy OK

Track 5
Filename D:\EAC FLAC FILES\05 - White Lightning.wav

Peak level 97.3 %
Track quality 99.9 %
Test CRC 985D262F
Copy CRC 985D262F
Copy OK

Track 6
Filename D:\EAC FLAC FILES\06 - Stand Up (Kick Love Into Motion).wav

Peak level 97.3 %
Track quality 100.0 %
Test CRC E88A4D45
Copy CRC E88A4D45
Copy OK

Track 7
Filename D:\EAC FLAC FILES\07 - Personal Property.wav

Peak level 97.3 %
Track quality 100.0 %
Test CRC 31C90B59
Copy CRC 31C90B59
Copy OK

Track 8
Filename D:\EAC FLAC FILES\08 - Have You Ever Needed Someone So Bad.wav

Peak level 97.3 %
Track quality 100.0 %
Test CRC 68A522AA
Copy CRC 68A522AA
Copy OK

Track 9
Filename D:\EAC FLAC FILES\09 - I Wanna Touch U.wav

Peak level 97.3 %
Track quality 100.0 %
Test CRC 36CB5E19
Copy CRC 36CB5E19
Copy OK

Track 10
Filename D:\EAC FLAC FILES\10 - Tear It Down.wav

Peak level 100.0 %
Track quality 100.0 %
Test CRC 618CF714
Copy CRC 618CF714
Copy OK

Track 11
Filename D:\EAC FLAC FILES\11 - Miss You In A Heartbeat.wav

Peak level 97.3 %
Track quality 99.9 %
Test CRC 7910B97D
Copy CRC 7910B97D
Copy OK

Track 12
Filename D:\EAC FLAC FILES\12 - She's Too Tough.wav

Peak level 97.3 %
Track quality 100.0 %
Test CRC 6B933435
Copy CRC 6B933435
Copy OK

No errors occured


End of status report


[CUETools log; Date: 30.11.2018 12:25:14; Version: 2.1.4]
[AccurateRip ID: 00189b02-00e5e9c8-9a0cb80c] found.
Track [ CRC | V2 ] Status
01 [133e21a6|ebaa4b32] (04+08/40) Accurately ripped
02 [330697ac|ea287ee5] (05+08/42) Accurately ripped
03 [a7c631c0|60f46aa7] (05+08/43) Accurately ripped
04 [5cee24c7|7060a50d] (05+07/42) Accurately ripped
05 [49df4566|6b409f1a] (05+08/43) Accurately ripped
06 [29ed8194|542ec697] (05+08/42) Accurately ripped
07 [97303cff|2342cd5a] (04+08/42) Accurately ripped
08 [2be29467|0b17cfb0] (04+08/40) Accurately ripped
09 [1a4a8c79|792d1f29] (04+08/42) Accurately ripped
10 [9c41e1ed|3273b202] (04+08/42) Accurately ripped
11 [c5e457f6|14d28802] (04+08/41) Accurately ripped
12 [23026d8d|f42fd142] (05+08/42) Accurately ripped
Offsetted by -643:
01 [ef195119] (05/40) Accurately ripped
02 [09b11291] (05/42) Accurately ripped
03 [43ae2b20] (05/43) Accurately ripped
04 [12310de1] (05/42) Accurately ripped
05 [f5b9b866] (05/43) Accurately ripped
06 [63382411] (05/42) Accurately ripped
07 [a0bfb060] (05/42) Accurately ripped
08 [a78148cf] (05/40) Accurately ripped
09 [9723802b] (05/42) Accurately ripped
10 [dc793bd0] (05/42) Accurately ripped
11 [22d0d8a1] (05/41) Accurately ripped
12 [2d5b6f0b] (05/42) Accurately ripped
Offsetted by -30:
01 [b205558d] (02/40) Accurately ripped
02 [47d7da6e] (02/42) Accurately ripped
03 [0fe39c36] (02/43) Accurately ripped
04 [c6e9550f] (02/42) Accurately ripped
05 [bd655c30] (02/43) Accurately ripped
06 [b22ece90] (02/42) Accurately ripped
07 [e5ff2979] (02/42) Accurately ripped
08 [454d25f6] (02/40) Accurately ripped
09 [0169d93b] (02/42) Accurately ripped
10 [1c9330f9] (02/42) Accurately ripped
11 [70b86705] (02/41) Accurately ripped
12 [6a81531c] (02/42) Accurately ripped
Offsetted by -715:
01 [96475cd5] (00/40) No match (V2 was not tested)
02 [55de910c] (00/42) No match (V2 was not tested)
03 [f340a52b] (00/43) No match (V2 was not tested)
04 [911579b2] (00/42) No match (V2 was not tested)
05 [a3ed6f32] (00/43) No match (V2 was not tested)
06 [301cb0e3] (00/42) No match (V2 was not tested)
07 [9cd70101] (00/42) No match (V2 was not tested)
08 [ac79ab9b] (00/40) No match (V2 was not tested)
09 [254e57c3] (00/42) No match (V2 was not tested)
10 [6d042003] (00/42) No match (V2 was not tested)
11 [b565be36] (00/41) No match (V2 was not tested)
12 [ad9610a6] (00/42) No match (V2 was not tested)
Offsetted by -193:
01 [ee80fade] (00/40) No match (V2 was not tested)
02 [11ddca71] (00/42) No match (V2 was not tested)
03 [ba0a0ecb] (00/43) No match (V2 was not tested)
04 [12063a2e] (00/42) No match (V2 was not tested)
05 [54af55fc] (00/43) No match (V2 was not tested)
06 [90cd7546] (00/42) No match (V2 was not tested)
07 [621c2278] (00/42) No match (V2 was not tested)
08 [fcc3ebee] (00/40) No match (V2 was not tested)
09 [ccac6c02] (00/42) No match (V2 was not tested)
10 [f0a4b75a] (00/42) No match (V2 was not tested)
11 [f0226cb3] (00/41) No match (V2 was not tested)
12 [dd73b72f] (00/42) No match (V2 was not tested)
Offsetted by -14:
01 [5053f33c] (00/40) No match (V2 was not tested)
02 [70bcf6f0] (00/42) No match (V2 was not tested)
03 [16f2a792] (00/43) No match (V2 was not tested)
04 [76e336d7] (00/42) No match (V2 was not tested)
05 [111a13e3] (00/43) No match (V2 was not tested)
06 [dcf73b74] (00/42) No match (V2 was not tested)
07 [5d95a916] (00/42) No match (V2 was not tested)
08 [9739de35] (00/40) No match (V2 was not tested)
09 [4539f6d6] (00/42) No match (V2 was not tested)
10 [01c97089] (00/42) No match (V2 was not tested)
11 [e7be2b8c] (00/41) No match (V2 was not tested)
12 [96950892] (00/42) No match (V2 was not tested)
Offsetted by 6:
01 [38483f40] (00/40) No match (V2 was not tested)
02 [4e282bff] (00/42) No match (V2 was not tested)
03 [30cb3f4e] (00/43) No match (V2 was not tested)
04 [fb6b70c6] (00/42) No match (V2 was not tested)
05 [de5f3295] (00/43) No match (V2 was not tested)
06 [950d8c36] (00/42) No match (V2 was not tested)
07 [f934fe15] (00/42) No match (V2 was not tested)
08 [d6770daa] (00/40) No match (V2 was not tested)
09 [d166d8ce] (00/42) No match (V2 was not tested)
10 [8edaa6d2] (00/42) No match (V2 was not tested)
11 [e5e6230d] (00/41) No match (V2 was not tested)
12 [18127666] (00/42) No match (V2 was not tested)

Track Peak [ CRC32 ] [W/O NULL] [ LOG ]
– 100,0 [68DB1D83] [2E814257]
01 97,3 [0E2E4230] [A318EE4B] CRC32
02 97,3 [52AC95AD] [5A57CAC1] CRC32
03 97,3 [BD3D38A6] [31A988B1] CRC32
04 97,3 [2E00DAA9] [877A7160] CRC32
05 97,3 [985D262F] [F209ED28] CRC32
06 97,3 [E88A4D45] [CBF89AE8] CRC32
07 97,3 [31C90B59] [E26FFADA] CRC32
08 97,3 [68A522AA] [D320906A] CRC32
09 97,3 [36CB5E19] [2D656BD8] CRC32
10 100,0 [618CF714] [49D2D2C4] CRC32
11 97,3 [7910B97D] [1FDFDEBB] CRC32
12 97,3 [6B933435] [4EA8E309] CRC32


All thanks go to the original releaser

Def Leppard or Def Leppard in my Blog

Download Def Leppard - Pyromania (2008):