Subcategories

Defecto - Nemesis (2017) [Japanese Ed. 2018]

Posted By: Andi_Deris
Defecto - Nemesis (2017) [Japanese Ed. 2018]

Defecto - Nemesis (2017) [Japanese Ed. 2018]
EAC Rip | FLAC: Image+Cue+Log | MP3 CBR 320 kbps | Scans
539 Mb | 172 Mb | 58 Mb | Time: 01:14:25
Marquee Inc./Avalon | MICP-11405
Progressive Metal

Defecto are a Danish metal band and this is their second album. For NEMESIS, DEFECTO’s musical mission was to create songs that have an instant impact on the listener, with a focus on songwriting thatbreaks down musical barriers instead of trying to fit into a certain sound. Defecto play a hybrid modern metal style with symphonic components. The music combines power and symphonic metal with harder elements of modern metal and thrash; think a mix of the European and American styles. The end result is huge songs and big ambitions, and overall it works more than it doesn't.

Defecto - Nemesis (2017) [Japanese Ed. 2018]




Track Listing

01. Final Night Of Silence (01:52)
02. Nemesis (03:28)
03. Endlessly Falling (05:01)
04. Savage (03:25)
05. The Nameless Apparition (05:25)
06. The Sacrificed (03:44)
07. Ode To The Damned (07:16)
08. Gravity (04:00)
09. Ablaze (05:56)
10. Before The Veil (04:13)
11. We're All The Enemy (04:02)
12. Ascend To Heaven (07:35)
13. All I Ever Wanted (Bonus Track) (03:48)
14. Revelations (Bonus Track) (03:46)
15. Excluded (Live At Royal Arena 2017) (Bonus Track for Japan) (05:22)
16. Endlessly Falling (Live At Royal Arena 2017) (Bonus Track for Japan) (05:31)

The Band

• Nicklas Sonne - Vocals, Guitars
• Frederik Duus Møller - Guitars
• Thomas Bartholin - Bass
• Henrik Been - Drums, Keyboards

Exact Audio Copy V1.3 from 2. September 2016

EAC extraction logfile from 7. March 2018, 15:57

Defecto / Nemesis (Japan 2018)

Used drive : ATAPI iHAS122 W Adapter: 2 ID: 0

Read mode : Secure
Utilize accurate stream : Yes
Defeat audio cache : Yes
Make use of C2 pointers : No

Read offset correction : 48
Overread into Lead-In and Lead-Out : No
Fill up missing offset samples with silence : Yes
Delete leading and trailing silent blocks : No
Null samples used in CRC calculations : Yes
Used interface : Installed external ASPI interface

Used output format : User Defined Encoder
Selected bitrate : 1024 kBit/s
Quality : High
Add ID3 tag : No
Command line compressor : C:\Program Files\FLAC\flac.exe
Additional command line options : -V -8 -T "Date=%year%" -T "Genre=%genre%" -T"COMMENT=Ripped by Ilijan" -8 -V %source%


TOC of the extracted CD

Track | Start | Length | Start sector | End sector
––––––––––––––––––––––––––––-
1 | 0:00.00 | 1:52.09 | 0 | 8408
2 | 1:52.09 | 3:27.54 | 8409 | 23987
3 | 5:19.63 | 5:01.00 | 23988 | 46562
4 | 10:20.63 | 3:25.04 | 46563 | 61941
5 | 13:45.67 | 5:24.62 | 61942 | 86303
6 | 19:10.54 | 3:44.17 | 86304 | 103120
7 | 22:54.71 | 7:16.24 | 103121 | 135844
8 | 30:11.20 | 3:59.36 | 135845 | 153805
9 | 34:10.56 | 5:56.27 | 153806 | 180532
10 | 40:07.08 | 4:12.59 | 180533 | 199491
11 | 44:19.67 | 4:02.22 | 199492 | 217663
12 | 48:22.14 | 7:35.07 | 217664 | 251795
13 | 55:57.21 | 3:47.69 | 251796 | 268889
14 | 59:45.15 | 3:46.04 | 268890 | 285843
15 | 63:31.19 | 5:21.67 | 285844 | 309985
16 | 68:53.11 | 5:30.39 | 309986 | 334774


Range status and errors

Selected range

Filename D:\Defecto - Nemesis (Japan 2018).wav

Peak level 100.0 %
Extraction speed 4.6 X
Range quality 100.0 %
Test CRC E647B91A
Copy CRC E647B91A
Copy OK

No errors occurred


AccurateRip summary

Track 1 not present in database
Track 2 not present in database
Track 3 not present in database
Track 4 not present in database
Track 5 not present in database
Track 6 not present in database
Track 7 not present in database
Track 8 not present in database
Track 9 not present in database
Track 10 not present in database
Track 11 not present in database
Track 12 not present in database
Track 13 not present in database
Track 14 not present in database
Track 15 not present in database
Track 16 not present in database

None of the tracks are present in the AccurateRip database

End of status report

–– CUETools DB Plugin V2.1.6

[CTDB TOCID: 7ILvp4zhPC.PREnsqs5eaSci_oI-] found
Submit result: 7ILvp4zhPC.PREnsqs5eaSci_oI- has been confirmed
Track | CTDB Status
1 | (1/1) Accurately ripped
2 | (1/1) Accurately ripped
3 | (1/1) Accurately ripped
4 | (1/1) Accurately ripped
5 | (1/1) Accurately ripped
6 | (1/1) Accurately ripped
7 | (1/1) Accurately ripped
8 | (1/1) Accurately ripped
9 | (1/1) Accurately ripped
10 | (1/1) Accurately ripped
11 | (1/1) Accurately ripped
12 | (1/1) Accurately ripped
13 | (1/1) Accurately ripped
14 | (1/1) Accurately ripped
15 | (1/1) Accurately ripped
16 | (1/1) Accurately ripped


==== Log checksum 2EE90B156CAAC124089AA055447D6655B8F76B14DE7F1FC64484827C26C0A7E0 ====


Many thanks to the original uploader: Ilijan



Password: pass