Subcategories

Del Shannon - Rock On! (1991)

Posted By: popsakov
Del Shannon - Rock On! (1991)

Del Shannon - Rock On! (1991)
EAC Rip | FLAC (Img) + Cue + Log ~ 258 Mb | MP3 CBR320 ~ 88 Mb
Scans (JPG, 300 dpi) ~ 21 Mb | RAR 5% Recovery
Rock, Rock & Roll | Silvertone Records #ZD74929

Rock On! is the 12th studio album by American rock singer Del Shannon, released posthumously in 1991. Shannon returned to the studio after a long hiatus in 1990, collaborating with Jeff Lynne of the Electric Light Orchestra, Mike Campbell, Tom Petty, other members of Tom Petty and the Heartbreakers, and Richard Greene. Shannon committed suicide on February 8, 1990, and the album was completed for release on October 1, 1991.
~ Wiki


Del Shannon's final album, 1991's Rock On!, is a fitting testament to a great artist who never lost what it was that made him great. The album is passionate, dramatic, emotional, and full of great songs. Most of all it has that amazing voice, and yes, Shannon's majestic voice is as strong as ever here. Check out his growling vocals on "Walk Away," his soaring croon on "I Go to Pieces," or his aching falsetto on "Callin' Out My Name." This is a singer who was still in his prime, maybe not as nimble as he was when he began recording nearly 30 years earlier but he made up for it with more gravity and vulnerability. His songwriting was still strong too. Tunes like "Who Left Who" and "Lost in a Memory" are rooted in the past but not merely recreations of glory days long gone. Country rocker "Let's Dance" even points Shannon toward Dwight Yoakam territory with startlingly good results. The only problem with the record is the somewhat overly scrubbed and processed production by Jeff Lynne and Heartbreaker Mike Campbell that leaves the record sounding exactly like every other record Lynne produced around that time, like Tom Petty's Into the Great Wide Open or the Traveling Wilburys' first. Shannon's voice keeps the record from sounding too sterile; however, he never sounds anything less than 100 percent committed and involved. This isn't some hack playing out the string; this is an important American artist who never really got his due spilling his guts yet again. Word was that Shannon was going to take Roy Orbison's spot in the Wilburys. It is a tragedy that he didn't give himself the chance to be rediscovered like Roy was. He certainly still had it and had it in spades. Anyone who doubts it only needs to listen to any song on this record. Heck, check out "Let's Dance," a bopping country tune that could have been a hit on the country charts. In fact, if you ever dug Shannon at all, you should do yourself a favor and find a copy of Rock On!. You won't regret it; chances are, you'll enjoy it.
~ Tim Sendra, All Music

***************

Del Shannon - Rock On! (1991)

Track List:

01. Walk Away [3:39]
02. Who Left Who [3:22]
03. Are You Lovin' Me Too [3:16]
04. Callin' Out My Name [3:47]
05. I Go To Pieces [4:01]
06. Lost In A Memory [3:38]
07. I Got You (The Birds' Song) [3:43]
08. What Kind Of Fool Do You Think I Am? [3:11]
09. When I Had You [4:19]
10. Let's Dance [3:31]

Personnel:

Del Shannon - vocals, guitar
Jeff Lynne - guitar, keyboards, bass, backing vocals
Mike Campbell - guitar, keyboards, bass, backing vocals
Tom Petty - guitar, backing vocals
Benmont Tench - accordion, organ, piano
Howie Epstein - backing vocals
Phil Jones - drums, backing vocals
Richard Greene - fiddle
Phil Hatton - backing vocals
Randy Jones - backing vocals
Andrew Williams - backing vocals
David Williams - backing vocals
David Campbell - string arrangement

Exact Audio Copy V1.0 beta 3 from 29. August 2011

EAC extraction logfile from 28. August 2016, 13:16

Shannon, Del / Rock On!

Used drive : MATSHITABD-CMB UJ242AS Adapter: 0 ID: 1

Read mode : Secure
Utilize accurate stream : Yes
Defeat audio cache : Yes
Make use of C2 pointers : No

Read offset correction : 103
Overread into Lead-In and Lead-Out : No
Fill up missing offset samples with silence : Yes
Delete leading and trailing silent blocks : No
Null samples used in CRC calculations : Yes
Used interface : Installed external ASPI interface

Used output format : User Defined Encoder
Selected bitrate : 1024 kBit/s
Quality : High
Add ID3 tag : Yes
Command line compressor : C:\Program Files (x86)\Exact Audio Copy\Flac\flac.exe
Additional command line options : -V -8 -T "Date=%year%" -T "Genre=%genre%" %source%


TOC of the extracted CD

Track | Start | Length | Start sector | End sector
––––––––––––––––––––––––––––-
1 | 0:00.00 | 3:39.02 | 0 | 16426
2 | 3:39.02 | 3:22.05 | 16427 | 31581
3 | 7:01.07 | 3:16.05 | 31582 | 46286
4 | 10:17.12 | 3:46.45 | 46287 | 63281
5 | 14:03.57 | 4:01.00 | 63282 | 81356
6 | 18:04.57 | 3:37.50 | 81357 | 97681
7 | 21:42.32 | 3:43.25 | 97682 | 114431
8 | 25:25.57 | 3:11.23 | 114432 | 128779
9 | 28:37.05 | 4:18.67 | 128780 | 148196
10 | 32:55.72 | 3:31.30 | 148197 | 164051


Range status and errors

Selected range

Filename C:\EACrip\Del Shannon - Rock On!.wav

Peak level 100.0 %
Extraction speed 3.7 X
Range quality 100.0 %
Test CRC 1A651CA1
Copy CRC 1A651CA1
Copy OK

No errors occurred


AccurateRip summary

Track 1 accurately ripped (confidence 9) [70826983] (AR v2)
Track 2 accurately ripped (confidence 9) [3B3919DD] (AR v2)
Track 3 accurately ripped (confidence 9) [74177387] (AR v2)
Track 4 accurately ripped (confidence 9) [29C880D2] (AR v2)
Track 5 accurately ripped (confidence 9) [64674B47] (AR v2)
Track 6 accurately ripped (confidence 9) [A992D4A9] (AR v2)
Track 7 accurately ripped (confidence 9) [9046BAB4] (AR v2)
Track 8 accurately ripped (confidence 9) [9072F2DD] (AR v2)
Track 9 accurately ripped (confidence 9) [3E8E510F] (AR v2)
Track 10 accurately ripped (confidence 9) [2CD7E2D1] (AR v2)

All tracks accurately ripped

End of status report

==== Log checksum C94673BF37A85F4D7119EF334CA03AB501E2B4DE43D0A278705A4523C019FF46 ====

foobar2000 1.2.6 / Dynamic Range Meter 1.1.1
log date: 2016-09-01 20:54:17

––––––––––––––––––––––––––––––––––––––––
Analyzed: Shannon, Del / Rock On!
––––––––––––––––––––––––––––––––––––––––

DR Peak RMS Duration Track
––––––––––––––––––––––––––––––––––––––––
DR11 -0.20 dB -12.57 dB 3:39 01-Walk Away
DR10 0.00 dB -11.12 dB 3:22 02-Who Left Who
DR11 0.00 dB -11.83 dB 3:16 03-Are You Lovin' Me Too
DR13 -0.16 dB -14.22 dB 3:47 04-Callin' Out My Name
DR12 -0.52 dB -13.91 dB 4:01 05-I Go To Pieces
DR11 -0.05 dB -13.80 dB 3:38 06-Lost In A Memory
DR11 0.00 dB -12.70 dB 3:43 07-I Got You (The Birds' Song)
DR12 0.00 dB -13.44 dB 3:11 08-What Kind Of Fool Do You Think I Am?
DR12 0.00 dB -13.81 dB 4:19 09-When I Had You
DR10 -0.63 dB -12.06 dB 3:31 10-Let's Dance
––––––––––––––––––––––––––––––––––––––––

Number of tracks: 10
Official DR value: DR11

Samplerate: 44100 Hz
Channels: 2
Bits per sample: 16
Bitrate: 943 kbps
Codec: FLAC
================================================================================

[CUETools log; Date: 01.09.2016 20:54:16; Version: 2.1.5]
[CTDB TOCID: F4eHbtVy7j5lCCVmjqf9QUYMl2w-] found.
Track | CTDB Status
1 | (11/14) Accurately ripped
2 | (11/14) Accurately ripped
3 | (11/14) Accurately ripped
4 | (11/14) Accurately ripped
5 | (11/14) Accurately ripped
6 | (11/14) Accurately ripped
7 | (11/14) Accurately ripped
8 | (11/14) Accurately ripped
9 | (11/14) Accurately ripped
10 | (11/14) Accurately ripped
[AccurateRip ID: 000d9cae-006d48ed-81088b0a] found.
Track [ CRC | V2 ] Status
01 [bf89a874|70826983] (06+09/21) Accurately ripped
02 [3ab20184|3b3919dd] (05+09/20) Accurately ripped
03 [0994ddd3|74177387] (05+09/20) Accurately ripped
04 [ba348b0c|29c880d2] (04+09/19) Accurately ripped
05 [ff921cc3|64674b47] (04+09/19) Accurately ripped
06 [9f0f9c64|a992d4a9] (05+09/20) Accurately ripped
07 [f8410aa5|9046bab4] (05+09/20) Accurately ripped
08 [1ead276b|9072f2dd] (05+09/20) Accurately ripped
09 [47d932af|3e8e510f] (04+09/19) Accurately ripped
10 [63234236|2cd7e2d1] (05+09/20) Accurately ripped

Track Peak [ CRC32 ] [W/O NULL] [ LOG ]
– 100,0 [1A651CA1] [79376065] CRC32
01 97,7 [C22DA8B9] [B22F7C75]
02 100,0 [139E71CF] [7C327CA6]
03 100,0 [CB6BEBBF] [6F9E54E8]
04 98,1 [7F073AE8] [FA8F5E06]
05 94,2 [01208008] [2EF23B5F]
06 99,3 [49410F87] [80686164]
07 100,0 [7733495E] [C8D18D66]
08 100,0 [2A126AE9] [5E3A652E]
09 100,0 [63C0183B] [DDD698ED]
10 93,0 [CB5E38B9] [A469C8D4]

Del Shannon - Rock On! (1991)

Del Shannon - Rock On! (1991)

All thanks go to HaRD

> Visit my blog <

Download: