Del Shannon - Sings Hank Williams & 1661 Seconds (1965 & 1965)

Posted By: uff
Del Shannon - Sings Hank Williams & 1661 Seconds (1965 & 1965)

Del Shannon - Sings Hank Williams & 1661 Seconds (1965 & 1965)
Rock | 2lp on cd | EAC Rip | Flac + Cue + Log | covers
BGO, BGOCD404 | rel: 1998 | 370Mb

This two original albums on CD features Del Shannon's fifth and sixth album. Album five is a Hank Williams tribute featuring only Williams songs. This may have looked like a good idea at the time, and many other pop-artists at the time recorded such tribute albums. Often this had to do with lacking enough new quality material for release, and the record-companies obviously tried to cash in on their popular artists.
Of course the songs are good and soundwise they appear clearer than most of Williams' originals; but unfortunately Shannon doesn't bring much more to these great songs. After 3-4 tracks they begin to sound too identical, and there is an annoying lack of variation in the arrangements. On a lot of Williams' recordings there is a violin and other instruments besides the steel-guitar. My favorite on the Williams half is "Weary Blues".
Second half of the CD is "1661 Seconds", which is classic Del Shannon, with great originals and covers of other contemporary artists like "Four Seasons" and Roy Orbison.
The album features two of Shannon's finest original singles "Stranger in Town" and "Keep Searchin'"- Moreover there is Shannon's original "I Go to Pieces" which the British duo Peter and Gordon turned into a top-ten hit. Another stand-out is Shannon's great version of "Rag Doll", which I clearly prefer to the Four Seasons' orginal. Less successful is his cover of Roy Orbison's "Running Scared". Shannon clearly was a big fan of Orbison, but he simply hadn't got the voice to do such a song.
The rest of the album is mostly nice pop-ballads of which several are writtin by Shannon himself. This album is obviously a must have for any fan of Del Shannon. ~Amazon

Track listing
01. Yout Cheatin' Heart (3:05)
02. Kaw Liga (3:06)
03. I can't help it (2:33)
04. Honky Tonk Blues (2:19)
05. (I heard that) Lonesome Whistle (2:17)
06. You win again (3:08)
07. Ramblin' man (3:20)
08. Hey Good Lookin' (2:33)
09. Long gone lonesome blues (2:09)
10. Weary Blues (3:16)
11. I'm so lonesome I could cry (2:56)
12. Cold cold heart (2:48)
–-
13. Stranger in town (2:30)
14. She cried (2:29)
15. Needles and Pins (2:05)
16. Broken promises (2:16)
17. Why don't you tell him (2:07)
18. Do you wanna dance (2:32)
19. I go to pieces (2:26)
20. I'm gonna be strong (2:02)
21. Rag Doll (2:46)
22. Over you (2:36)
23. Running scared (2:16)
24. Keep Searchin' (2:07)


Exact Audio Copy V0.99 prebeta 4 from 23. January 2008

Отчёт EAC об извлечении, выполненном 26. марта 2010, 12:35

Shannon, Del / Sings Hank Williams - 1661 Seconds

Дисковод: HL-DT-STDVDRAM GSA-E40N Adapter: 1 ID: 0

Режим чтения : Достоверность
Использование точного потока : Да
Отключение кэша аудио : Да
Использование указателей C2 : Нет

Коррекция смещения при чтении : 667
Способность читать области Lead-in и Lead-out : Нет
Заполнение пропущенных сэмплов тишиной : Да
Удаление блоков с тишиной в начале и конце : Нет
При вычислениях CRC использовались нулевые сэмплы : Да
Интерфейс : Установленный внешний ASPI-интерфейс
Обработка зазоров : Добавлено к предыдущему треку

Выходной формат : Пользовательский кодировщик
Выбранный битрейт : 768 kBit/s
Качество : Высокий
Добавление ID3-тэга : Нет
Утилита сжатия : C:\Program Files\Exact Audio Copy\FLAC\FLAC.EXE
Дополнительные параметры : -6 -V -T "ARTIST=%a" -T "TITLE=%t" -T "ALBUM=%g" -T "DATE=%y" -T "TRACKNUMBER=%n" -T "GENRE=%m" -T "COMMENT=%e" %s -o %d


TOC извлечённого CD

Трек | Старт | Длительность | Начальный сектор | Конечный сектор
––––––––––––––––––––––––––––––––––-
1 | 0:00.00 | 3:08.07 | 0 | 14106
2 | 3:08.07 | 3:08.20 | 14107 | 28226
3 | 6:16.27 | 2:35.55 | 28227 | 39906
4 | 8:52.07 | 2:21.53 | 39907 | 50534
5 | 11:13.60 | 2:17.67 | 50535 | 60876
6 | 13:31.52 | 3:10.73 | 60877 | 75199
7 | 16:42.50 | 3:23.15 | 75200 | 90439
8 | 20:05.65 | 2:35.15 | 90440 | 102079
9 | 22:41.05 | 2:13.02 | 102080 | 112056
10 | 24:54.07 | 3:18.45 | 112057 | 126951
11 | 28:12.52 | 2:58.50 | 126952 | 140351
12 | 31:11.27 | 2:51.25 | 140352 | 153201
13 | 34:02.52 | 2:32.28 | 153202 | 164629
14 | 36:35.05 | 2:31.42 | 164630 | 175996
15 | 39:06.47 | 2:06.35 | 175997 | 185481
16 | 41:13.07 | 2:18.45 | 185482 | 195876
17 | 43:31.52 | 2:09.55 | 195877 | 205606
18 | 45:41.32 | 2:34.05 | 205607 | 217161
19 | 48:15.37 | 2:28.10 | 217162 | 228271
20 | 50:43.47 | 2:04.62 | 228272 | 237633
21 | 52:48.34 | 2:48.73 | 237634 | 250306
22 | 55:37.32 | 2:38.15 | 250307 | 262171
23 | 58:15.47 | 2:18.38 | 262172 | 272559
24 | 60:34.10 | 2:07.60 | 272560 | 282144


Трек 1

Имя файла H:\Торрентс_\Del Shannon - Albums lossless\1965 & 1965 - Del Shannon Sings Hank Williams & 1661 Seconds\01 - Yout Cheatin' Heart.wav

Длина предзазора 0:00:02.00

Пиковый уровень 98.8 %
Качество трека 100.0 %
CRC теста 965FC117
CRC копии 965FC117
Копирование… OK

Трек 2

Имя файла H:\Торрентс_\Del Shannon - Albums lossless\1965 & 1965 - Del Shannon Sings Hank Williams & 1661 Seconds\02 - Kaw Liga.wav

Длина предзазора 0:00:02.13

Пиковый уровень 97.7 %
Качество трека 99.9 %
CRC теста 2D8D3C72
CRC копии 2D8D3C72
Копирование… OK

Трек 3

Имя файла H:\Торрентс_\Del Shannon - Albums lossless\1965 & 1965 - Del Shannon Sings Hank Williams & 1661 Seconds\03 - I can't help it.wav

Длина предзазора 0:00:02.26

Пиковый уровень 97.7 %
Качество трека 99.9 %
CRC теста 2FDD706D
CRC копии 2FDD706D
Копирование… OK

Трек 4

Имя файла H:\Торрентс_\Del Shannon - Albums lossless\1965 & 1965 - Del Shannon Sings Hank Williams & 1661 Seconds\04 - Honky Tonk Blues.wav

Длина предзазора 0:00:01.96

Пиковый уровень 97.7 %
Качество трека 100.0 %
CRC теста 5673A90A
CRC копии 5673A90A
Копирование… OK

Трек 5

Имя файла H:\Торрентс_\Del Shannon - Albums lossless\1965 & 1965 - Del Shannon Sings Hank Williams & 1661 Seconds\05 - (I heard that) Lonesome Whistle.wav

Длина предзазора 0:00:02.40

Пиковый уровень 98.8 %
Качество трека 100.0 %
CRC теста D6D09785
CRC копии D6D09785
Копирование… OK

Трек 6

Имя файла H:\Торрентс_\Del Shannon - Albums lossless\1965 & 1965 - Del Shannon Sings Hank Williams & 1661 Seconds\06 - You win again.wav

Длина предзазора 0:00:00.53

Пиковый уровень 97.7 %
Качество трека 100.0 %
CRC теста 0795A2B0
CRC копии 0795A2B0
Копирование… OK

Трек 7

Имя файла H:\Торрентс_\Del Shannon - Albums lossless\1965 & 1965 - Del Shannon Sings Hank Williams & 1661 Seconds\07 - Ramblin' man.wav

Длина предзазора 0:00:02.40

Пиковый уровень 97.7 %
Качество трека 99.9 %
CRC теста AFAEBFAE
CRC копии AFAEBFAE
Копирование… OK

Трек 8

Имя файла H:\Торрентс_\Del Shannon - Albums lossless\1965 & 1965 - Del Shannon Sings Hank Williams & 1661 Seconds\08 - Hey Good Lookin'.wav

Длина предзазора 0:00:02.44

Пиковый уровень 97.7 %
Качество трека 100.0 %
CRC теста 3AD203FE
CRC копии 3AD203FE
Копирование… OK

Трек 9

Имя файла H:\Торрентс_\Del Shannon - Albums lossless\1965 & 1965 - Del Shannon Sings Hank Williams & 1661 Seconds\09 - Long gone lonesome blues.wav

Длина предзазора 0:00:01.77

Пиковый уровень 88.0 %
Качество трека 100.0 %
CRC теста 98B7DF59
CRC копии 98B7DF59
Копирование… OK

Трек 10

Имя файла H:\Торрентс_\Del Shannon - Albums lossless\1965 & 1965 - Del Shannon Sings Hank Williams & 1661 Seconds\10 - Weary Blues.wav

Длина предзазора 0:00:03.13

Пиковый уровень 98.8 %
Качество трека 100.0 %
CRC теста 154972E5
CRC копии 154972E5
Копирование… OK

Трек 11

Имя файла H:\Торрентс_\Del Shannon - Albums lossless\1965 & 1965 - Del Shannon Sings Hank Williams & 1661 Seconds\11 - I'm so lonesome I could cry.wav

Длина предзазора 0:00:02.02

Пиковый уровень 97.7 %
Качество трека 99.9 %
CRC теста A9BBE7BB
CRC копии A9BBE7BB
Копирование… OK

Трек 12

Имя файла H:\Торрентс_\Del Shannon - Albums lossless\1965 & 1965 - Del Shannon Sings Hank Williams & 1661 Seconds\12 - Cold cold heart.wav

Длина предзазора 0:00:02.13

Пиковый уровень 97.7 %
Качество трека 99.8 %
CRC теста 54ABE248
CRC копии 54ABE248
Копирование… OK

Трек 13

Имя файла H:\Торрентс_\Del Shannon - Albums lossless\1965 & 1965 - Del Shannon Sings Hank Williams & 1661 Seconds\13 - Stranger in town.wav

Длина предзазора 0:00:02.53

Пиковый уровень 98.8 %
Качество трека 100.0 %
CRC теста C7A0BB55
CRC копии C7A0BB55
Копирование… OK

Трек 14

Имя файла H:\Торрентс_\Del Shannon - Albums lossless\1965 & 1965 - Del Shannon Sings Hank Williams & 1661 Seconds\14 - She cried.wav

Длина предзазора 0:00:01.90

Пиковый уровень 98.8 %
Качество трека 100.0 %
CRC теста 3D4C4F0A
CRC копии 3D4C4F0A
Копирование… OK

Трек 15

Имя файла H:\Торрентс_\Del Shannon - Albums lossless\1965 & 1965 - Del Shannon Sings Hank Williams & 1661 Seconds\15 - Needles and Pins.wav

Длина предзазора 0:00:02.06

Пиковый уровень 98.8 %
Качество трека 100.0 %
CRC теста 84BCC2E7
CRC копии 84BCC2E7
Копирование… OK

Трек 16

Имя файла H:\Торрентс_\Del Shannon - Albums lossless\1965 & 1965 - Del Shannon Sings Hank Williams & 1661 Seconds\16 - Broken promises.wav

Длина предзазора 0:00:01.36

Пиковый уровень 98.8 %
Качество трека 100.0 %
CRC теста CD6903BC
CRC копии CD6903BC
Копирование… OK

Трек 17

Имя файла H:\Торрентс_\Del Shannon - Albums lossless\1965 & 1965 - Del Shannon Sings Hank Williams & 1661 Seconds\17 - Why don't you tell him.wav

Длина предзазора 0:00:02.00

Пиковый уровень 98.8 %
Качество трека 100.0 %
CRC теста 93156441
CRC копии 93156441
Копирование… OK

Трек 18

Имя файла H:\Торрентс_\Del Shannon - Albums lossless\1965 & 1965 - Del Shannon Sings Hank Williams & 1661 Seconds\18 - Do you wanna dance.wav

Длина предзазора 0:00:02.06

Пиковый уровень 98.8 %
Качество трека 99.9 %
CRC теста 38AF814F
CRC копии 38AF814F
Копирование… OK

Трек 19

Имя файла H:\Торрентс_\Del Shannon - Albums lossless\1965 & 1965 - Del Shannon Sings Hank Williams & 1661 Seconds\19 - I go to pieces.wav

Длина предзазора 0:00:02.00

Пиковый уровень 98.8 %
Качество трека 100.0 %
CRC теста 7608EC3C
CRC копии 7608EC3C
Копирование… OK

Трек 20

Имя файла H:\Торрентс_\Del Shannon - Albums lossless\1965 & 1965 - Del Shannon Sings Hank Williams & 1661 Seconds\20 - I'm gonna be strong.wav

Длина предзазора 0:00:01.56

Пиковый уровень 98.8 %
Качество трека 100.0 %
CRC теста 3734C741
CRC копии 3734C741
Копирование… OK

Трек 21

Имя файла H:\Торрентс_\Del Shannon - Albums lossless\1965 & 1965 - Del Shannon Sings Hank Williams & 1661 Seconds\21 - Rag Doll.wav

Длина предзазора 0:00:01.92

Пиковый уровень 98.8 %
Качество трека 100.0 %
CRC теста AE25158D
CRC копии AE25158D
Копирование… OK

Трек 22

Имя файла H:\Торрентс_\Del Shannon - Albums lossless\1965 & 1965 - Del Shannon Sings Hank Williams & 1661 Seconds\22 - Over you.wav

Длина предзазора 0:00:02.09

Пиковый уровень 98.8 %
Качество трека 100.0 %
CRC теста 642B8061
CRC копии 642B8061
Копирование… OK

Трек 23

Имя файла H:\Торрентс_\Del Shannon - Albums lossless\1965 & 1965 - Del Shannon Sings Hank Williams & 1661 Seconds\23 - Running scared.wav

Длина предзазора 0:00:01.80

Пиковый уровень 98.8 %
Качество трека 100.0 %
CRC теста DF611C22
CRC копии DF611C22
Копирование… OK

Трек 24

Имя файла H:\Торрентс_\Del Shannon - Albums lossless\1965 & 1965 - Del Shannon Sings Hank Williams & 1661 Seconds\24 - Keep Searchin'.wav

Длина предзазора 0:00:02.44

Пиковый уровень 98.8 %
Качество трека 100.0 %
CRC теста AC68171E
CRC копии AC68171E
Копирование… OK

Ошибок не произошло

Конец отчёта



[CUETools log; Date: 2016. 12. 28. 21:42:37; Version: 2.1.6]
[CTDB TOCID: y4jGaF5wyS_p8MkMLScy2_fZWt8-] found.
Track | CTDB Status
1 | (1/1) Accurately ripped
2 | (1/1) Accurately ripped
3 | (1/1) Accurately ripped
4 | (1/1) Accurately ripped
5 | (1/1) Accurately ripped
6 | (1/1) Accurately ripped
7 | (1/1) Accurately ripped
8 | (1/1) Accurately ripped
9 | (1/1) Accurately ripped
10 | (1/1) Accurately ripped
11 | (1/1) Accurately ripped
12 | (1/1) Differs in 1 samples @00:00:07
13 | (1/1) Accurately ripped
14 | (1/1) Accurately ripped
15 | (1/1) Accurately ripped
16 | (1/1) Accurately ripped
17 | (1/1) Accurately ripped
18 | (1/1) Accurately ripped
19 | (1/1) Accurately ripped
20 | (1/1) Accurately ripped
21 | (1/1) Accurately ripped
22 | (1/1) Accurately ripped
23 | (1/1) Accurately ripped
24 | (1/1) Accurately ripped
[AccurateRip ID: 003806e5-03c1709a-680eb118] found.
Track [ CRC | V2 ] Status
01 [82a433ba|10bf9265] (0+0/1) No match
02 [bf5bef0f|8e01a719] (0+0/1) No match
03 [41503336|0a9680ea] (0+0/1) No match
04 [6f7c6d47|46ee3be2] (0+0/1) No match
05 [2a8fe47c|9e934a35] (0+0/1) No match
06 [49362d20|f769723c] (0+0/1) No match
07 [d7156c62|fd150496] (0+0/1) No match
08 [89e75624|e8cbb518] (0+0/1) No match
09 [fba8ce71|11b78d46] (0+0/1) No match
10 [ae101d25|789bf83f] (0+0/1) No match
11 [a9ccdddb|4481f24e] (0+0/1) No match
12 [934d2f9c|f346e751] (0+0/1) No match
13 [73445702|68bf59ae] (0+0/1) No match
14 [ebb24477|d69e05f0] (0+0/1) No match
15 [f9797b6d|3c0312ad] (0+0/1) No match
16 [c2f1d81c|765de3f0] (0+0/1) No match
17 [12c7f6d7|f033364f] (0+0/1) No match
18 [1c70473d|b9bb0410] (0+0/1) No match
19 [a598ac0e|86645143] (0+0/1) No match
20 [65ff64cd|6793c35a] (0+0/1) No match
21 [69777f64|9c9c5c39] (0+0/1) No match
22 [0c920351|d7861461] (0+0/1) No match
23 [56a45e76|d2292472] (0+0/1) No match
24 [539cffcb|70c4ad11] (0+0/1) No match
Offsetted by 1339:
01 [0e24f855] (1/1) Accurately ripped
02 [13dde8c4] (1/1) Accurately ripped
03 [9845a13e] (1/1) Accurately ripped
04 [4c14fffe] (1/1) Accurately ripped
05 [9ab32118] (1/1) Accurately ripped
06 [4e3d6436] (1/1) Accurately ripped
07 [b9164b31] (1/1) Accurately ripped
08 [7c0e131f] (1/1) Accurately ripped
09 [fb1f5c92] (1/1) Accurately ripped
10 [8a7fb364] (1/1) Accurately ripped
11 [71697430] (1/1) Accurately ripped
12 [14c73a3c] (0/1) No match (V2 was not tested)
13 [5d15739c] (1/1) Accurately ripped
14 [e46581e3] (1/1) Accurately ripped
15 [1a00ef80] (1/1) Accurately ripped
16 [d37d2b93] (1/1) Accurately ripped
17 [23e5948d] (1/1) Accurately ripped
18 [2a7ccd58] (1/1) Accurately ripped
19 [814c5f99] (1/1) Accurately ripped
20 [8d06e910] (1/1) Accurately ripped
21 [a799fbde] (1/1) Accurately ripped
22 [33b8be6a] (1/1) Accurately ripped
23 [c9f8252f] (1/1) Accurately ripped
24 [90d3e179] (0/1) No match (V2 was not tested)

Track Peak [ CRC32 ] [W/O NULL]
– 98,8 [C2161E45] [AACC4417]
01 98,8 [965FC117] [04BA4FE5]
02 97,7 [2D8D3C72] [B2B046B6]
03 97,7 [2FDD706D] [123A2C93]
04 97,7 [5673A90A] [2667AA72]
05 98,8 [D6D09785] [CEABEDEB]
06 97,7 [0795A2B0] [5A3EC9D1]
07 97,7 [AFAEBFAE] [4C78CD6F]
08 97,7 [3AD203FE] [FE7A0E26]
09 88,0 [98B7DF59] [D0BAA110]
10 98,8 [154972E5] [8DB7EB7C]
11 97,7 [A9BBE7BB] [B56AEB3F]
12 97,7 [54ABE248] [BF730E8A]
13 98,8 [C7A0BB55] [5A8AD29C]
14 98,8 [3D4C4F0A] [7C1BC975]
15 98,8 [84BCC2E7] [0566E994]
16 98,8 [CD6903BC] [0FDA3A09]
17 98,8 [93156441] [5092D952]
18 98,8 [38AF814F] [B2CAF4BA]
19 98,8 [7608EC3C] [1477EA1F]
20 98,8 [3734C741] [6B0B47D6]
21 98,8 [AE25158D] [D0F176F3]
22 98,8 [642B8061] [66F5299D]
23 98,8 [DF611C22] [CCDCA976]
24 98,8 [AC68171E] [834967A7]


Thx to goldenday
Bigfile
Filefactory

password: asd