Subcategories

Delerium - Faces, Forms & Illusions (1989) Reissue 1997 [Re-Up]

Posted By: Designol
Delerium - Faces, Forms & Illusions (1989) Reissue 1997 [Re-Up]

Delerium - Faces, Forms & Illusions (1989) Reissue 1997
EAC | FLAC | Image (Cue&Log) ~ 320 Mb | Mp3 (CBR320) ~ 155 Mb | Scans included
Electronic, Dark Ambient | Label: Cleopatra | # CLP 9936-2 | Time: 01:04:29

First released in 1989, much of FACES, FORMS & ILLUSIONS jettisons the rough-hewn bass sequencers of Front Line Assembly mainmen Rhys Fulber and Bill Leeb's previous records for twilight electronic soundscapes that combine the gothic with the modern, the transcendent, and the darkly spiritual. Most of this album is solely the work of Bill Leeb, although Fulber and producer Michael Balch make significant contributions.

Built upon a dense collage of samples (didjeridoos, old Cabaret Voltaire bass sounds and Kraftwerk are most evident) and largely devoid of beats, Leeb traverses many dream states, from the primordial neo-gothic ambience of "New Dawn," through the ancient faux-Hindu synth-streams of "Sword of Islam," to the whispery baroque atmospheres of "Hidden Mask." The disc's highlight, however, lies in the near 20-minute epic "Subvert/Wired Archives/Siege of Atrocity," featuring fascinating swathes of synthesizers, regal tonalities and buzzing electronics.

Allmusic.com

Delerium - Faces, Forms & Illusions (1989) Reissue 1997 [Re-Up]



Tracklist:

01. Monuments of Deceit (04:16)
02. Mecca (04:21)
03. Inside the Chamber (06:19)
04. Sword of Islam (04:13)
05. New Dawn (04:52)
06. Certain Trust (05:09)
07. Strangeways (05:16)
08. Subvert/Wired Archives/Seig of Atrocity (19:56)
09. Dark Star (Bonus Track) (10:03)


Exact Audio Copy V0.99 prebeta 4 from 23. January 2008

EAC extraction logfile from 11. November 2010, 23:14

Delerium / Faces Forms and Illusions

Used drive : HL-DT-STDVD-ROM GDR8082N Adapter: 1 ID: 0

Read mode : Secure
Utilize accurate stream : Yes
Defeat audio cache : Yes
Make use of C2 pointers : No

Read offset correction : 102
Overread into Lead-In and Lead-Out : No
Fill up missing offset samples with silence : Yes
Delete leading and trailing silent blocks : No
Null samples used in CRC calculations : Yes
Used interface : Installed external ASPI interface

Used output format : Internal WAV Routines
Sample format : 44.100 Hz; 16 Bit; Stereo


TOC of the extracted CD

Track | Start | Length | Start sector | End sector
––––––––––––––––––––––––––––-
1 | 0:00.50 | 4:18.40 | 50 | 19439
2 | 4:19.15 | 4:23.52 | 19440 | 39216
3 | 8:42.67 | 6:21.50 | 39217 | 67841
4 | 15:04.42 | 4:14.68 | 67842 | 86959
5 | 19:19.35 | 4:54.37 | 86960 | 109046
6 | 24:13.72 | 5:10.65 | 109047 | 132361
7 | 29:24.62 | 5:18.03 | 132362 | 156214
8 | 34:42.65 | 19:58.60 | 156215 | 246124
9 | 54:41.50 | 10:03.45 | 246125 | 291394


Range status and errors

Selected range

Filename Z:\data\mp3\Seeding\Delerium\1989-Faces Forms And Illusions (1997 Reissue)\Faces Forms and Illusions Reissue.wav

Peak level 99.9 %
Range quality 99.9 %
Test CRC 7A69493C
Copy CRC 7A69493C
Copy OK

No errors occurred


AccurateRip summary

Track 1 accurately ripped (confidence 7) [691737A6]
Track 2 accurately ripped (confidence 6) [6D5AD2A0]
Track 3 accurately ripped (confidence 6) [C4C69B64]
Track 4 accurately ripped (confidence 6) [A230D2FC]
Track 5 accurately ripped (confidence 6) [43C03E07]
Track 6 accurately ripped (confidence 7) [DB8C31B4]
Track 7 accurately ripped (confidence 6) [D68F5DBE]
Track 8 accurately ripped (confidence 6) [EFFB8503]
Track 9 accurately ripped (confidence 6) [E2466187]

All tracks accurately ripped

End of status report

foobar2000 1.2 / Dynamic Range Meter 1.1.1
log date: 2013-11-20 20:32:34

––––––––––––––––––––––––––––––––––––––––
Analyzed: Delerium / Faces Forms and Illusions
––––––––––––––––––––––––––––––––––––––––

DR Peak RMS Duration Track
––––––––––––––––––––––––––––––––––––––––
DR13 -0.40 dB -15.14 dB 4:19 01-Monuments of Deceit
DR13 0.00 dB -14.22 dB 4:24 02-Mecca
DR9 -4.84 dB -16.73 dB 6:22 03-Inside the Chamber
DR13 -0.80 dB -17.87 dB 4:15 04-Sword of Islam
DR10 -1.91 dB -17.10 dB 4:54 05-New Dawn
DR12 -0.40 dB -14.63 dB 5:11 06-Certain Trust
DR10 -3.14 dB -17.04 dB 5:18 07-Strangeways
DR13 -0.20 dB -15.90 dB 19:59 08-Subvert/Wired Archives/Seig of Atrocity
DR9 -0.10 dB -10.90 dB 10:04 09-Dark Star (Bonus Track)
––––––––––––––––––––––––––––––––––––––––

Number of tracks: 9
Official DR value: DR11

Samplerate: 44100 Hz
Channels: 2
Bits per sample: 16
Bitrate: 674 kbps
Codec: FLAC
================================================================================

Delerium - Faces, Forms & Illusions (1989) Reissue 1997 [Re-Up]

Delerium - Faces, Forms & Illusions (1989) Reissue 1997 [Re-Up]