Subcategories

Delerium - Semantic Spaces (1994)

Posted By: Designol
Delerium - Semantic Spaces (1994)

Delerium - Semantic Spaces (1994)
EAC | FLAC | Image (Cue&Log) ~ 546 Mb (incl 5%) | Mp3 (CBR320/Stereo) ~ 204 Mb (incl 5%) | Scans included
Genre: Electronic, Ambient Pop, Worldbeat, New Age | Label: Nettwerk | # W2-30092 | Time: 01:17:28

Semantic Spaces is best describes as the 'rebirth of Delerium' for it is a new awakening from their eerie darker days. And while the album starts out rather cold and emotionless it soon escalates to some deep electronic bass lines with (for the first time ever) soaring vocals by female singer Kristy Thirsk on "Flowers Become Screens". Then comes "Metaphor" with its ancient tribal chantings amidst synthy-electronic beats and mysterious female voices that sound a lot like something you'd find on their Future Primitives side-project by Intermix. "Consensual Worlds" probably comes the closest to their older sound with a droning undervoice that drags through some downright creepy sound effects while "Incantation" is probably their most upbeat song with funky trance beats accompanied, once again, by Kristy Thirsk, who sings a lot more often on their next album, Karma. And despite the fact that Delerium samples from both Enigma and Leftfield, I find it all the more interesting to listen to with "Resurrection" being my favorite.

This (along with Karma and Poem) are highly recommended to trance and new age fans alike, so stop reading this and buy it already! You won't be disappointed, I promise.

Review by Clarissa, Amazon.com
Biography
Website
Wiki


Tracklist:

01. Flowers Become Screens (07:55)
02. Metaphor (07:47)
03. Resurrection (09:25)
04. Incantation (06:21)
05. Consensual Worlds (10:07)
06. Metamorphosis (08:26)
07. Flatlands (07:13)
08. Sensorium (12:05)
09. Gateway (08:05)


Exact Audio Copy V0.99 prebeta 4 from 23. January 2008

EAC extraction logfile from 11. November 2010, 19:26

Delerium / Semantic Spaces

Used drive : HL-DT-STDVD-ROM GDR8082N Adapter: 1 ID: 0

Read mode : Secure
Utilize accurate stream : Yes
Defeat audio cache : Yes
Make use of C2 pointers : No

Read offset correction : 102
Overread into Lead-In and Lead-Out : No
Fill up missing offset samples with silence : Yes
Delete leading and trailing silent blocks : No
Null samples used in CRC calculations : Yes
Used interface : Installed external ASPI interface

Used output format : Internal WAV Routines
Sample format : 44.100 Hz; 16 Bit; Stereo


TOC of the extracted CD

Track | Start | Length | Start sector | End sector
––––––––––––––––––––––––––––-
1 | 0:00.00 | 7:55.17 | 0 | 35641
2 | 7:55.17 | 7:47.25 | 35642 | 70691
3 | 15:42.42 | 9:25.43 | 70692 | 113109
4 | 25:08.10 | 6:21.22 | 113110 | 141706
5 | 31:29.32 | 10:07.28 | 141707 | 187259
6 | 41:36.60 | 8:26.30 | 187260 | 225239
7 | 50:03.15 | 7:13.27 | 225240 | 257741
8 | 57:16.42 | 12:05.53 | 257742 | 312169
9 | 69:22.20 | 8:05.65 | 312170 | 348609


Range status and errors

Selected range

Filename Z:\data\mp3\Seeding\Delerium\1994-Semantic Spaces\Semantic Spaces.wav

Peak level 100.0 %
Range quality 100.0 %
Test CRC 632F1D9A
Copy CRC 632F1D9A
Copy OK

No errors occurred


AccurateRip summary

Track 1 accurately ripped (confidence 37) [26AC2643]
Track 2 accurately ripped (confidence 37) [478106D4]
Track 3 accurately ripped (confidence 37) [A6B509DA]
Track 4 accurately ripped (confidence 38) [4190EFFE]
Track 5 accurately ripped (confidence 36) [E1FE7A51]
Track 6 accurately ripped (confidence 36) [26BC03B5]
Track 7 accurately ripped (confidence 36) [0A83CA63]
Track 8 accurately ripped (confidence 35) [A2B43B9F]
Track 9 accurately ripped (confidence 36) [BC197F52]

All tracks accurately ripped

End of status report

foobar2000 1.2 / Dynamic Range Meter 1.1.1
log date: 2013-11-16 13:51:45

––––––––––––––––––––––––––––––––––––––––
Analyzed: Delerium / Semantic Spaces
––––––––––––––––––––––––––––––––––––––––

DR Peak RMS Duration Track
––––––––––––––––––––––––––––––––––––––––
DR9 0.00 dB -11.48 dB 7:55 01-Flowers Become Screens
DR8 0.00 dB -9.81 dB 7:47 02-Metaphor
DR8 -0.08 dB -10.02 dB 9:26 03-Resurrection
DR9 0.00 dB -10.60 dB 6:21 04-Incantation
DR9 0.00 dB -10.96 dB 10:07 05-Consensual Worlds
DR9 0.00 dB -11.71 dB 8:26 06-Metamorphosis
DR8 0.00 dB -10.00 dB 7:13 07-Flatlands
DR9 0.00 dB -13.16 dB 12:06 08-Sensorium
DR9 0.00 dB -11.02 dB 8:06 09-Gateway
––––––––––––––––––––––––––––––––––––––––

Number of tracks: 9
Official DR value: DR9

Samplerate: 44100 Hz
Channels: 2
Bits per sample: 16
Bitrate: 908 kbps
Codec: FLAC
================================================================================

Delerium - Semantic Spaces (1994)

Delerium - Semantic Spaces (1994)