Subcategories

Deniece Williams - Song Bird (1977) [2010, Remastered & Expanded Edition]

Posted By: BlondStyle
Deniece Williams - Song Bird (1977) [2010, Remastered & Expanded Edition]

Deniece Williams - Song Bird (1977) [2010, Remastered & Expanded Edition]
R&B, Soul/Funk, Gospel, Disco | EAC Rip | FLAC, Tracks+CUE+LOG+Scans (PNG) | 37:56 Min. | 336,32 Mb
Label: Big Break Records (UK) | Cat.# CDBBR 0009 | Released: 2010-08-05 (1977-10-28)
Deniece Williams - Song Bird (1977) [2010, Remastered & Expanded Edition]

"Song Bird" is a 1977 album by American singer Deniece Williams released by Columbia Records on October 28, 1977. The album went to #23 and #66 on the Black and Pop album Charts respectively. The single "Baby, Baby My Love's All For You" reached #13 and #32 on the Black and UK singles.
~Wikipedia
Deniece first made an impression as part of Stevie Wonder's back-up trio WONDERLOVE in the early seventies. In 1976 she released her debut album This Is Niecy which featured the mega-hit FREE which topped the UK chart. SONG BIRD was her sophomore set, released on Columbia in 1977. The album was again produced by Earth, Wind & Fire's Maurice White. The album was released on CD in a very limited run in the nineties. Copies of this issue fetch hundreds on dollars on eBay. Featured are the hit single BABY BABY MY LOVE'S ALL FOR YOU, Deniece's inspirational GOD IS AMAZING and the UK Soul underground favourite THE BOY I LEFT BEHIND. This newly remastered edition features extensive liner notes, an interview with Deniece and a bonus track promotional single version.
~Cherry Red Records

Deniece Williams - Song Bird (1977) [2010, Remastered & Expanded Edition]

Deniece Williams - Song Bird (1977) [2010, Remastered & Expanded Edition]


Release of the album: 1977, October, 28 [LP Columbia Records, Cat.# JC 34911, USA]
Release of this CD: 2010, August, 5 [CD Big Break Records (UK), Cat.# CDBBR 0009 / UPC: 5013929030923]
Originally released on Columbia Records
℗ 1977. This compilation ℗ & © 2010 Big Break Records.
All tracks licensed from Sony Music Entertainment UK Ltd.
Marketed and Distributed by Cherry Red Records Ltd.
Made in EC/MCPS


Credits:

Arranged By [Horn] – Tom Tom 84
Arranged By [String] – Tom Tom 84
Backing Vocals – Deniece Williams, Maurice White, Sidney Barnes
Bass – Nathan Watts, Verdine White
Co-producer – Jerry Peters
Design – Nancy Donald
Drums – David Garibaldi, Fred White, Maurice White
Engineer – Warren Dewey
Engineer [Assistant] – Jack Rouben
Guitar – Al McKay, Charles Fearing, John Rowin, Jr., Marlo Henderson
Management [Exclusive Representation] – Cavallo-Ruffalo Management
Percussion – Paulinho Da Costa
Photography By – Kenneth McGowann
Piano – Jerry Peters
Producer – Maurice White
Saxophone – Andrew Woolfolk, Azar Lawrence, Don Myrick, George Patterson
Saxophone [Solo] – Don Myrick (tracks: 6, 8)
Synthesizer – Larry Dunn
Trombone – Charles Loper, George Bohannon, Louis Satterfield
Trumpet – Chuck Findley, Michael Harris, Oscar Brashear, Steve Madaio
Trumpet [Solo] – Michael Harris (tracks: 8)
Vibraphone – Victor Feldman
Vocals – Deniece Williams


Tracklist:

01. Time (03:54)
02. The Boy I Left Behind (03:36)
03. We Have Love For You (03:43)
04. God Is Amazing (04:04)
05. Baby Baby My Love's All For You (04:13)
06. Season (03:42)
07. Be Good To Me (02:59)
08. The Paper (07:53)

Bonus Track:

09. Baby Baby My Love's All For You (Promo Single Version) (03:52)

Exact Audio Copy V0.99 prebeta 5 from 4. May 2009

EAC extraction logfile from 12. November 2010, 14:58

Deniece Williams / Song Bird

Used drive : LITE-ON DVDRW LH-20A1H Adapter: 1 ID: 1

Read mode : Secure
Utilize accurate stream : Yes
Defeat audio cache : Yes
Make use of C2 pointers : No

Read offset correction : 6
Overread into Lead-In and Lead-Out : No
Fill up missing offset samples with silence : Yes
Delete leading and trailing silent blocks : No
Null samples used in CRC calculations : Yes
Used interface : Native Win32 interface for Win NT & 2000
Gap handling : Appended to previous track

Used output format : User Defined Encoder
Selected bitrate : 768 kBit/s
Quality : High
Add ID3 tag : No
Command line compressor : C:\Program Files (x86)\Exact Audio Copy\FLAC\FLAC.EXE
Additional command line options : -8 -V -T "ARTIST=%a" -T "TITLE=%t" -T "ALBUM=%g" -T "DATE=%y" -T "TRACKNUMBER=%n" -T "GENRE=%m" -T "COMMENT=%e" %s -o %d


TOC of the extracted CD

Track | Start | Length | Start sector | End sector
––––––––––––––––––––––––––––-
1 | 0:00.00 | 3:53.69 | 0 | 17543
2 | 3:53.69 | 3:35.74 | 17544 | 33742
3 | 7:29.68 | 3:42.44 | 33743 | 50436
4 | 11:12.37 | 4:04.24 | 50437 | 68760
5 | 15:16.61 | 4:13.04 | 68761 | 87739
6 | 19:29.65 | 3:41.49 | 87740 | 104363
7 | 23:11.39 | 2:59.23 | 104364 | 117811
8 | 26:10.62 | 7:52.60 | 117812 | 153271
9 | 34:03.47 | 3:51.67 | 153272 | 170663


Track 1

Filename E:\Music\Work in progress\- - Rip Music Folder\Deniece Williams - Song Bird (1977) [FLAC]\01 Time.wav

Pre-gap length 0:00:02.00

Peak level 100.0 %
Track quality 100.0 %
Test CRC 53F4A834
Copy CRC 53F4A834
Accurately ripped (confidence 1) [84E20B90]
Copy OK

Track 2

Filename E:\Music\Work in progress\- - Rip Music Folder\Deniece Williams - Song Bird (1977) [FLAC]\02 The Boy I Left Behind.wav

Pre-gap length 0:00:02.00

Peak level 100.0 %
Track quality 100.0 %
Test CRC 0699A069
Copy CRC 0699A069
Accurately ripped (confidence 1) [19717C8F]
Copy OK

Track 3

Filename E:\Music\Work in progress\- - Rip Music Folder\Deniece Williams - Song Bird (1977) [FLAC]\03 We Have Love for You.wav

Pre-gap length 0:00:02.00

Peak level 100.0 %
Track quality 100.0 %
Test CRC 6F1F907E
Copy CRC 6F1F907E
Accurately ripped (confidence 1) [73005DFF]
Copy OK

Track 4

Filename E:\Music\Work in progress\- - Rip Music Folder\Deniece Williams - Song Bird (1977) [FLAC]\04 God Is Amazing.wav

Pre-gap length 0:00:02.00

Peak level 100.0 %
Track quality 100.0 %
Test CRC CA9954B2
Copy CRC CA9954B2
Accurately ripped (confidence 1) [66EDC0BF]
Copy OK

Track 5

Filename E:\Music\Work in progress\- - Rip Music Folder\Deniece Williams - Song Bird (1977) [FLAC]\05 Baby, Baby My Love's All for You.wav

Pre-gap length 0:00:02.00

Peak level 100.0 %
Track quality 100.0 %
Test CRC B4FFBA20
Copy CRC B4FFBA20
Accurately ripped (confidence 1) [ABE2617D]
Copy OK

Track 6

Filename E:\Music\Work in progress\- - Rip Music Folder\Deniece Williams - Song Bird (1977) [FLAC]\06 Season.wav

Pre-gap length 0:00:02.00

Peak level 100.0 %
Track quality 100.0 %
Test CRC 0CE87A1E
Copy CRC 0CE87A1E
Accurately ripped (confidence 1) [F39140F6]
Copy OK

Track 7

Filename E:\Music\Work in progress\- - Rip Music Folder\Deniece Williams - Song Bird (1977) [FLAC]\07 Be Good to Me.wav

Pre-gap length 0:00:02.00

Peak level 100.0 %
Track quality 99.9 %
Test CRC 7E9E8D9E
Copy CRC 7E9E8D9E
Accurately ripped (confidence 1) [DB7B3FFF]
Copy OK

Track 8

Filename E:\Music\Work in progress\- - Rip Music Folder\Deniece Williams - Song Bird (1977) [FLAC]\08 The Paper.wav

Pre-gap length 0:00:02.00

Peak level 100.0 %
Track quality 100.0 %
Test CRC F08C9F2F
Copy CRC F08C9F2F
Accurately ripped (confidence 1) [B301E54B]
Copy OK

Track 9

Filename E:\Music\Work in progress\- - Rip Music Folder\Deniece Williams - Song Bird (1977) [FLAC]\09 Baby, Baby My Love's All for You [Single Version].wav

Pre-gap length 0:00:02.00

Peak level 100.0 %
Track quality 100.0 %
Test CRC F55A3CCF
Copy CRC F55A3CCF
Accurately ripped (confidence 1) [9A3AFD4B]
Copy OK


All tracks accurately ripped

No errors occurred

End of status report

––––––––––––––––––––––––––––––––––––––––
Analyzed: Deniece Williams / Song Bird
––––––––––––––––––––––––––––––––––––––––

DR Peak RMS Duration Track
––––––––––––––––––––––––––––––––––––––––
DR7 0.00 dB -7.89 dB 3:54 01-Time
DR6 0.00 dB -7.36 dB 3:36 02-The Boy I Left Behind
DR5 0.00 dB -6.76 dB 3:43 03-We Have Love for You
DR6 0.00 dB -10.06 dB 4:04 04-God Is Amazing
DR6 0.00 dB -7.32 dB 4:13 05-Baby, Baby My Love's All for You
DR6 0.00 dB -7.69 dB 3:42 06-Season
DR8 0.00 dB -9.19 dB 2:59 07-Be Good to Me
DR6 0.00 dB -8.79 dB 7:53 08-The Paper
DR6 0.00 dB -7.30 dB 3:52 09-Baby, Baby My Love's All for You [Single Version]
––––––––––––––––––––––––––––––––––––––––

Number of tracks: 9
Official DR value: DR6

Samplerate: 44100 Hz
Channels: 2
Bits per sample: 16
Bitrate: 973 kbps
Codec: FLAC
================================================================================

Thanks to original releaser

password: BlondStyle