Subcategories

Denis Matsuev - Rachmaninov: Piano Concerto No.1, Stravinsky: Capriccio, Shchedrin: Piano Concerto No.2 (2015)

Posted By: tirexiss
Denis Matsuev - Rachmaninov: Piano Concerto No.1, Stravinsky: Capriccio, Shchedrin: Piano Concerto No.2 (2015)

Denis Matsuev - Rachmaninov: Piano Concerto No.1, Stravinsky: Capriccio, Shchedrin: Piano Concerto No.2 (2015)
EAC | FLAC (image+.cue, log) | Covers Included | 66:24 | 278 MB
Genre: Classical | Label: Mariinsky | Catalog: MAR 0587

The Mariinsky Orchestra recordings with Denis Matsuev, "the Siberian bear with the fastest paws in the Arctic," have all offered classic Russian virtuosity at its best. This one, containing three distinctly high-spirited works, makes a great place to start with the series, and it's hard to imagine the listener who wouldn't succumb to its charms. The program ends with a bang that plays to Matsuev's talent for jazz as well as classical music: the ebullient Piano Concerto No. 2 (1966) of Rodion Shchedrin, which, after 12-tone experiments, explodes into jazz in the finale. It ought to be played more often in the West. It fits beautifully with the Capriccio for piano and orchestra of Stravinsky, in its 1949 version, a sort of wry farewell to the composer's neoclassic period (which would continue for a few more years). The Matsuev performance of Rachmaninov's Piano Concerto No. 1 may not be the equal of the later concertos in terms of tunes, but full of youthful energy (it was a student work), it catches the sense of burgeoning talent and is entirely idiomatic. The Mariinsky live recording is clear and immediate, and this is in every sense a delightful evening at the great St. Petersburg concert hall.

Denis Matsuev - Rachmaninov: Piano Concerto No.1, Stravinsky: Capriccio, Shchedrin: Piano Concerto No.2 (2015)

Track List:

Sergei Rachmaninov
[1]-[3] Piano Concerto No. 1 in F-sharp minor, Op. 1 (1890–91, rev. 1917)
Igor Stravinsky
[4]-[6] Capriccio for Piano and Orchestra (1926–29, rev. 1949)
Rodion Shchedrin
[7]-[9] Piano Concerto No. 2 (1966)

Performers:
Denis Matsuev, piano
The Orchestra of the Mariinsky Theatre
Valery Gergiev, conductor

Exact Audio Copy V1.1 from 23. June 2015

EAC extraction logfile from 28. April 2016, 22:30

Denis Matsuev, Mariinsky Orchestra, Valery Gergiev / Rachmaninov, Shchedrin - Piano Concertos; Stravinsky - Capriccio

Used drive : HL-DT-STDVDRAM GU70N Adapter: 1 ID: 0

Read mode : Secure
Utilize accurate stream : Yes
Defeat audio cache : Yes
Make use of C2 pointers : No

Read offset correction : 48
Overread into Lead-In and Lead-Out : No
Fill up missing offset samples with silence : Yes
Delete leading and trailing silent blocks : No
Null samples used in CRC calculations : Yes
Used interface : Native Win32 interface for Win NT & 2000

Used output format : User Defined Encoder
Selected bitrate : 128 kBit/s
Quality : High
Add ID3 tag : No
Command line compressor : C:\Program Files (x86)\Exact Audio Copy\Flac\flac.exe
Additional command line options : -V -8 -T "Date=%year%" -T "Genre=%genre%" %source%


TOC of the extracted CD

Track | Start | Length | Start sector | End sector
––––––––––––––––––––––––––––-
1 | 0:00.00 | 12:08.24 | 0 | 54623
2 | 12:08.24 | 6:06.73 | 54624 | 82146
3 | 18:15.22 | 7:50.00 | 82147 | 117396
4 | 26:05.22 | 6:56.73 | 117397 | 148669
5 | 33:02.20 | 5:33.28 | 148670 | 173672
6 | 38:35.48 | 5:07.56 | 173673 | 196753
7 | 43:43.29 | 10:03.37 | 196754 | 242015
8 | 53:46.66 | 4:27.62 | 242016 | 262102
9 | 58:14.53 | 8:09.66 | 262103 | 298843


Range status and errors

Selected range

Filename C:\temp\Rachmaninov, Shchedrin - Piano Concertos; Stravinsky - Capriccio\Rachmaninov, Shchedrin - Piano Concertos; Stravinsky - Capriccio.wav

Peak level 97.4 %
Extraction speed 2.3 X
Range quality 100.0 %
Test CRC 0389CF03
Copy CRC 0389CF03
Copy OK

No errors occurred


AccurateRip summary

Track 1 not present in database
Track 2 not present in database
Track 3 not present in database
Track 4 not present in database
Track 5 not present in database
Track 6 not present in database
Track 7 not present in database
Track 8 not present in database
Track 9 not present in database

None of the tracks are present in the AccurateRip database

End of status report

==== Log checksum 36AC099A94C4DA9673D705CFC9227D945AE8D102F2E467382DCF68B33654A550 ====

[CUETools log; Date: 04.09.2017 9:56:52; Version: 2.1.5]
[CTDB TOCID: fgfvc7hvm3wQ3kz01IXj.JWDL7s-] found.
Track | CTDB Status
1 | (14/14) Accurately ripped
2 | (14/14) Accurately ripped
3 | (14/14) Accurately ripped
4 | (14/14) Accurately ripped
5 | (14/14) Accurately ripped
6 | (14/14) Accurately ripped
7 | (14/14) Accurately ripped
8 | (14/14) Accurately ripped
9 | (14/14) Accurately ripped
[AccurateRip ID: 00180d24-00abfd0f-870f9009] found.
Track [ CRC | V2 ] Status
01 [c6b77901|7e4b7ab4] (0+2/2) Accurately ripped
02 [622636ea|7f8d9f4d] (0+2/2) Accurately ripped
03 [3018a7ec|1a120a4b] (0+2/2) Accurately ripped
04 [47548616|77bd166d] (0+2/2) Accurately ripped
05 [619e6323|b20e11d6] (0+2/2) Accurately ripped
06 [83da7fd9|84240935] (0+2/2) Accurately ripped
07 [0aae0648|dfbd9844] (0+2/2) Accurately ripped
08 [4fc72bd6|6e5477e0] (0+2/2) Accurately ripped
09 [c9203541|e1f666b8] (0+2/2) Accurately ripped

Track Peak [ CRC32 ] [W/O NULL] [ LOG ]
– 97,4 [0389CF03] [3CD8287E] CRC32
01 97,4 [7C41AD24] [7E01537A]
02 72,2 [B501A851] [5F27F9AE]
03 97,2 [1B3A904C] [87DA30B2]
04 92,0 [99679581] [89502485]
05 64,8 [FFECCD9A] [0180B7A2]
06 92,1 [1880B527] [1CAA16B7]
07 93,0 [2E7D746D] [34644D37]
08 93,2 [09F39F65] [43DEE752]
09 92,6 [DFD61036] [66B919E6]

Thanks to the Original ripper A-Z!

Download: