Tags
Language
Tags

Dennis DeYoung - 26 East Vol 1 (2020) {Japanese Edition}

Posted By: popsakov
Dennis DeYoung - 26 East Vol 1 (2020) {Japanese Edition}

Dennis DeYoung - 26 East Vol 1 (2020) {Japanese Edition}
XLD Rip | FLAC (Img) + Cue + Log ~ 361 Mb | MP3 CBR320 ~ 130 Mb
Full Scans | 00:47:54 | RAR 5% Recovery
Pop Rock, Soft Rock, AOR, Progressive Rock | Avalon #MICP-11552

Former Styx frontman Dennis DeYoung is back with his sixth original solo studio, album "26 East: Volume 1.” “26 East” was the address where DeYoung grew up in Roseland on the far south side of Chicago. This is where Styx was formed in his basement in 1962. Across the street lived the Panozzo twins, John and Chuck, who along with DeYoung would go on to form the nucleus of the band. The cover artwork features three locomotives traveling through space, representing the original members leaving Chicago on their journey to the stars. “On this, I decided to write songs about my journey from humble beginnings in my basement on Chicago’s far-south side to the very top of my chosen profession,” the singer states.

While DeYoung previously announced this will be his last album, more recently he revealed that “there were so many songs written that Serafino Perugino, CEO of Frontiers, suggested dividing it into two albums rather than one,” DeYoung states. “This is Volume 1, which sounds pretentious to me, but the marketing folks wanted you to know there are going to be two of them, so hey kids, there are two of them; this is Volume 1!"

One of the special moments on “26 East” is a tribute to DeYoung’s musical idols, The Beatles. “If you know me, you know of my love for the Beatles and their effect on my life and millions of other musicians.” DeYoung notes that the Beatles-inspired track is a duet, and he recruited Julian Lennon, son of John, to duet with him. “I wrote an email to him and was just about to send it when I listened one last time and suddenly realized Jules should not sing this song,” he explained. “It was my story not his.” Instead, DeYoung went to his piano and wrote an entirely new tune for he and Lennon to collaborate on. Calling their recording session a “dream come true,” DeYoung said the new duet sounds “even better than I had imagined.” The collaboration with Julian Lennon came about when DeYoung wrote a verse and chorus of a song with Lennon in mind. Lennon heard the demo and said he would be honored to participate. Lennon's vocals were recorded in October at Mission Sound in Brooklyn, NY. DeYoung shares, "The moment we sang together in the studio it felt magical. I wrote the song specifically for our two voices. I had never met Julian previously but I have been an admirer since Valotte."

The process that brought forth the album begining in the first place started when Jim Peterik, a fellow Chicagoan and nearby neighbor, sent a song to Dennis. "If not for Jim Peterik’s encouragement, talent and prodding I would not have recorded this music,” said DeYoung. "He once told me the world needed my music; to which I replied 'have the world text me for verification.' We collaborated from the get go, happily and seamlessly and at this time we have written nine songs together of which five will be on Volume 1. Just two Chicago guys doing what they do best, making music and having a laugh.”

***************

Track List:

01. East Of Midnight [5:05]
02. With All Due Respect [4:48]
03. A Kingdom Ablaze [5:51]
04. You My Love [4:00]
05. Run For The Roses [4:32]
06. Damn That Dream [4:13]
07. Unbroken [4:50]
08. The Promise Of This Land [5:11]
09. To The Good Old Days [4:07]
10. A.D. 2020 [0:57]
11. Babe (Live) [Bonus Track] [4:24]

X Lossless Decoder version 20201123 (153.0)

XLD extraction logfile from 2021-01-04 16:39:45 +1000

Dennis DeYoung / 26 East: Vol 1 [Japan Edition]

Used drive : Optiarc DVD RW AD-7700S (revision 1.D5)
Media type : Pressed CD

Ripper mode : XLD Secure Ripper
Disable audio cache : OK for the drive with a cache less than 1375KiB
Make use of C2 pointers : NO
Read offset correction : 48
Max retry count : 20
Gap status : Analyzed, Appended

TOC of the extracted CD
Track | Start | Length | Start sector | End sector
––––––––––––––––––––––––––––-
1 | 00:00:00 | 05:04:47 | 0 | 22846
2 | 05:04:47 | 04:47:51 | 22847 | 44422
3 | 09:52:23 | 05:50:40 | 44423 | 70712
4 | 15:42:63 | 03:59:30 | 70713 | 88667
5 | 19:42:18 | 04:31:41 | 88668 | 109033
6 | 24:13:59 | 04:12:46 | 109034 | 127979
7 | 28:26:30 | 04:49:54 | 127980 | 149708
8 | 33:16:09 | 05:10:39 | 149709 | 172997
9 | 38:26:48 | 04:06:41 | 172998 | 191488
10 | 42:33:14 | 00:56:31 | 191489 | 195719
11 | 43:29:45 | 04:23:65 | 195720 | 215509

AccurateRip Summary (DiscID: 00153223-00b506fc-9e0b390b)
Track 01 : OK (v2, confidence 1/1)
Track 02 : OK (v2, confidence 1/1)
Track 03 : OK (v2, confidence 1/1)
Track 04 : OK (v2, confidence 1/1)
Track 05 : OK (v2, confidence 1/1)
Track 06 : OK (v2, confidence 1/1)
Track 07 : OK (v2, confidence 1/1)
Track 08 : OK (v2, confidence 1/1)
Track 09 : OK (v2, confidence 1/1)
Track 10 : OK (v2, confidence 1/1)
Track 11 : OK (v2, confidence 1/1)
->All tracks accurately ripped.

All Tracks
Filename : /Volumes/Seagate Backup Plus Drive/Music/1 My COLLECTION/Dennis DeYoung/2020 - 26 East Vol 1/26 East: Vol 1 [Japan Edition].flac
CRC32 hash (test run) : 1D283DA8
CRC32 hash : 1D283DA8
CRC32 hash (skip zero) : DA150D19
Statistics
Read error : 0
Jitter error (maybe fixed) : 0
Retry sector count : 0
Damaged sector count : 0

Track 01
Pre-gap length : 00:02:00

CRC32 hash (test run) : 1D799DEA
CRC32 hash : 1D799DEA
CRC32 hash (skip zero) : 8D8CED32
AccurateRip v1 signature : 9C8C5AD2
AccurateRip v2 signature : 4369042B
->Accurately ripped (v2, confidence 1/1)
Statistics
Read error : 0
Jitter error (maybe fixed) : 0
Retry sector count : 0
Damaged sector count : 0

Track 02

CRC32 hash (test run) : 6DDE6B8D
CRC32 hash : 6DDE6B8D
CRC32 hash (skip zero) : C9098E26
AccurateRip v1 signature : A16C045B
AccurateRip v2 signature : 046C86B7
->Accurately ripped (v2, confidence 1/1)
Statistics
Read error : 0
Jitter error (maybe fixed) : 0
Retry sector count : 0
Damaged sector count : 0

Track 03

CRC32 hash (test run) : 50F646C2
CRC32 hash : 50F646C2
CRC32 hash (skip zero) : 57DD056A
AccurateRip v1 signature : C4D8EA37
AccurateRip v2 signature : 0E18B55B
->Accurately ripped (v2, confidence 1/1)
Statistics
Read error : 0
Jitter error (maybe fixed) : 0
Retry sector count : 0
Damaged sector count : 0

Track 04

CRC32 hash (test run) : 973FB37E
CRC32 hash : 973FB37E
CRC32 hash (skip zero) : 0108D4D7
AccurateRip v1 signature : B155B752
AccurateRip v2 signature : F03CE747
->Accurately ripped (v2, confidence 1/1)
Statistics
Read error : 0
Jitter error (maybe fixed) : 0
Retry sector count : 0
Damaged sector count : 0

Track 05

CRC32 hash (test run) : 45B8CC25
CRC32 hash : 45B8CC25
CRC32 hash (skip zero) : 48971425
AccurateRip v1 signature : 23236209
AccurateRip v2 signature : 5F8C3442
->Accurately ripped (v2, confidence 1/1)
Statistics
Read error : 0
Jitter error (maybe fixed) : 0
Retry sector count : 0
Damaged sector count : 0

Track 06

CRC32 hash (test run) : CC80D188
CRC32 hash : CC80D188
CRC32 hash (skip zero) : 328DEFE5
AccurateRip v1 signature : 04DDECAA
AccurateRip v2 signature : C3214FD0
->Accurately ripped (v2, confidence 1/1)
Statistics
Read error : 0
Jitter error (maybe fixed) : 0
Retry sector count : 0
Damaged sector count : 0

Track 07

CRC32 hash (test run) : 02A837EF
CRC32 hash : 02A837EF
CRC32 hash (skip zero) : EB9A2AC6
AccurateRip v1 signature : 84463760
AccurateRip v2 signature : 02F32607
->Accurately ripped (v2, confidence 1/1)
Statistics
Read error : 0
Jitter error (maybe fixed) : 0
Retry sector count : 0
Damaged sector count : 0

Track 08

CRC32 hash (test run) : 114E44D2
CRC32 hash : 114E44D2
CRC32 hash (skip zero) : 9530A90C
AccurateRip v1 signature : 0F33BE02
AccurateRip v2 signature : 2610C265
->Accurately ripped (v2, confidence 1/1)
Statistics
Read error : 0
Jitter error (maybe fixed) : 0
Retry sector count : 0
Damaged sector count : 0

Track 09

CRC32 hash (test run) : CC526F06
CRC32 hash : CC526F06
CRC32 hash (skip zero) : 676E3FCE
AccurateRip v1 signature : EBEA9B03
AccurateRip v2 signature : 47F1CDB0
->Accurately ripped (v2, confidence 1/1)
Statistics
Read error : 0
Jitter error (maybe fixed) : 0
Retry sector count : 0
Damaged sector count : 0

Track 10

CRC32 hash (test run) : 781EFE8D
CRC32 hash : 781EFE8D
CRC32 hash (skip zero) : 7D025C6E
AccurateRip v1 signature : 845FF53E
AccurateRip v2 signature : 27F3E568
->Accurately ripped (v2, confidence 1/1)
Statistics
Read error : 0
Jitter error (maybe fixed) : 0
Retry sector count : 0
Damaged sector count : 0

Track 11

CRC32 hash (test run) : DB64369D
CRC32 hash : DB64369D
CRC32 hash (skip zero) : A5E5DE8F
AccurateRip v1 signature : 30B5324D
AccurateRip v2 signature : 64A8E5D7
->Accurately ripped (v2, confidence 1/1)
Statistics
Read error : 0
Jitter error (maybe fixed) : 0
Retry sector count : 0
Damaged sector count : 0

No errors occurred

End of status report

All thanks go to the original ripper(s) …

>>> Dennis DeYoung in my Blog <<<

DOWNLOAD: