Tags
Language
Tags

Depeche Mode - Singles 13-18 [6CD Box Set] (1991)

Posted By: gribovar
Depeche Mode - Singles 13-18 [6CD Box Set] (1991)

Depeche Mode - Singles 13-18 [6CD Box Set] (1991)
EAC Rip | FLAC (tracks+.cue+log) - 1,2 GB | Covers - 254 MB
Genre: Synth-pop | RAR 3% Rec. | Label: Mute (DMBX3)

The third box, covering 1985 through 1987, includes the "Shake the Disease," "It's Called a Heart," "Stripped," "A Question of Lust," "A Question of Time," and "Little 15" singles. Across the six discs included, there's a wealth of alternate mixes and decent excerpts from the Birmingham stop of the group's Black Celebration tour. Each single is packaged individually in a slim jewel case, providing a convenience for hardcore fans.

Depeche Mode - Singles 13-18 [6CD Box Set] (1991)

CD 1: Depeche Mode - Shake The Disease (1985)
EAC Rip | FLAC (tracks+.cue+log) - 243 MB | Covers - 28 MB
Genre: Synth-pop | RAR 3% Rec. | Label: Mute (CDBONG 8)

Tracklist:
01. Shake The Disease
02. Flexible
03. Shake The Disease (Remixed Extended)
04. Flexible (Remixed Extended)
05. Shake The Disease (Edit The Shake)
06. Something To Do (Metal Mix)

Total time: 37:41

Exact Audio Copy V1.3 from 2. September 2016

EAC extraction logfile from 25. January 2020, 0:00

Depeche Mode / Shake The Disease (DMBX CD13)

Used drive : PIONEER DVD-RW DVR-221L Adapter: 1 ID: 0

Read mode : Secure
Utilize accurate stream : Yes
Defeat audio cache : Yes
Make use of C2 pointers : No

Read offset correction : 6
Overread into Lead-In and Lead-Out : No
Fill up missing offset samples with silence : Yes
Delete leading and trailing silent blocks : No
Null samples used in CRC calculations : Yes
Used interface : Native Win32 interface for Win NT & 2000
Gap handling : Appended to previous track

Used output format : User Defined Encoder
Selected bitrate : 1024 kBit/s
Quality : High
Add ID3 tag : No
Command line compressor : C:\Program Files (x86)\Exact Audio Copy\FLAC\FLAC.EXE
Additional command line options : -6 -V -T "COMMENT=ripped by RRC" -T "ARTIST=%artist%" -T "TITLE=%title%" -T "ALBUM=%albumtitle%" -T "DATE=%year%" -T "TRACKNUMBER=%tracknr%" -T "GENRE=%genre%" %source%


TOC of the extracted CD

Track | Start | Length | Start sector | End sector
––––––––––––––––––––––––––––-
1 | 0:00.32 | 4:48.53 | 32 | 21684
2 | 4:49.10 | 3:11.37 | 21685 | 36046
3 | 8:00.47 | 8:46.25 | 36047 | 75521
4 | 16:46.72 | 6:16.60 | 75522 | 103781
5 | 23:03.57 | 7:11.20 | 103782 | 136126
6 | 30:15.02 | 7:26.55 | 136127 | 169631


Track 1

Filename E:\RRCLtd Rip\01 - Shake The Disease.wav

Pre-gap length 0:00:02.32

Peak level 100.0 %
Extraction speed 2.9 X
Track quality 100.0 %
Test CRC 49C6A9B9
Copy CRC 49C6A9B9
Accurately ripped (confidence 13) [60E4457F] (AR v2)
Copy OK

Track 2

Filename E:\RRCLtd Rip\02 - Flexible.wav

Pre-gap length 0:00:00.63

Peak level 100.0 %
Extraction speed 3.0 X
Track quality 100.0 %
Test CRC 8D5D92EE
Copy CRC 8D5D92EE
Accurately ripped (confidence 13) [616C6167] (AR v2)
Copy OK

Track 3

Filename E:\RRCLtd Rip\03 - Shake The Disease (Remixed Extended).wav

Pre-gap length 0:00:01.35

Peak level 100.0 %
Extraction speed 3.8 X
Track quality 100.0 %
Test CRC 853A5B45
Copy CRC 853A5B45
Accurately ripped (confidence 14) [C3DD5B9C] (AR v2)
Copy OK

Track 4

Filename E:\RRCLtd Rip\04 - Flexible (Remixed Extended).wav

Pre-gap length 0:00:01.20

Peak level 100.0 %
Extraction speed 3.5 X
Track quality 99.9 %
Test CRC 88E87C3D
Copy CRC 88E87C3D
Accurately ripped (confidence 13) [3C5EC378] (AR v2)
Copy OK

Track 5

Filename E:\RRCLtd Rip\05 - Shake The Disease (Edit The Shake).wav

Pre-gap length 0:00:01.00

Peak level 79.7 %
Extraction speed 3.9 X
Track quality 99.9 %
Test CRC 72337953
Copy CRC 72337953
Accurately ripped (confidence 13) [D54FCB9E] (AR v2)
Copy OK

Track 6

Filename E:\RRCLtd Rip\06 - Something To Do (Metal Mix).wav

Pre-gap length 0:00:01.32

Peak level 100.0 %
Extraction speed 4.9 X
Track quality 100.0 %
Test CRC B676C63F
Copy CRC B676C63F
Accurately ripped (confidence 14) [50E07E74] (AR v2)
Copy OK


All tracks accurately ripped

No errors occurred

End of status report

–– CUETools DB Plugin V2.1.6

[CTDB TOCID: FJ54LK2rgFg6nbKIN3cPI2UJbZE-] found
Submit result: FJ54LK2rgFg6nbKIN3cPI2UJbZE- has been confirmed
Track | CTDB Status
1 | ( 98/100) Accurately ripped
2 | ( 99/100) Accurately ripped
3 | ( 99/100) Accurately ripped
4 | ( 99/100) Accurately ripped
5 | ( 98/100) Accurately ripped
6 | ( 99/100) Accurately ripped


==== Log checksum 0CB484E8F7EFAC88F3A08D7BD9342DDD9EEBFB701F7903E773B967635497271D ====

[CUETools log; Date: 09.06.2021 12:16:18; Version: 2.1.4]
Pregap length 00:00:32.
[CTDB TOCID: FJ54LK2rgFg6nbKIN3cPI2UJbZE-] found.
Track | CTDB Status
1 | (130/133) Accurately ripped
2 | (131/133) Accurately ripped
3 | (131/133) Accurately ripped
4 | (131/133) Accurately ripped
5 | (130/133) Accurately ripped
6 | (131/133) Accurately ripped
[AccurateRip ID: 0008486b-002d6bd7-4708d506] found.
Track [ CRC | V2 ] Status
01 [4aa69bc6|60e4457f] (020+016/135) Accurately ripped
02 [bd5f74b6|616c6167] (020+016/132) Accurately ripped
03 [9266549e|c3dd5b9c] (021+017/137) Accurately ripped
04 [27d77372|3c5ec378] (021+016/135) Accurately ripped
05 [54f2e108|d54fcb9e] (021+015/135) Accurately ripped
06 [9fe480c6|50e07e74] (022+017/140) Accurately ripped
Offsetted by -671:
01 [ffc4e0f2] (021/135) Accurately ripped
02 [eeeeace7] (021/132) Accurately ripped
03 [dcaa5b26] (021/137) Accurately ripped
04 [282f1608] (021/135) Accurately ripped
05 [d5fdd317] (021/135) Accurately ripped
06 [0d39a481] (022/140) Accurately ripped
Offsetted by 781:
01 [52121082] (018/135) Accurately ripped
02 [5deb1e53] (018/132) Accurately ripped
03 [be0ec286] (018/137) Accurately ripped
04 [e44badd0] (018/135) Accurately ripped
05 [dc20e4ab] (018/135) Accurately ripped
06 [c44f0ba5] (018/140) Accurately ripped

Track Peak [ CRC32 ] [W/O NULL] [ LOG ]
– 100,0 [6C528537] [31143D20]
01 100,0 [49C6A9B9] [527F28CD] CRC32
02 100,0 [8D5D92EE] [6367F65B] CRC32
03 100,0 [853A5B45] [A57F17C5] CRC32
04 100,0 [88E87C3D] [4D510B58] CRC32
05 79,7 [72337953] [1C95A64D] CRC32
06 100,0 [B676C63F] [06BC8ACD] CRC32

Depeche Mode - Singles 13-18 [6CD Box Set] (1991)

CD 2: Depeche Mode - It's Called a Heart (1985)
EAC Rip | FLAC (tracks+.cue+log) - 184 MB | Covers - 32 MB
Genre: Synth-pop | RAR 3% Rec. | Label: Mute (CDBONG 9)

Tracklist:
01. It's Called A Heart
02. Fly On The Windscreen
03. It's Called A Heart (Extended)
04. Fly On The Windscreen (Extended)
05. Fly On The Windscreen (Death Mix)

Total time: 29:13

Exact Audio Copy V1.3 from 2. September 2016

EAC extraction logfile from 25. January 2020, 0:19

Depeche Mode / It's Called A Heart (DMBX CD14)

Used drive : PIONEER DVD-RW DVR-221L Adapter: 1 ID: 0

Read mode : Secure
Utilize accurate stream : Yes
Defeat audio cache : Yes
Make use of C2 pointers : No

Read offset correction : 6
Overread into Lead-In and Lead-Out : No
Fill up missing offset samples with silence : Yes
Delete leading and trailing silent blocks : No
Null samples used in CRC calculations : Yes
Used interface : Native Win32 interface for Win NT & 2000
Gap handling : Appended to previous track

Used output format : User Defined Encoder
Selected bitrate : 1024 kBit/s
Quality : High
Add ID3 tag : No
Command line compressor : C:\Program Files (x86)\Exact Audio Copy\FLAC\FLAC.EXE
Additional command line options : -6 -V -T "COMMENT=ripped by RRC" -T "ARTIST=%artist%" -T "TITLE=%title%" -T "ALBUM=%albumtitle%" -T "DATE=%year%" -T "TRACKNUMBER=%tracknr%" -T "GENRE=%genre%" %source%


TOC of the extracted CD

Track | Start | Length | Start sector | End sector
––––––––––––––––––––––––––––-
1 | 0:00.32 | 3:50.35 | 32 | 17316
2 | 3:50.67 | 5:05.35 | 17317 | 40226
3 | 8:56.27 | 7:20.48 | 40227 | 73274
4 | 16:17.00 | 7:49.12 | 73275 | 108461
5 | 24:06.12 | 5:07.58 | 108462 | 131544


Track 1

Filename E:\RRCLtd Rip\01 - It's Called A Heart.wav

Pre-gap length 0:00:02.32

Peak level 98.5 %
Extraction speed 2.8 X
Track quality 100.0 %
Test CRC 322C30DC
Copy CRC 322C30DC
Accurately ripped (confidence 13) [822D4808] (AR v2)
Copy OK

Track 2

Filename E:\RRCLtd Rip\02 - Fly On The Windscreen.wav

Pre-gap length 0:00:01.42

Peak level 96.2 %
Extraction speed 3.3 X
Track quality 100.0 %
Test CRC 1218392E
Copy CRC 1218392E
Accurately ripped (confidence 13) [69535C89] (AR v2)
Copy OK

Track 3

Filename E:\RRCLtd Rip\03 - It's Called A Heart (Extended).wav

Pre-gap length 0:00:01.45

Peak level 97.6 %
Extraction speed 3.8 X
Track quality 100.0 %
Test CRC 6AEB7FD4
Copy CRC 6AEB7FD4
Accurately ripped (confidence 14) [9EB40A7A] (AR v2)
Copy OK

Track 4

Filename E:\RRCLtd Rip\04 - Fly On The Windscreen (Extended).wav

Pre-gap length 0:00:01.33

Peak level 80.6 %
Extraction speed 4.3 X
Track quality 100.0 %
Test CRC 618CF2E2
Copy CRC 618CF2E2
Accurately ripped (confidence 14) [7B37CF14] (AR v2)
Copy OK

Track 5

Filename E:\RRCLtd Rip\05 - Fly On The Windscreen (Death Mix).wav

Pre-gap length 0:00:00.40

Peak level 77.2 %
Extraction speed 3.6 X
Track quality 99.9 %
Test CRC 3A47ACE8
Copy CRC 3A47ACE8
Accurately ripped (confidence 13) [F2305AB5] (AR v2)
Copy OK


All tracks accurately ripped

No errors occurred

End of status report

–– CUETools DB Plugin V2.1.6

[CTDB TOCID: CMA5b2vg66KzRfRhGmxmzlIr6sM-] found
Submit result: CMA5b2vg66KzRfRhGmxmzlIr6sM- has been confirmed
Track | CTDB Status
1 | (94/96) Accurately ripped
2 | (94/96) Accurately ripped
3 | (94/96) Accurately ripped
4 | (94/96) Accurately ripped
5 | (94/96) Accurately ripped


==== Log checksum 72EECD93254846A9A3015922E65CF499B06C4DA874664B3F95840BA51E0C29CE ====

[CUETools log; Date: 09.06.2021 12:16:47; Version: 2.1.4]
Pregap length 00:00:32.
[CTDB TOCID: CMA5b2vg66KzRfRhGmxmzlIr6sM-] found.
Track | CTDB Status
1 | (127/131) Accurately ripped
2 | (127/131) Accurately ripped
3 | (128/131) Accurately ripped
4 | (128/131) Accurately ripped
5 | (128/131) Accurately ripped
[AccurateRip ID: 0005a8aa-001b293b-4306d905] found.
Track [ CRC | V2 ] Status
01 [15defdef|822d4808] (017+016/135) Accurately ripped
02 [5a404c93|69535c89] (017+016/134) Accurately ripped
03 [2cda3e4b|9eb40a7a] (018+017/139) Accurately ripped
04 [8f01340b|7b37cf14] (018+017/137) Accurately ripped
05 [13a860d2|f2305ab5] (019+016/138) Accurately ripped
Offsetted by -512:
01 [77a145ef] (006/135) Accurately ripped
02 [4ad4ae93] (006/134) Accurately ripped
03 [fbafd24b] (006/139) Accurately ripped
04 [54a4e80b] (005/137) Accurately ripped
05 [b52ad4d2] (006/138) Accurately ripped
Offsetted by -102:
01 [9058b247] (016/135) Accurately ripped
02 [502ddc19] (016/134) Accurately ripped
03 [b90ecac7] (016/139) Accurately ripped
04 [2560d0e7] (016/137) Accurately ripped
05 [9cd55dee] (017/138) Accurately ripped
Offsetted by 389:
01 [9318e23b] (003/135) Accurately ripped
02 [ce77901e] (003/134) Accurately ripped
03 [2534f959] (003/139) Accurately ripped
04 [245853c9] (003/137) Accurately ripped
05 [f972c3b0] (003/138) Accurately ripped
Offsetted by 1455:
01 [068f6253] (016/135) Accurately ripped
02 [0f92a014] (016/134) Accurately ripped
03 [11924c35] (017/139) Accurately ripped
04 [0fda7e05] (016/137) Accurately ripped
05 [ba2e282c] (016/138) Accurately ripped
Offsetted by 788:
01 [1d69fb1f] (000/135) No match (V2 was not tested)
02 [93fbedbf] (000/134) No match (V2 was not tested)
03 [c4858883] (000/139) No match (V2 was not tested)
04 [8cd34103] (000/137) No match (V2 was not tested)
05 [1d159a4a] (000/138) No match (V2 was not tested)

Track Peak [ CRC32 ] [W/O NULL] [ LOG ]
– 98,5 [F0212636] [4D256310]
01 98,5 [322C30DC] [94F656DE] CRC32
02 96,2 [1218392E] [17F7D577] CRC32
03 97,6 [6AEB7FD4] [FC4AF1DE] CRC32
04 80,6 [618CF2E2] [625BB1E5] CRC32
05 77,2 [3A47ACE8] [2BAF4105] CRC32

Depeche Mode - Singles 13-18 [6CD Box Set] (1991)

CD 3: Depeche Mode - Stripped (1986)
EAC Rip | FLAC (tracks+.cue+log) - 203 MB | Covers - 27 MB
Genre: Synth-pop | RAR 3% Rec. | Label: Mute (CDBONG 10)

Tracklist:
01. Stripped
02. But Not Tonight
03. Stripped (Highland Mix)
04. But Not Tonight (Extended Remix)
05. Breathing In Fumes
06. Fly On The Windscreen (Quiet Mix)
07. Black Day

Total time: 33:16

Exact Audio Copy V1.3 from 2. September 2016

EAC extraction logfile from 25. January 2020, 0:42

Depeche Mode / Stripped (DMBX CD15)

Used drive : PIONEER DVD-RW DVR-221L Adapter: 1 ID: 0

Read mode : Secure
Utilize accurate stream : Yes
Defeat audio cache : Yes
Make use of C2 pointers : No

Read offset correction : 6
Overread into Lead-In and Lead-Out : No
Fill up missing offset samples with silence : Yes
Delete leading and trailing silent blocks : No
Null samples used in CRC calculations : Yes
Used interface : Native Win32 interface for Win NT & 2000
Gap handling : Appended to previous track

Used output format : User Defined Encoder
Selected bitrate : 1024 kBit/s
Quality : High
Add ID3 tag : No
Command line compressor : C:\Program Files (x86)\Exact Audio Copy\FLAC\FLAC.EXE
Additional command line options : -6 -V -T "COMMENT=ripped by RRC" -T "ARTIST=%artist%" -T "TITLE=%title%" -T "ALBUM=%albumtitle%" -T "DATE=%year%" -T "TRACKNUMBER=%tracknr%" -T "GENRE=%genre%" %source%


TOC of the extracted CD

Track | Start | Length | Start sector | End sector
––––––––––––––––––––––––––––-
1 | 0:00.00 | 3:53.15 | 0 | 17489
2 | 3:53.15 | 4:17.40 | 17490 | 36804
3 | 8:10.55 | 6:42.27 | 36805 | 66981
4 | 14:53.07 | 5:14.33 | 66982 | 90564
5 | 20:07.40 | 6:06.12 | 90565 | 118026
6 | 26:13.52 | 4:25.18 | 118027 | 137919
7 | 30:38.70 | 2:37.15 | 137920 | 149709


Track 1

Filename E:\RRCLtd Rip\01 - Stripped.wav

Pre-gap length 0:00:02.00

Peak level 100.0 %
Extraction speed 2.8 X
Track quality 100.0 %
Test CRC E924E511
Copy CRC E924E511
Accurately ripped (confidence 13) [98409885] (AR v2)
Copy OK

Track 2

Filename E:\RRCLtd Rip\02 - But Not Tonight.wav

Pre-gap length 0:00:01.28

Peak level 80.1 %
Extraction speed 3.1 X
Track quality 100.0 %
Test CRC 7C79A047
Copy CRC 7C79A047
Accurately ripped (confidence 13) [4BC75964] (AR v2)
Copy OK

Track 3

Filename E:\RRCLtd Rip\03 - Stripped (Highland Mix).wav

Pre-gap length 0:00:01.23

Peak level 100.0 %
Extraction speed 3.1 X
Track quality 99.9 %
Test CRC E9098EEE
Copy CRC E9098EEE
Accurately ripped (confidence 14) [013E8C68] (AR v2)
Copy OK

Track 4

Filename E:\RRCLtd Rip\04 - But Not Tonight (Extended Mix).wav

Pre-gap length 0:00:01.10

Peak level 98.1 %
Extraction speed 4.0 X
Track quality 100.0 %
Test CRC B1D10EEA
Copy CRC B1D10EEA
Accurately ripped (confidence 14) [3A8FAC6E] (AR v2)
Copy OK

Track 5

Filename E:\RRCLtd Rip\05 - Breathing In Fumes.wav

Pre-gap length 0:00:01.20

Peak level 95.6 %
Extraction speed 3.6 X
Track quality 99.9 %
Test CRC 9D2DBA0D
Copy CRC 9D2DBA0D
Accurately ripped (confidence 13) [726D9B99] (AR v2)
Copy OK

Track 6

Filename E:\RRCLtd Rip\06 - Fly On The Windscreen (Quiet Mix).wav

Pre-gap length 0:00:00.35

Peak level 81.0 %
Extraction speed 3.6 X
Track quality 99.9 %
Test CRC A9AF3C6C
Copy CRC A9AF3C6C
Accurately ripped (confidence 13) [F1EDDE27] (AR v2)
Copy OK

Track 7

Filename E:\RRCLtd Rip\07 - Black Day.wav

Pre-gap length 0:00:00.70

Peak level 77.0 %
Extraction speed 4.3 X
Track quality 100.0 %
Test CRC FD73D5C1
Copy CRC FD73D5C1
Accurately ripped (confidence 13) [20DE8D11] (AR v2)
Copy OK


All tracks accurately ripped

No errors occurred

End of status report

–– CUETools DB Plugin V2.1.6

[CTDB TOCID: ZjF.hUtbECmzPbcuqKPrLg_INic-] found
Submit result: ZjF.hUtbECmzPbcuqKPrLg_INic- has been confirmed
Track | CTDB Status
1 | (180/230) Accurately ripped, or (12/230) differs in 98 samples @00:00:74, or (36/230) differs in 98 samples @00:00:74
2 | (229/230) Accurately ripped
3 | (214/230) Accurately ripped, or (12/230) differs in 381 samples @03:42:63-03:42:70
4 | (229/230) Accurately ripped
5 | (229/230) Accurately ripped
6 | (229/230) Accurately ripped
7 | (229/230) Accurately ripped


==== Log checksum 23BA5D11B50E8C75D5AECF98E131FD19239750FBE6D5CA23677FB555CA920C70 ====

[CUETools log; Date: 09.06.2021 12:17:22; Version: 2.1.4]
[CTDB TOCID: ZjF.hUtbECmzPbcuqKPrLg_INic-] found.
Track | CTDB Status
1 | (231/303) Accurately ripped, or (14/303) differs in 98 samples @00:00:74, or (55/303) differs in 98 samples @00:00:74
2 | (301/303) Accurately ripped
3 | (284/303) Accurately ripped, or (14/303) differs in 381 samples @03:42:63-03:42:70
4 | (301/303) Accurately ripped
5 | (301/303) Accurately ripped
6 | (301/303) Accurately ripped
7 | (301/303) Accurately ripped
[AccurateRip ID: 00096c1b-00390757-5c07cc07] found.
Track [ CRC | V2 ] Status
01 [528329e7|98409885] (019+016/178) Accurately ripped
02 [91708a26|4bc75964] (019+016/181) Accurately ripped
03 [e805379e|013e8c68] (020+017/184) Accurately ripped
04 [19cda8e1|3a8fac6e] (020+017/181) Accurately ripped
05 [8c7fabad|726d9b99] (019+016/181) Accurately ripped
06 [d41f35f2|f1edde27] (020+016/181) Accurately ripped
07 [aaaa8787|20de8d11] (020+016/182) Accurately ripped
Offsetted by -34:
01 [80ba2281] (011/178) Accurately ripped
02 [a40a7668] (011/181) Accurately ripped
03 [7e4100ce] (011/184) Accurately ripped
04 [c35f1379] (011/181) Accurately ripped
05 [b25b0c83] (011/181) Accurately ripped
06 [a4462574] (011/181) Accurately ripped
07 [08d78ff7] (011/182) Accurately ripped
Offsetted by 800:
01 [d6df2347] (020/178) Accurately ripped
02 [452cb506] (021/181) Accurately ripped
03 [91958c9e] (021/184) Accurately ripped
04 [56ca7361] (020/181) Accurately ripped
05 [b764e34d] (020/181) Accurately ripped
06 [49038cd2] (021/181) Accurately ripped
07 [20e14887] (022/182) Accurately ripped
Offsetted by 2252:
01 [7b956e4b] (018/178) Accurately ripped
02 [0cac789a] (020/181) Accurately ripped
03 [cd05c07e] (019/184) Accurately ripped
04 [d100c951] (018/181) Accurately ripped
05 [ee358ea9] (018/181) Accurately ripped
06 [add010e6] (018/181) Accurately ripped
07 [3dd694e7] (018/182) Accurately ripped
Offsetted by -465:
01 [33fa80f4] (000/178) No match (V2 was not tested)
02 [975e5e07] (004/181) Accurately ripped
03 [9bdc8636] (000/184) No match (V2 was not tested)
04 [b7f4532d] (004/181) Accurately ripped
05 [305da358] (004/181) Accurately ripped
06 [eb60e373] (004/181) Accurately ripped
07 [7df44dbf] (004/182) Accurately ripped

Track Peak [ CRC32 ] [W/O NULL] [ LOG ]
– 100,0 [016E76CF] [0395FA4F]
01 100,0 [E924E511] [4EE96D3A] CRC32
02 80,1 [7C79A047] [9B1D16C1] CRC32
03 100,0 [E9098EEE] [AA32B344] CRC32
04 98,1 [B1D10EEA] [EBDFA414] CRC32
05 95,6 [9D2DBA0D] [E7ACEBEE] CRC32
06 81,0 [A9AF3C6C] [5382820B] CRC32
07 77,0 [FD73D5C1] [721D7881] CRC32

Depeche Mode - Singles 13-18 [6CD Box Set] (1991)

CD 4: Depeche Mode - A Question Of Lust (1986)
EAC Rip | FLAC (tracks+.cue+log) - 181 MB | Covers - 26 MB
Genre: Synth-pop | RAR 3% Rec. | Label: Mute (CDBONG 11)

Tracklist:
01. A Question Of Lust
02. Christmas Island
03. Christmas Island (Extended)
04. People Are People (Live)
05. It Doesn't Matter Two (Instrumental)
06. A Question Of Lust (Minimal)

Total time: 28:59

Exact Audio Copy V1.3 from 2. September 2016

EAC extraction logfile from 25. January 2020, 1:01

Depeche Mode / A Question Of Lust (DMBX CD16)

Used drive : PIONEER DVD-RW DVR-221L Adapter: 1 ID: 0

Read mode : Secure
Utilize accurate stream : Yes
Defeat audio cache : Yes
Make use of C2 pointers : No

Read offset correction : 6
Overread into Lead-In and Lead-Out : No
Fill up missing offset samples with silence : Yes
Delete leading and trailing silent blocks : No
Null samples used in CRC calculations : Yes
Used interface : Native Win32 interface for Win NT & 2000
Gap handling : Appended to previous track

Used output format : User Defined Encoder
Selected bitrate : 1024 kBit/s
Quality : High
Add ID3 tag : No
Command line compressor : C:\Program Files (x86)\Exact Audio Copy\FLAC\FLAC.EXE
Additional command line options : -6 -V -T "COMMENT=ripped by RRC" -T "ARTIST=%artist%" -T "TITLE=%title%" -T "ALBUM=%albumtitle%" -T "DATE=%year%" -T "TRACKNUMBER=%tracknr%" -T "GENRE=%genre%" %source%


TOC of the extracted CD

Track | Start | Length | Start sector | End sector
––––––––––––––––––––––––––––-
1 | 0:00.32 | 4:29.00 | 32 | 20206
2 | 4:29.32 | 4:51.20 | 20207 | 42051
3 | 9:20.52 | 5:39.48 | 42052 | 67524
4 | 15:00.25 | 4:23.35 | 67525 | 87284
5 | 19:23.60 | 2:48.15 | 87285 | 99899
6 | 22:12.00 | 6:47.52 | 99900 | 130476


Track 1

Filename E:\RRCLtd Rip\01 - A Question Of Lust.wav

Pre-gap length 0:00:02.32

Peak level 93.1 %
Extraction speed 2.9 X
Track quality 100.0 %
Test CRC D47B154A
Copy CRC D47B154A
Accurately ripped (confidence 15) [CB851716] (AR v2)
Copy OK

Track 2

Filename E:\RRCLtd Rip\02 - Christmas Island.wav

Pre-gap length 0:00:00.07

Peak level 90.7 %
Extraction speed 3.3 X
Track quality 100.0 %
Test CRC 2B71DC7F
Copy CRC 2B71DC7F
Accurately ripped (confidence 15) [D09E4E45] (AR v2)
Copy OK

Track 3

Filename E:\RRCLtd Rip\03 - Christmas Island (Extended).wav

Pre-gap length 0:00:00.45

Peak level 87.5 %
Extraction speed 3.0 X
Track quality 99.9 %
Test CRC 193E9973
Copy CRC 193E9973
Accurately ripped (confidence 15) [440ABAA7] (AR v2)
Copy OK

Track 4

Filename E:\RRCLtd Rip\04 - People Are People (Live).wav

Pre-gap length 0:00:00.13

Peak level 96.7 %
Extraction speed 3.8 X
Track quality 100.0 %
Test CRC 0FF657CF
Copy CRC 0FF657CF
Accurately ripped (confidence 15) [4C1F8BA3] (AR v2)
Copy OK

Track 5

Filename E:\RRCLtd Rip\05 - It Doesn't Matter Two (Instrumental).wav

Pre-gap length 0:00:00.53

Peak level 73.3 %
Extraction speed 3.7 X
Track quality 100.0 %
Test CRC 93D5B1F6
Copy CRC 93D5B1F6
Accurately ripped (confidence 15) [5C791AE1] (AR v2)
Copy OK

Track 6

Filename E:\RRCLtd Rip\06 - A Question Of Lust (Minimal).wav

Pre-gap length 0:00:01.70

Peak level 100.0 %
Extraction speed 3.8 X
Track quality 99.9 %
Test CRC 621B1907
Copy CRC 621B1907
Accurately ripped (confidence 15) [4B7CDE60] (AR v2)
Copy OK


All tracks accurately ripped

No errors occurred

End of status report

–– CUETools DB Plugin V2.1.6

[CTDB TOCID: ON_1CexPE.5HP5E_xeacVTcD9VU-] found
Submit result: ON_1CexPE.5HP5E_xeacVTcD9VU- has been confirmed
Track | CTDB Status
1 | (91/92) Accurately ripped
2 | (91/92) Accurately ripped
3 | (91/92) Accurately ripped
4 | (91/92) Accurately ripped
5 | (91/92) Accurately ripped
6 | (91/92) Accurately ripped


==== Log checksum EA87E3C790D365127D70AC5F978C91B374A274B6FC5893AB2032D44CF008EA0E ====

[CUETools log; Date: 09.06.2021 12:18:21; Version: 2.1.4]
Pregap length 00:00:32.
[CTDB TOCID: ON_1CexPE.5HP5E_xeacVTcD9VU-] found.
Track | CTDB Status
1 | (121/123) Accurately ripped
2 | (121/123) Accurately ripped
3 | (121/123) Accurately ripped
4 | (121/123) Accurately ripped
5 | (121/123) Accurately ripped
6 | (121/123) Accurately ripped
[AccurateRip ID: 0006d3f6-002467ca-3c06cb06] found.
Track [ CRC | V2 ] Status
01 [61d4789d|cb851716] (016+018/119) Accurately ripped
02 [42e3276a|d09e4e45] (016+018/119) Accurately ripped
03 [5b446284|440abaa7] (017+018/121) Accurately ripped
04 [33d4f586|4c1f8ba3] (017+018/121) Accurately ripped
05 [94565e62|5c791ae1] (017+018/120) Accurately ripped
06 [fb30fdf3|4b7cde60] (018+018/123) Accurately ripped
Offsetted by -1260:
01 [ff26a309] (018/119) Accurately ripped
02 [884898aa] (018/119) Accurately ripped
03 [24421751] (018/121) Accurately ripped
04 [64736421] (018/121) Accurately ripped
05 [4f9a2052] (018/120) Accurately ripped
06 [6d1a47a7] (019/123) Accurately ripped
Offsetted by 171:
01 [17736092] (013/119) Accurately ripped
02 [e386c21a] (014/119) Accurately ripped
03 [36aa3d3c] (014/121) Accurately ripped
04 [9108dc5c] (014/121) Accurately ripped
05 [24fae326] (014/120) Accurately ripped
06 [646aee76] (014/123) Accurately ripped
Offsetted by -493:
01 [6b2b462a] (000/119) No match (V2 was not tested)
02 [5bce189a] (000/119) No match (V2 was not tested)
03 [0942b3de] (000/121) No match (V2 was not tested)
04 [a197221e] (000/121) No match (V2 was not tested)
05 [a27c0e06] (000/120) No match (V2 was not tested)
06 [1b2a231e] (000/123) No match (V2 was not tested)

Track Peak [ CRC32 ] [W/O NULL] [ LOG ]
– 100,0 [9BC3D854] [0A7636DE]
01 93,1 [D47B154A] [8D7C79D1] CRC32
02 90,7 [2B71DC7F] [84A7076D] CRC32
03 87,5 [193E9973] [EE5E26FD] CRC32
04 96,7 [0FF657CF] [919788E4] CRC32
05 73,3 [93D5B1F6] [45F8046F] CRC32
06 100,0 [621B1907] [0A008A68] CRC32

Depeche Mode - Singles 13-18 [6CD Box Set] (1991)

CD 5: Depeche Mode - A Question Of Time (1986)
EAC Rip | FLAC (tracks+.cue+log) - 327 MB | Covers - 26 MB
Genre: Synth-pop | RAR 3% Rec. | Label: Mute (CDBONG 12)

Tracklist:
01. A Question Of Time (Remix)
02. Black Celebration (Live)
03. Something To Do (Live)
04. Stripped (Live)
05. More Than A Party (Live)
06. A Question Of Time (Extended Remix)
07. Black Celebration (Black Tulip Mix)
08. A Question Of Time (New Town Mix / Live Remix)

Total time: 49:55

Exact Audio Copy V1.3 from 2. September 2016

EAC extraction logfile from 25. January 2020, 10:54

Depeche Mode / A Question Of Time (DMBX CD17)

Used drive : PIONEER DVD-RW DVR-221L Adapter: 1 ID: 0

Read mode : Secure
Utilize accurate stream : Yes
Defeat audio cache : Yes
Make use of C2 pointers : No

Read offset correction : 6
Overread into Lead-In and Lead-Out : No
Fill up missing offset samples with silence : Yes
Delete leading and trailing silent blocks : No
Null samples used in CRC calculations : Yes
Used interface : Native Win32 interface for Win NT & 2000
Gap handling : Appended to previous track

Used output format : User Defined Encoder
Selected bitrate : 1024 kBit/s
Quality : High
Add ID3 tag : No
Command line compressor : C:\Program Files (x86)\Exact Audio Copy\FLAC\FLAC.EXE
Additional command line options : -6 -V -T "COMMENT=ripped by RRC" -T "ARTIST=%artist%" -T "TITLE=%title%" -T "ALBUM=%albumtitle%" -T "DATE=%year%" -T "TRACKNUMBER=%tracknr%" -T "GENRE=%genre%" %source%


TOC of the extracted CD

Track | Start | Length | Start sector | End sector
––––––––––––––––––––––––––––-
1 | 0:00.32 | 4:05.55 | 32 | 18461
2 | 4:06.12 | 6:05.35 | 18462 | 45871
3 | 10:11.47 | 3:50.30 | 45872 | 63151
4 | 14:02.02 | 6:23.25 | 63152 | 91901
5 | 20:25.27 | 5:07.53 | 91902 | 114979
6 | 25:33.05 | 6:39.72 | 114980 | 144976
7 | 32:13.02 | 6:34.18 | 144977 | 174544
8 | 38:47.20 | 11:08.12 | 174545 | 224656


Track 1

Filename E:\RRCLtd Rip\01 - A Question Of Time (Remix).wav

Pre-gap length 0:00:02.32

Peak level 85.0 %
Extraction speed 2.8 X
Track quality 100.0 %
Test CRC 47858B8D
Copy CRC 47858B8D
Accurately ripped (confidence 13) [9B8EC51E] (AR v2)
Copy OK

Track 2

Filename E:\RRCLtd Rip\02 - Black Celebration (Live).wav

Pre-gap length 0:00:01.00

Peak level 87.2 %
Extraction speed 3.3 X
Track quality 100.0 %
Test CRC DE9CBB9A
Copy CRC DE9CBB9A
Accurately ripped (confidence 13) [80976437] (AR v2)
Copy OK

Track 3

Filename E:\RRCLtd Rip\03 - Something To Do (Live).wav

Peak level 76.1 %
Extraction speed 2.7 X
Track quality 99.9 %
Test CRC 36BCCF61
Copy CRC 36BCCF61
Accurately ripped (confidence 13) [C227F243] (AR v2)
Copy OK

Track 4

Filename E:\RRCLtd Rip\04 - Stripped (Live).wav

Peak level 85.1 %
Extraction speed 4.0 X
Track quality 100.0 %
Test CRC FA73A82E
Copy CRC FA73A82E
Accurately ripped (confidence 13) [3BC85790] (AR v2)
Copy OK

Track 5

Filename E:\RRCLtd Rip\05 - More Than A Party (Live).wav

Pre-gap length 0:00:00.47

Peak level 79.4 %
Extraction speed 4.2 X
Track quality 100.0 %
Test CRC 2ED0F300
Copy CRC 2ED0F300
Accurately ripped (confidence 13) [D2A0DB94] (AR v2)
Copy OK

Track 6

Filename E:\RRCLtd Rip\06 - A Question Of Time (Extended Remix).wav

Pre-gap length 0:00:01.13

Peak level 89.0 %
Extraction speed 4.6 X
Track quality 100.0 %
Test CRC CFEF4D49
Copy CRC CFEF4D49
Accurately ripped (confidence 14) [81BB915C] (AR v2)
Copy OK

Track 7

Filename E:\RRCLtd Rip\07 - Black Celebration (Black Tulip Mix).wav

Pre-gap length 0:00:01.55

Peak level 95.2 %
Extraction speed 5.0 X
Track quality 100.0 %
Test CRC 3B8C4E57
Copy CRC 3B8C4E57
Accurately ripped (confidence 14) [06EADF14] (AR v2)
Copy OK

Track 8

Filename E:\RRCLtd Rip\08 - A Question Of Time (New Town Mix , Live Remix).wav

Pre-gap length 0:00:01.03

Peak level 95.4 %
Extraction speed 5.5 X
Track quality 100.0 %
Test CRC 0FBA2D22
Copy CRC 0FBA2D22
Accurately ripped (confidence 13) [631D4705] (AR v2)
Copy OK


All tracks accurately ripped

No errors occurred

End of status report

–– CUETools DB Plugin V2.1.6

[CTDB TOCID: vYz2XjqKFJcxuPh1PxiO482GxxY-] found
Submit result: vYz2XjqKFJcxuPh1PxiO482GxxY- has been confirmed
Track | CTDB Status
1 | (88/93) Accurately ripped, or (4/93) differs in 674 samples @00:01:31
2 | (92/93) Accurately ripped
3 | (92/93) Accurately ripped
4 | (92/93) Accurately ripped
5 | (92/93) Accurately ripped
6 | (92/93) Accurately ripped
7 | (92/93) Accurately ripped
8 | (92/93) Accurately ripped


==== Log checksum BA5FE000D1646A49E728510DB2A485BD6BD113BF622CE2ADEA33CE23564A4663 ====

[CUETools log; Date: 09.06.2021 12:19:01; Version: 2.1.4]
Pregap length 00:00:32.
[CTDB TOCID: vYz2XjqKFJcxuPh1PxiO482GxxY-] found.
Track | CTDB Status
1 | (120/128) Accurately ripped, or (6/128) differs in 674 samples @00:01:31
2 | (126/128) Accurately ripped
3 | (126/128) Accurately ripped
4 | (126/128) Accurately ripped
5 | (126/128) Accurately ripped
6 | (126/128) Accurately ripped
7 | (126/128) Accurately ripped
8 | (126/128) Accurately ripped
[AccurateRip ID: 000d67f3-005bb352-660bb308] found.
Track [ CRC | V2 ] Status
01 [71a237c8|9b8ec51e] (016+016/134) Accurately ripped
02 [61914769|80976437] (016+016/135) Accurately ripped
03 [10a7dd92|c227f243] (016+016/135) Accurately ripped
04 [fed128ad|3bc85790] (016+016/134) Accurately ripped
05 [43cec315|d2a0db94] (016+016/134) Accurately ripped
06 [5c3f6323|81bb915c] (016+017/137) Accurately ripped
07 [1ef39002|06eadf14] (016+017/137) Accurately ripped
08 [915dcb89|631d4705] (017+016/136) Accurately ripped
Offsetted by 815:
01 [3c05acbb] (020/134) Accurately ripped
02 [f4f1be2e] (021/135) Accurately ripped
03 [1275e72d] (020/135) Accurately ripped
04 [d8041c70] (019/134) Accurately ripped
05 [75e1ba2a] (020/134) Accurately ripped
06 [b0a5c07b] (020/137) Accurately ripped
07 [8e642baa] (020/137) Accurately ripped
08 [7375a2d3] (020/136) Accurately ripped
Offsetted by 1493:
01 [734f4dc9] (004/134) Accurately ripped
02 [4ea6b14b] (004/135) Accurately ripped
03 [85865533] (004/135) Accurately ripped
04 [a3e43c13] (004/134) Accurately ripped
05 [7c0b42ec] (004/134) Accurately ripped
06 [a34e766b] (004/137) Accurately ripped
07 [e895dfba] (004/137) Accurately ripped
08 [2cb84597] (003/136) Accurately ripped
Offsetted by 2157:
01 [5a29ea01] (017/134) Accurately ripped
02 [c8919fa0] (018/135) Accurately ripped
03 [eab90913] (018/135) Accurately ripped
04 [2bdf074e] (018/134) Accurately ripped
05 [d7698df4] (018/134) Accurately ripped
06 [a9e00e2b] (018/137) Accurately ripped
07 [22b5effa] (018/137) Accurately ripped
08 [c02c20a7] (018/136) Accurately ripped
Offsetted by 274:
01 [97d5df92] (000/134) No match (V2 was not tested)
02 [c0677b4d] (003/135) Accurately ripped
03 [2e16a71d] (003/135) Accurately ripped
04 [81414980] (003/134) Accurately ripped
05 [9ba19fbb] (003/134) Accurately ripped
06 [1fbab1f3] (003/137) Accurately ripped
07 [49715f32] (003/137) Accurately ripped
08 [e3083495] (003/136) Accurately ripped

Track Peak [ CRC32 ] [W/O NULL] [ LOG ]
– 95,4 [9EB2A2D8] [E37CE66F]
01 85,0 [47858B8D] [96B484E3] CRC32
02 87,2 [DE9CBB9A] [D273B092] CRC32
03 76,1 [36BCCF61] [8BEDF2AC] CRC32
04 85,1 [FA73A82E] [9A35421A] CRC32
05 79,4 [2ED0F300] [728A8197] CRC32
06 89,0 [CFEF4D49] [BB3357D6] CRC32
07 95,2 [3B8C4E57] [D1BDB9A5] CRC32
08 95,4 [0FBA2D22] [D8B40CC7] CRC32

Depeche Mode - Singles 13-18 [6CD Box Set] (1991)

CD 6: Depeche Mode - Little 15 (1988)
EAC Rip | FLAC (tracks+.cue+log) - 62 MB | Covers - 27 MB
Genre: Synth-pop | RAR 3% Rec. | Label: Mute (CDLITTLE 15)

Tracklist:
01. Little 15
02. Stjarna
03. Sonata No. 14 In C#m (Moonlight Sonata)

Total time: 14:18

Exact Audio Copy V1.3 from 2. September 2016

EAC extraction logfile from 25. January 2020, 11:02

Depeche Mode / Little 15 (DMBX CD18)

Used drive : PIONEER DVD-RW DVR-221L Adapter: 1 ID: 0

Read mode : Secure
Utilize accurate stream : Yes
Defeat audio cache : Yes
Make use of C2 pointers : No

Read offset correction : 6
Overread into Lead-In and Lead-Out : No
Fill up missing offset samples with silence : Yes
Delete leading and trailing silent blocks : No
Null samples used in CRC calculations : Yes
Used interface : Native Win32 interface for Win NT & 2000
Gap handling : Appended to previous track

Used output format : User Defined Encoder
Selected bitrate : 1024 kBit/s
Quality : High
Add ID3 tag : No
Command line compressor : C:\Program Files (x86)\Exact Audio Copy\FLAC\FLAC.EXE
Additional command line options : -6 -V -T "COMMENT=ripped by RRC" -T "ARTIST=%artist%" -T "TITLE=%title%" -T "ALBUM=%albumtitle%" -T "DATE=%year%" -T "TRACKNUMBER=%tracknr%" -T "GENRE=%genre%" %source%


TOC of the extracted CD

Track | Start | Length | Start sector | End sector
––––––––––––––––––––––––––––-
1 | 0:00.30 | 4:16.35 | 30 | 19264
2 | 4:16.65 | 4:25.20 | 19265 | 39159
3 | 8:42.10 | 5:36.25 | 39160 | 64384


Track 1

Filename E:\RRCLtd Rip\01 - Little 15.wav

Pre-gap length 0:00:02.30

Peak level 87.6 %
Extraction speed 4.6 X
Track quality 100.0 %
Test CRC 3D88DDE3
Copy CRC 3D88DDE3
Accurately ripped (confidence 14) [5B762D36] (AR v2)
Copy OK

Track 2

Filename E:\RRCLtd Rip\02 - St Jarna.wav

Pre-gap length 0:00:01.60

Peak level 52.8 %
Extraction speed 4.3 X
Track quality 99.9 %
Test CRC 72270988
Copy CRC 72270988
Accurately ripped (confidence 14) [AB26D77D] (AR v2)
Copy OK

Track 3

Filename E:\RRCLtd Rip\03 - Sonata No.14 In C#m (Moonlight Sonata).wav

Pre-gap length 0:00:02.55

Peak level 57.0 %
Extraction speed 5.0 X
Track quality 99.9 %
Test CRC E017F262
Copy CRC E017F262
Accurately ripped (confidence 14) [F3E15CBF] (AR v2)
Copy OK


All tracks accurately ripped

No errors occurred

End of status report

–– CUETools DB Plugin V2.1.6

[CTDB TOCID: 2.I5Jz.AlqQRauttPOeDr7kjbI8-] found
Submit result: 2.I5Jz.AlqQRauttPOeDr7kjbI8- has been confirmed
Track | CTDB Status
1 | (31/31) Accurately ripped
2 | (31/31) Accurately ripped
3 | (31/31) Accurately ripped


==== Log checksum E5FC1B0E98F1BDE1D262FA469AD3155E425D5A599F8B37D7D3E467D5AC0C9E91 ====

[CUETools log; Date: 09.06.2021 12:19:33; Version: 2.1.4]
Pregap length 00:00:30.
[CTDB TOCID: 2.I5Jz.AlqQRauttPOeDr7kjbI8-] found.
Track | CTDB Status
1 | (44/44) Accurately ripped
2 | (44/44) Accurately ripped
3 | (44/44) Accurately ripped
[AccurateRip ID: 0001dfd8-00064f8c-1c035a03] found.
Track [ CRC | V2 ] Status
01 [71da1642|5b762d36] (16+17/33) Accurately ripped
02 [9be8913d|ab26d77d] (16+17/33) Accurately ripped
03 [7d8def3f|f3e15cbf] (17+17/34) Accurately ripped

Track Peak [ CRC32 ] [W/O NULL] [ LOG ]
– 87,6 [269AAA9C] [619D93DA]
01 87,6 [3D88DDE3] [A53A4FEF] CRC32
02 52,8 [72270988] [D1B23DB8] CRC32
03 57,0 [E017F262] [D2187B03] CRC32

Thanks to RRC

See also:
Depeche Mode - Singles 1-6 [6CD Box Set] (1991)
Depeche Mode - Singles 7-12 [6CD Box Set] (1991)
Depeche Mode - Songs Of Faith ...n: The 12" Singles (2020)