Tags
Language
Tags

Depeche Mode - Singles 19-24 [6CD Box Set] (2004)

Posted By: gribovar
Depeche Mode - Singles 19-24 [6CD Box Set] (2004)

Depeche Mode - Singles 19-24 [6CD Box Set] (2004)
EAC Rip | FLAC (tracks+.cue+log) - 1,99 GB | Covers - 266 MB
Genre: Synth-pop | RAR 3% Rec. | Label: Mute (DMBX4)

The fourth, fifth, and sixth box sets dedicated to compiling all of Depeche Mode's single releases were put out in 2004, 13 years after the first three originally appeared. All of these sets provide a convenience for hardcore fans since they provide each single in its own slim jewel case. Needless to say, those who bought the original singles as they were released will be flustered once again. The fourth set, covering 1987 through 1990, includes the "Strangelove," "Never Let Me Down Again," "Behind the Wheel," "Everything Counts (Live)," "Personal Jesus," and "Enjoy the Silence" singles. At this point in Depeche Mode's career, each A-side was being remixed several times over; when not filled out with live material or the occasional nonalbum track, the discs contain anywhere between a few and several alternate looks.

Depeche Mode - Singles 19-24 [6CD Box Set] (2004)

CD 1: Depeche Mode - Strangelove (1987)
EAC Rip | FLAC (tracks+.cue+log) - 278 MB | Covers - 33 MB
Genre: Synth-pop | RAR 3% Rec. | Label: Mute (CDBONG 13X)

Tracklist:
01. Strangelove
02. Pimpf
03. Strangelove (Maxi Mix)
04. Strangelove (Midi Mix)
05. Fpmip
06. Strangelove (Blind Mix)
07. Strangelove (Pain Mix)
08. Agent Orange

Total time: 41:07

Exact Audio Copy V0.99 prebeta 4 from 23. January 2008

EAC extraction logfile from 18. May 2009, 7:45

Depeche Mode / Strangelove

Used drive : Optiarc DVD RW AD-7173S Adapter: 2 ID: 0

Read mode : Secure
Utilize accurate stream : Yes
Defeat audio cache : Yes
Make use of C2 pointers : No

Read offset correction : 48
Overread into Lead-In and Lead-Out : No
Fill up missing offset samples with silence : Yes
Delete leading and trailing silent blocks : No
Null samples used in CRC calculations : Yes
Used interface : Native Win32 interface for Win NT & 2000
Gap handling : Appended to previous track

Used output format : User Defined Encoder
Selected bitrate : 128 kBit/s
Quality : High
Add ID3 tag : No
Command line compressor : C:\Program Files (x86)\Exact Audio Copy\Flac\flac.exe
Additional command line options : -8 -V -T "ARTIST=%a" -T "TITLE=%t" -T "ALBUM=%g" -T "DATE=%y" -T "TRACKNUMBER=%n" -T "GENRE=%m" -T "COMMENT=EAC FLAC -8" %s


TOC of the extracted CD

Track | Start | Length | Start sector | End sector
––––––––––––––––––––––––––––-
1 | 0:00.00 | 3:49.30 | 0 | 17204
2 | 3:49.30 | 4:34.58 | 17205 | 37812
3 | 8:24.13 | 6:35.10 | 37813 | 67447
4 | 14:59.23 | 1:40.60 | 67448 | 75007
5 | 16:40.08 | 5:22.52 | 75008 | 99209
6 | 22:02.60 | 6:34.48 | 99210 | 128807
7 | 28:37.33 | 7:21.42 | 128808 | 161924
8 | 35:59.00 | 5:07.53 | 161925 | 185002


Track 1

Filename D:\EAC\01. Depeche Mode – Strangelove.wav

Pre-gap length 0:00:02.00

Peak level 100.0 %
Track quality 100.0 %
Test CRC 6840C0B5
Copy CRC 6840C0B5
Accurately ripped (confidence 27) [C4DD56F0]
Copy OK

Track 2

Filename D:\EAC\02. Depeche Mode – Pimpf.wav

Pre-gap length 0:00:03.33

Peak level 100.0 %
Track quality 100.0 %
Test CRC 1C2391F7
Copy CRC 1C2391F7
Accurately ripped (confidence 28) [59A95CDC]
Copy OK

Track 3

Filename D:\EAC\03. Depeche Mode – Strangelove (Maxi Mix).wav

Pre-gap length 0:00:02.44

Peak level 100.0 %
Track quality 99.9 %
Test CRC 48F5FA5F
Copy CRC 48F5FA5F
Accurately ripped (confidence 28) [A38D920F]
Copy OK

Track 4

Filename D:\EAC\04. Depeche Mode – Strangelove (Midi Mix).wav

Pre-gap length 0:00:02.70

Peak level 100.0 %
Track quality 100.0 %
Test CRC 5884E127
Copy CRC 5884E127
Accurately ripped (confidence 28) [A9B219DF]
Copy OK

Track 5

Filename D:\EAC\05. Depeche Mode – Fpmip.wav

Pre-gap length 0:00:02.00

Peak level 100.0 %
Track quality 100.0 %
Test CRC 07AA0337
Copy CRC 07AA0337
Accurately ripped (confidence 28) [7FA02EA7]
Copy OK

Track 6

Filename D:\EAC\06. Depeche Mode – Strangelove (Blind Mix).wav

Pre-gap length 0:00:01.57

Peak level 100.0 %
Track quality 100.0 %
Test CRC 9964DE9A
Copy CRC 9964DE9A
Accurately ripped (confidence 28) [5954FE36]
Copy OK

Track 7

Filename D:\EAC\07. Depeche Mode – Strangelove (Pain Mix).wav

Pre-gap length 0:00:02.69

Peak level 100.0 %
Track quality 100.0 %
Test CRC 9F710B57
Copy CRC 9F710B57
Accurately ripped (confidence 29) [0667A2DA]
Copy OK

Track 8

Filename D:\EAC\08. Depeche Mode – Agent Orange.wav

Pre-gap length 0:00:02.29

Peak level 100.0 %
Track quality 100.0 %
Test CRC A7B241C8
Copy CRC A7B241C8
Accurately ripped (confidence 28) [138F9AB5]
Copy OK


All tracks accurately ripped

No errors occurred

End of status report

[CUETools log; Date: 13.06.2021 11:37:37; Version: 2.1.4]
[CTDB TOCID: xFRqMK4qO1GEReDYmiWRUPwV0u0-] found.
Track | CTDB Status
1 | (125/126) Accurately ripped
2 | (125/126) Accurately ripped
3 | (125/126) Accurately ripped
4 | (125/126) Accurately ripped
5 | (125/126) Accurately ripped
6 | (125/126) Accurately ripped
7 | (125/126) Accurately ripped
8 | (125/126) Accurately ripped
[AccurateRip ID: 000bc944-00501be9-4609a208] found.
Track [ CRC | V2 ] Status
01 [c4dd56f0|7c1f044d] (044+045/128) Accurately ripped
02 [59a95cdc|99fbecb3] (045+045/129) Accurately ripped
03 [a38d920f|ddb16693] (047+046/132) Accurately ripped
04 [a9b219df|8bb387db] (046+045/130) Accurately ripped
05 [7fa02ea7|6810b259] (046+046/131) Accurately ripped
06 [5954fe36|800ad234] (046+046/131) Accurately ripped
07 [0667a2da|ded72a54] (048+045/132) Accurately ripped
08 [138f9ab5|fca13b75] (046+046/131) Accurately ripped
Offsetted by -6:
01 [be647942] (014/128) Accurately ripped
02 [2896a902] (014/129) Accurately ripped
03 [6a83fa35] (014/132) Accurately ripped
04 [d10b94cb] (014/130) Accurately ripped
05 [a297de35] (014/131) Accurately ripped
06 [08b39a92] (014/131) Accurately ripped
07 [bc448090] (014/132) Accurately ripped
08 [bfddcadd] (014/131) Accurately ripped

Track Peak [ CRC32 ] [W/O NULL] [ LOG ]
– 100,0 [ED34D7AC] [330F48BB]
01 100,0 [6840C0B5] [C73825F2] CRC32
02 100,0 [1C2391F7] [3E407FDE] CRC32
03 100,0 [48F5FA5F] [D74C75DE] CRC32
04 100,0 [5884E127] [5058F1B5] CRC32
05 100,0 [07AA0337] [F438FFA5] CRC32
06 100,0 [9964DE9A] [A940D5A9] CRC32
07 100,0 [9F710B57] [32A55836] CRC32
08 100,0 [A7B241C8] [3C288604] CRC32

Depeche Mode - Singles 19-24 [6CD Box Set] (2004)

CD 2: Depeche Mode - Never Let Me Down Again (1987)
EAC Rip | FLAC (tracks+.cue+log) - 287 MB | Covers - 35 MB
Genre: Synth-pop | RAR 3% Rec. | Label: Mute (CDBONG 14X)

Tracklist:
01. Never Let Me Down Again
02. Pleasure, Little Treasure
03. Never Let Me Down Again (Split Mix)
04. Pleasure, Little Treasure (Glitter Mix)
05. Never Let Me Down Again (Aggro Mix)
06. Never Let Me Down Again (Tsangarides Mix)
07. Pleasure, Little Treasure (Join Mix)
08. To Have And To Hold (Spanish Taster)

Total time: 39:22

Exact Audio Copy V1.3 from 2. September 2016

EAC extraction logfile from 25. January 2020, 12:52

Depeche Mode / Never Let Me Down Again (DMBX CD20)

Used drive : PIONEER DVD-RW DVR-221L Adapter: 1 ID: 0

Read mode : Secure
Utilize accurate stream : Yes
Defeat audio cache : Yes
Make use of C2 pointers : No

Read offset correction : 6
Overread into Lead-In and Lead-Out : No
Fill up missing offset samples with silence : Yes
Delete leading and trailing silent blocks : No
Null samples used in CRC calculations : Yes
Used interface : Native Win32 interface for Win NT & 2000
Gap handling : Appended to previous track

Used output format : User Defined Encoder
Selected bitrate : 1024 kBit/s
Quality : High
Add ID3 tag : No
Command line compressor : C:\Program Files (x86)\Exact Audio Copy\FLAC\FLAC.EXE
Additional command line options : -6 -V -T "COMMENT=ripped by RRC" -T "ARTIST=%artist%" -T "TITLE=%title%" -T "ALBUM=%albumtitle%" -T "DATE=%year%" -T "TRACKNUMBER=%tracknr%" -T "GENRE=%genre%" %source%


TOC of the extracted CD

Track | Start | Length | Start sector | End sector
––––––––––––––––––––––––––––-
1 | 0:00.00 | 4:23.55 | 0 | 19779
2 | 4:23.55 | 2:53.28 | 19780 | 32782
3 | 7:17.08 | 9:36.22 | 32783 | 76004
4 | 16:53.30 | 5:37.20 | 76005 | 101299
5 | 22:30.50 | 4:56.60 | 101300 | 123559
6 | 27:27.35 | 4:24.30 | 123560 | 143389
7 | 31:51.65 | 4:54.55 | 143390 | 165494
8 | 36:46.45 | 2:36.02 | 165495 | 177196


Track 1

Filename E:\RRCLtd Rip\01 - Never Let Me Down Again.wav

Pre-gap length 0:00:02.00

Peak level 100.0 %
Extraction speed 2.9 X
Track quality 100.0 %
Test CRC 7001639F
Copy CRC 7001639F
Accurately ripped (confidence 34) [C7B66724] (AR v2)
Copy OK

Track 2

Filename E:\RRCLtd Rip\02 - Pleasure, Little Treasure.wav

Pre-gap length 0:00:01.57

Peak level 100.0 %
Extraction speed 2.9 X
Track quality 100.0 %
Test CRC 1162651A
Copy CRC 1162651A
Accurately ripped (confidence 34) [9138CBA0] (AR v2)
Copy OK

Track 3

Filename E:\RRCLtd Rip\03 - Never Let Me Down Again (Split Mix).wav

Pre-gap length 0:00:02.00

Peak level 100.0 %
Extraction speed 3.8 X
Track quality 100.0 %
Test CRC 6ECA0F36
Copy CRC 6ECA0F36
Accurately ripped (confidence 35) [44BA3AD1] (AR v2)
Copy OK

Track 4

Filename E:\RRCLtd Rip\04 - Pleasure, Little Treasure (Glitter Mix).wav

Pre-gap length 0:00:02.27

Peak level 100.0 %
Extraction speed 4.1 X
Track quality 100.0 %
Test CRC 6585E8C9
Copy CRC 6585E8C9
Accurately ripped (confidence 35) [06D01205] (AR v2)
Copy OK

Track 5

Filename E:\RRCLtd Rip\05 - Never Let Me Down Again (Aggro Mix).wav

Pre-gap length 0:00:02.50

Peak level 100.0 %
Extraction speed 3.5 X
Track quality 99.9 %
Test CRC 14B290DC
Copy CRC 14B290DC
Accurately ripped (confidence 35) [00FA9F5C] (AR v2)
Copy OK

Track 6

Filename E:\RRCLtd Rip\06 - Never Let Me Down Again (Tsangarides Mix).wav

Pre-gap length 0:00:02.62

Peak level 100.0 %
Extraction speed 4.5 X
Track quality 100.0 %
Test CRC F814076E
Copy CRC F814076E
Accurately ripped (confidence 35) [2FE859DE] (AR v2)
Copy OK

Track 7

Filename E:\RRCLtd Rip\07 - Pleasure, Little Treasure (Join Mix).wav

Pre-gap length 0:00:02.47

Peak level 100.0 %
Extraction speed 4.7 X
Track quality 100.0 %
Test CRC 6EF21C88
Copy CRC 6EF21C88
Accurately ripped (confidence 34) [5338B7BB] (AR v2)
Copy OK

Track 8

Filename E:\RRCLtd Rip\08 - To Have And To Hold (Spanish Taster).wav

Pre-gap length 0:00:01.20

Peak level 100.0 %
Extraction speed 3.1 X
Track quality 99.9 %
Test CRC AD587069
Copy CRC AD587069
Accurately ripped (confidence 35) [1D19FE1A] (AR v2)
Copy OK


All tracks accurately ripped

No errors occurred

End of status report

–– CUETools DB Plugin V2.1.6

[CTDB TOCID: 908Q4PO.ZxIoeVqFSBrtiu.TXUM-] found
Submit result: 908Q4PO.ZxIoeVqFSBrtiu.TXUM- has been confirmed
Track | CTDB Status
1 | (93/94) Accurately ripped
2 | (93/94) Accurately ripped
3 | (93/94) Accurately ripped
4 | (93/94) Accurately ripped
5 | (93/94) Accurately ripped
6 | (93/94) Accurately ripped
7 | (93/94) Accurately ripped
8 | (93/94) Accurately ripped


==== Log checksum 29DAF50B3D5E82477627280EBFDCF6442ACAF437BD5DF1534783EC56990A6C4C ====

[CUETools log; Date: 13.06.2021 11:23:04; Version: 2.1.4]
[CTDB TOCID: 908Q4PO.ZxIoeVqFSBrtiu.TXUM-] found.
Track | CTDB Status
1 | (127/128) Accurately ripped
2 | (127/128) Accurately ripped
3 | (126/128) Accurately ripped
4 | (126/128) Accurately ripped
5 | (126/128) Accurately ripped
6 | (126/128) Accurately ripped
7 | (126/128) Accurately ripped
8 | (126/128) Accurately ripped
[AccurateRip ID: 000ccf56-0055a2dd-5f093a08] found.
Track [ CRC | V2 ] Status
01 [e606f356|c7b66724] (045+047/132) Accurately ripped
02 [ed9fc3ea|9138cba0] (046+047/133) Accurately ripped
03 [e5b66501|44ba3ad1] (048+049/137) Accurately ripped
04 [12026ca6|06d01205] (046+049/134) Accurately ripped
05 [1c982e1f|00fa9f5c] (047+049/136) Accurately ripped
06 [59a2bb04|2fe859de] (047+049/136) Accurately ripped
07 [57ec19ee|5338b7bb] (047+047/134) Accurately ripped
08 [2fb2e037|1d19fe1a] (046+049/135) Accurately ripped
Offsetted by -6:
01 [69664c52] (014/132) Accurately ripped
02 [3cb8b05c] (014/133) Accurately ripped
03 [dcd68307] (014/137) Accurately ripped
04 [afd8e3ec] (014/134) Accurately ripped
05 [b7a2c21d] (014/136) Accurately ripped
06 [12fa44a0] (014/136) Accurately ripped
07 [13826b2c] (014/134) Accurately ripped
08 [e8a9ed2f] (014/135) Accurately ripped

Track Peak [ CRC32 ] [W/O NULL] [ LOG ]
– 100,0 [CB7CB9DD] [B03E8816]
01 100,0 [7001639F] [F32EE2BC] CRC32
02 100,0 [1162651A] [9DE941C5] CRC32
03 100,0 [6ECA0F36] [0A30E4C3] CRC32
04 100,0 [6585E8C9] [E08E9C56] CRC32
05 100,0 [14B290DC] [782FA9CB] CRC32
06 100,0 [F814076E] [9E112465] CRC32
07 100,0 [6EF21C88] [C9836A0E] CRC32
08 100,0 [AD587069] [4616CC2E] CRC32

Depeche Mode - Singles 19-24 [6CD Box Set] (2004)

CD 3: Depeche Mode - Behind The Wheel (1987)
EAC Rip | FLAC (tracks+.cue+log) - 322 MB | Covers - 29 MB
Genre: Synth-pop | RAR 3% Rec. | Label: Mute (CDBONG 15X)

Tracklist:
01. Behind The Wheel (Remix)
02. Route 66
03. Behind The Wheel (Shep Pettibone Remix)
04. Route 66 (Beatmasters Mix)
05. Behind The Wheel (Beatmasters Mix)
06. Route 66 (Casualty Mix)
07. Behind The Wheel (LP Mix)

Total time: 44:37

Exact Audio Copy V1.3 from 2. September 2016

EAC extraction logfile from 25. January 2020, 12:22

Depeche Mode / Behind The Wheel (DMBX CD21)

Used drive : PIONEER DVD-RW DVR-215 Adapter: 1 ID: 2

Read mode : Secure
Utilize accurate stream : Yes
Defeat audio cache : Yes
Make use of C2 pointers : No

Read offset correction : 48
Overread into Lead-In and Lead-Out : No
Fill up missing offset samples with silence : Yes
Delete leading and trailing silent blocks : No
Null samples used in CRC calculations : Yes
Used interface : Native Win32 interface for Win NT & 2000
Gap handling : Appended to previous track

Used output format : User Defined Encoder
Selected bitrate : 1024 kBit/s
Quality : High
Add ID3 tag : No
Command line compressor : C:\Program Files (x86)\Exact Audio Copy\FLAC\FLAC.EXE
Additional command line options : -6 -V -T "COMMENT=ripped by RRC" -T "ARTIST=%artist%" -T "TITLE=%title%" -T "ALBUM=%albumtitle%" -T "DATE=%year%" -T "TRACKNUMBER=%tracknr%" -T "GENRE=%genre%" %source%


TOC of the extracted CD

Track | Start | Length | Start sector | End sector
––––––––––––––––––––––––––––-
1 | 0:00.00 | 4:03.33 | 0 | 18257
2 | 4:03.33 | 4:11.33 | 18258 | 37115
3 | 8:14.66 | 5:57.22 | 37116 | 63912
4 | 14:12.13 | 6:22.03 | 63913 | 92565
5 | 20:34.16 | 8:01.02 | 92566 | 128642
6 | 28:35.18 | 10:41.60 | 128643 | 176777
7 | 39:17.03 | 5:20.22 | 176778 | 200799


Track 1

Filename E:\RRCLtd Rip\01 - Behind The Wheel (Remix).wav

Pre-gap length 0:00:02.00

Peak level 100.0 %
Extraction speed 4.6 X
Track quality 100.0 %
Test CRC DC994851
Copy CRC DC994851
Accurately ripped (confidence 31) [05E5C928] (AR v2)
Copy OK

Track 2

Filename E:\RRCLtd Rip\02 - Route 66.wav

Pre-gap length 0:00:01.50

Peak level 100.0 %
Extraction speed 5.1 X
Track quality 100.0 %
Test CRC 3EEE5D2B
Copy CRC 3EEE5D2B
Accurately ripped (confidence 32) [A38FE948] (AR v2)
Copy OK

Track 3

Filename E:\RRCLtd Rip\03 - Behind The Wheel (Shep Pettibone Remix).wav

Pre-gap length 0:00:02.71

Peak level 100.0 %
Extraction speed 5.9 X
Track quality 100.0 %
Test CRC 9828C08E
Copy CRC 9828C08E
Accurately ripped (confidence 33) [3027E3FD] (AR v2)
Copy OK

Track 4

Filename E:\RRCLtd Rip\04 - Route 66 (Beatmasters Mix).wav

Pre-gap length 0:00:02.15

Peak level 100.0 %
Extraction speed 6.4 X
Track quality 100.0 %
Test CRC 6C5C2DEF
Copy CRC 6C5C2DEF
Accurately ripped (confidence 33) [B30130CD] (AR v2)
Copy OK

Track 5

Filename E:\RRCLtd Rip\05 - Behind The Wheel (Beatmasters Mix).wav

Pre-gap length 0:00:02.16

Peak level 100.0 %
Extraction speed 6.7 X
Track quality 99.9 %
Test CRC D80C9B7B
Copy CRC D80C9B7B
Accurately ripped (confidence 33) [F850B06E] (AR v2)
Copy OK

Track 6

Filename E:\RRCLtd Rip\06 - Route 66 (Casualty Mix).wav

Pre-gap length 0:00:02.47

Peak level 100.0 %
Extraction speed 8.0 X
Track quality 100.0 %
Test CRC 9F6314F8
Copy CRC 9F6314F8
Accurately ripped (confidence 33) [1FCCE8A6] (AR v2)
Copy OK

Track 7

Filename E:\RRCLtd Rip\07 - Behind The Wheel (L.P. Mix).wav

Pre-gap length 0:00:01.45

Peak level 100.0 %
Extraction speed 7.9 X
Track quality 100.0 %
Test CRC CE8B033F
Copy CRC CE8B033F
Accurately ripped (confidence 32) [E17525D8] (AR v2)
Copy OK


All tracks accurately ripped

No errors occurred

End of status report

–– CUETools DB Plugin V2.1.6

[CTDB TOCID: MaiGcNe3XDavFII2IT.efYxeFTs-] found
Submit result: MaiGcNe3XDavFII2IT.efYxeFTs- has been confirmed
Track | CTDB Status
1 | (93/95) Accurately ripped
2 | (93/95) Accurately ripped
3 | (93/95) Accurately ripped
4 | (93/95) Accurately ripped
5 | (93/95) Accurately ripped
6 | (93/95) Accurately ripped
7 | (93/95) Accurately ripped


==== Log checksum 53E55871EF2F71A03061BBBE64D81F17222C4B4C3CB1F10EEA3A1C3A4F50D73C ====

[CUETools log; Date: 13.06.2021 11:23:39; Version: 2.1.4]
[CTDB TOCID: MaiGcNe3XDavFII2IT.efYxeFTs-] found.
Track | CTDB Status
1 | (124/126) Accurately ripped
2 | (124/126) Accurately ripped
3 | (124/126) Accurately ripped
4 | (124/126) Accurately ripped
5 | (124/126) Accurately ripped
6 | (124/126) Accurately ripped
7 | (124/126) Accurately ripped
[AccurateRip ID: 000af4fa-00446403-600a7507] found.
Track [ CRC | V2 ] Status
01 [15a67d55|05e5c928] (045+046/131) Accurately ripped
02 [495646ee|a38fe948] (043+046/129) Accurately ripped
03 [88427154|3027e3fd] (046+047/132) Accurately ripped
04 [f92ceecb|b30130cd] (044+048/132) Accurately ripped
05 [d498ff3b|f850b06e] (044+048/132) Accurately ripped
06 [d9b2dae3|1fcce8a6] (044+048/132) Accurately ripped
07 [5de65c08|e17525d8] (044+046/130) Accurately ripped
Offsetted by -6:
01 [ca44a301] (014/131) Accurately ripped
02 [fb334d5c] (014/129) Accurately ripped
03 [e76058cc] (013/132) Accurately ripped
04 [be082b77] (014/132) Accurately ripped
05 [e2da7059] (014/132) Accurately ripped
06 [b4cce821] (014/132) Accurately ripped
07 [b4a477e8] (014/130) Accurately ripped

Track Peak [ CRC32 ] [W/O NULL] [ LOG ]
– 100,0 [0F88C36A] [31E01AFD]
01 100,0 [DC994851] [350F4489] CRC32
02 100,0 [3EEE5D2B] [985022C1] CRC32
03 100,0 [9828C08E] [6D6449D7] CRC32
04 100,0 [6C5C2DEF] [1812BA61] CRC32
05 100,0 [D80C9B7B] [8893CA39] CRC32
06 100,0 [9F6314F8] [85F62E04] CRC32
07 100,0 [CE8B033F] [B1FF5560] CRC32

Depeche Mode - Singles 19-24 [6CD Box Set] (2004)

CD 4: Depeche Mode - Everything Counts Live (1989)
EAC Rip | FLAC (tracks+.cue+log) - 422 MB | Covers - 27 MB
Genre: Synth-pop | RAR 3% Rec. | Label: Mute (CDBONG 16X)

Tracklist:
01. Everything Counts (Live)
02. Nothing (Live)
03. Sacred (Live)
04. A Question Of Lust (Live)
05. Everything Counts (Tim Simenon/Mark Saunders Remix)
06. Nothing (Justin Strauss Mix)
07. Strangelove (Tim Simenon/Mark Saunders Remix)
08. Everything Counts (Absolut Mix)
09. Everything Counts (Original 1983 Mix)
10. Nothing (US 7" Mix)
11. Everything Counts (Reprise)

Total time: 57:35

Exact Audio Copy V1.3 from 2. September 2016

EAC extraction logfile from 25. January 2020, 12:06

Depeche Mode / Everything Counts Live (DMBX CD22)

Used drive : PIONEER DVD-RW DVR-215 Adapter: 1 ID: 2

Read mode : Secure
Utilize accurate stream : Yes
Defeat audio cache : Yes
Make use of C2 pointers : No

Read offset correction : 48
Overread into Lead-In and Lead-Out : No
Fill up missing offset samples with silence : Yes
Delete leading and trailing silent blocks : No
Null samples used in CRC calculations : Yes
Used interface : Native Win32 interface for Win NT & 2000
Gap handling : Appended to previous track

Used output format : User Defined Encoder
Selected bitrate : 1024 kBit/s
Quality : High
Add ID3 tag : No
Command line compressor : C:\Program Files (x86)\Exact Audio Copy\FLAC\FLAC.EXE
Additional command line options : -6 -V -T "COMMENT=ripped by RRC" -T "ARTIST=%artist%" -T "TITLE=%title%" -T "ALBUM=%albumtitle%" -T "DATE=%year%" -T "TRACKNUMBER=%tracknr%" -T "GENRE=%genre%" %source%


TOC of the extracted CD

Track | Start | Length | Start sector | End sector
––––––––––––––––––––––––––––-
1 | 0:00.00 | 5:48.08 | 0 | 26107
2 | 5:48.08 | 4:42.45 | 26108 | 47302
3 | 10:30.53 | 5:14.45 | 47303 | 70897
4 | 15:45.23 | 4:15.35 | 70898 | 90057
5 | 20:00.58 | 5:32.23 | 90058 | 114980
6 | 25:33.06 | 7:04.22 | 114981 | 146802
7 | 32:37.28 | 6:33.33 | 146803 | 176310
8 | 39:10.61 | 6:04.42 | 176311 | 203652
9 | 45:15.28 | 7:22.38 | 203653 | 236840
10 | 52:37.66 | 4:01.00 | 236841 | 254915
11 | 56:38.66 | 0:56.24 | 254916 | 259139


Track 1

Filename E:\RRCLtd Rip\01 - Everything Counts (Live).wav

Pre-gap length 0:00:02.00

Peak level 100.0 %
Extraction speed 4.9 X
Track quality 100.0 %
Test CRC 1FE69185
Copy CRC 1FE69185
Accurately ripped (confidence 35) [F1640168] (AR v2)
Copy OK

Track 2

Filename E:\RRCLtd Rip\02 - Nothing (Live).wav

Pre-gap length 0:00:00.55

Peak level 100.0 %
Extraction speed 5.4 X
Track quality 100.0 %
Test CRC 7BC40BF7
Copy CRC 7BC40BF7
Accurately ripped (confidence 36) [8F3826E6] (AR v2)
Copy OK

Track 3

Filename E:\RRCLtd Rip\03 - Sacred (Live).wav

Pre-gap length 0:00:00.18

Peak level 100.0 %
Extraction speed 6.0 X
Track quality 100.0 %
Test CRC DABDD88B
Copy CRC DABDD88B
Accurately ripped (confidence 36) [6B0BE517] (AR v2)
Copy OK

Track 4

Filename E:\RRCLtd Rip\04 - A Question Of Lust (Live).wav

Pre-gap length 0:00:00.63

Peak level 100.0 %
Extraction speed 6.2 X
Track quality 100.0 %
Test CRC 66034875
Copy CRC 66034875
Accurately ripped (confidence 36) [D2B9C444] (AR v2)
Copy OK

Track 5

Filename E:\RRCLtd Rip\05 - Everything Counts (Tim Simenon - Mark Saunders Remix).wav

Pre-gap length 0:00:02.03

Peak level 100.0 %
Extraction speed 6.2 X
Track quality 99.9 %
Test CRC 832B6288
Copy CRC 832B6288
Accurately ripped (confidence 37) [99E08FCF] (AR v2)
Copy OK

Track 6

Filename E:\RRCLtd Rip\06 - Nothing (Justin Strauss Mix).wav

Pre-gap length 0:00:01.38

Peak level 100.0 %
Extraction speed 6.8 X
Track quality 99.9 %
Test CRC 0F7F68A7
Copy CRC 0F7F68A7
Accurately ripped (confidence 36) [6023671B] (AR v2)
Copy OK

Track 7

Filename E:\RRCLtd Rip\07 - Strangelove (Tim Simenon - Mark Saunders Remix).wav

Pre-gap length 0:00:01.58

Peak level 100.0 %
Extraction speed 7.7 X
Track quality 100.0 %
Test CRC 357E5259
Copy CRC 357E5259
Accurately ripped (confidence 37) [77EAEF19] (AR v2)
Copy OK

Track 8

Filename E:\RRCLtd Rip\08 - Everything Counts (Absolut Mix).wav

Pre-gap length 0:00:01.38

Peak level 100.0 %
Extraction speed 7.4 X
Track quality 99.9 %
Test CRC CAC2B3EC
Copy CRC CAC2B3EC
Accurately ripped (confidence 37) [F9D4AD2C] (AR v2)
Copy OK

Track 9

Filename E:\RRCLtd Rip\09 - Everything Counts (Original 1983 Mix).wav

Pre-gap length 0:00:01.48

Peak level 100.0 %
Extraction speed 8.5 X
Track quality 100.0 %
Test CRC EAA85FB9
Copy CRC EAA85FB9
Accurately ripped (confidence 37) [BF510FE8] (AR v2)
Copy OK

Track 10

Filename E:\RRCLtd Rip\10 - Nothing (US 7'' Mix).wav

Pre-gap length 0:00:02.66

Peak level 100.0 %
Extraction speed 6.8 X
Track quality 99.9 %
Test CRC 9ED7F64C
Copy CRC 9ED7F64C
Accurately ripped (confidence 37) [7D91E30A] (AR v2)
Copy OK

Track 11

Filename E:\RRCLtd Rip\11 - Everything Counts (Reprise).wav

Pre-gap length 0:00:02.28

Peak level 100.0 %
Extraction speed 5.6 X
Track quality 100.0 %
Test CRC 5E362AEE
Copy CRC 5E362AEE
Accurately ripped (confidence 37) [FF209375] (AR v2)
Copy OK


All tracks accurately ripped

No errors occurred

End of status report

–– CUETools DB Plugin V2.1.6

[CTDB TOCID: CGgsu_QnlHun9mZJV.yzETAL7_c-] found
Submit result: CGgsu_QnlHun9mZJV.yzETAL7_c- has been confirmed
Track | CTDB Status
1 | (101/102) Accurately ripped
2 | (101/102) Accurately ripped
3 | (101/102) Accurately ripped
4 | (101/102) Accurately ripped
5 | (101/102) Accurately ripped
6 | (101/102) Accurately ripped
7 | (101/102) Accurately ripped
8 | (100/102) Accurately ripped
9 | (100/102) Accurately ripped
10 | (101/102) Accurately ripped
11 | (101/102) Accurately ripped


==== Log checksum B2162FCF8D8CEB4A10BC99A93C4224D8297701D8238179263925890EFA528945 ====

[CUETools log; Date: 13.06.2021 11:24:14; Version: 2.1.4]
[CTDB TOCID: CGgsu_QnlHun9mZJV.yzETAL7_c-] found.
Track | CTDB Status
1 | (127/128) Accurately ripped
2 | (127/128) Accurately ripped
3 | (127/128) Accurately ripped
4 | (127/128) Accurately ripped
5 | (127/128) Accurately ripped
6 | (127/128) Accurately ripped
7 | (127/128) Accurately ripped
8 | (126/128) Accurately ripped
9 | (126/128) Accurately ripped
10 | (127/128) Accurately ripped
11 | (127/128) Accurately ripped
[AccurateRip ID: 0018d384-00d83ba6-8a0d7f0b] found.
Track [ CRC | V2 ] Status
01 [b631f9fc|f1640168] (045+048/133) Accurately ripped
02 [1aef7d8e|8f3826e6] (046+049/135) Accurately ripped
03 [fbe49203|6b0be517] (046+048/134) Accurately ripped
04 [8f82b34e|d2b9c444] (046+048/134) Accurately ripped
05 [3c4c682f|99e08fcf] (047+050/137) Accurately ripped
06 [32dacdbe|6023671b] (046+048/134) Accurately ripped
07 [3a234a7a|77eaef19] (046+050/136) Accurately ripped
08 [dccc5acc|f9d4ad2c] (047+050/137) Accurately ripped
09 [8a373bd8|bf510fe8] (048+049/137) Accurately ripped
10 [4154cab7|7d91e30a] (047+049/136) Accurately ripped
11 [d357c275|ff209375] (046+049/135) Accurately ripped
Offsetted by -6:
01 [ab073764] (014/133) Accurately ripped
02 [2c8ecc8a] (014/135) Accurately ripped
03 [bef07301] (014/134) Accurately ripped
04 [ef59d802] (014/134) Accurately ripped
05 [9dfb3643] (014/137) Accurately ripped
06 [4a1ab5dc] (014/134) Accurately ripped
07 [40abcb70] (014/136) Accurately ripped
08 [5930006a] (014/137) Accurately ripped
09 [60f035fa] (014/137) Accurately ripped
10 [d4dad775] (014/136) Accurately ripped
11 [c1a061d5] (014/135) Accurately ripped

Track Peak [ CRC32 ] [W/O NULL] [ LOG ]
– 100,0 [AD77C6FC] [7E5A680B]
01 100,0 [1FE69185] [DB00E5A6] CRC32
02 100,0 [7BC40BF7] [6BF8CE19] CRC32
03 100,0 [DABDD88B] [29BFE9F8] CRC32
04 100,0 [66034875] [C5926ACE] CRC32
05 100,0 [832B6288] [959A6DC3] CRC32
06 100,0 [0F7F68A7] [9392B06F] CRC32
07 100,0 [357E5259] [771B97DA] CRC32
08 100,0 [CAC2B3EC] [54478BE1] CRC32
09 100,0 [EAA85FB9] [8651A681] CRC32
10 100,0 [9ED7F64C] [13B19EF1] CRC32
11 100,0 [5E362AEE] [569F77C5] CRC32

Depeche Mode - Singles 19-24 [6CD Box Set] (2004)

CD 5: Depeche Mode - Personal Jesus (1989)
EAC Rip | FLAC (tracks+.cue+log) - 305 MB | Covers - 31 MB
Genre: Synth-pop | RAR 3% Rec. | Label: Mute (CDBONG 17X)

Tracklist:
01. Personal Jesus
02. Dangerous
03. Personal Jesus (Acoustic)
04. Dangerous (Hazchemix Edit)
05. Personal Jesus (Holier Than Thou Approach)
06. Dangerous (Sensual Mix)
07. Personal Jesus (Pump Mix)
08. Personal Jesus (Telephone Stomp Mix)
09. Dangerous (Hazchemix)

Total time: 44:57

Exact Audio Copy V1.3 from 2. September 2016

EAC extraction logfile from 25. January 2020, 11:43

Depeche Mode / Personal Jesus (DMBX CD23)

Used drive : PIONEER DVD-RW DVR-215 Adapter: 1 ID: 2

Read mode : Secure
Utilize accurate stream : Yes
Defeat audio cache : Yes
Make use of C2 pointers : No

Read offset correction : 48
Overread into Lead-In and Lead-Out : No
Fill up missing offset samples with silence : Yes
Delete leading and trailing silent blocks : No
Null samples used in CRC calculations : Yes
Used interface : Native Win32 interface for Win NT & 2000
Gap handling : Appended to previous track

Used output format : User Defined Encoder
Selected bitrate : 1024 kBit/s
Quality : High
Add ID3 tag : No
Command line compressor : C:\Program Files (x86)\Exact Audio Copy\FLAC\FLAC.EXE
Additional command line options : -6 -V -T "COMMENT=ripped by RRC" -T "ARTIST=%artist%" -T "TITLE=%title%" -T "ALBUM=%albumtitle%" -T "DATE=%year%" -T "TRACKNUMBER=%tracknr%" -T "GENRE=%genre%" %source%


TOC of the extracted CD

Track | Start | Length | Start sector | End sector
––––––––––––––––––––––––––––-
1 | 0:00.00 | 3:46.00 | 0 | 16949
2 | 3:46.00 | 4:22.18 | 16950 | 36617
3 | 8:08.18 | 3:28.27 | 36618 | 52244
4 | 11:36.45 | 3:05.08 | 52245 | 66127
5 | 14:41.53 | 5:50.10 | 66128 | 92387
6 | 20:31.63 | 5:24.02 | 92388 | 116689
7 | 25:55.65 | 7:50.23 | 116690 | 151962
8 | 33:46.13 | 5:34.67 | 151963 | 177079
9 | 39:21.05 | 5:36.27 | 177080 | 202306


Track 1

Filename E:\RRCLtd Rip\01 - Personal Jesus.wav

Pre-gap length 0:00:02.00

Peak level 100.0 %
Extraction speed 4.5 X
Track quality 100.0 %
Test CRC BBF23210
Copy CRC BBF23210
Accurately ripped (confidence 33) [6FDB563F] (AR v2)
Copy OK

Track 2

Filename E:\RRCLtd Rip\02 - Dangerous.wav

Pre-gap length 0:00:01.35

Peak level 100.0 %
Extraction speed 4.6 X
Track quality 99.9 %
Test CRC A1938007
Copy CRC A1938007
Accurately ripped (confidence 35) [E97334DA] (AR v2)
Copy OK

Track 3

Filename E:\RRCLtd Rip\03 - Personal Jesus (Acoustic).wav

Pre-gap length 0:00:02.15

Peak level 100.0 %
Extraction speed 5.3 X
Track quality 100.0 %
Test CRC 4AF16021
Copy CRC 4AF16021
Accurately ripped (confidence 35) [EEE84B1E] (AR v2)
Copy OK

Track 4

Filename E:\RRCLtd Rip\04 - Dangerous (Hazchemix Edit).wav

Pre-gap length 0:00:02.01

Peak level 100.0 %
Extraction speed 5.5 X
Track quality 100.0 %
Test CRC 9CF329E2
Copy CRC 9CF329E2
Accurately ripped (confidence 35) [DCF821D4] (AR v2)
Copy OK

Track 5

Filename E:\RRCLtd Rip\05 - Personal Jesus (Holier Than Thou Approach).wav

Pre-gap length 0:00:02.18

Peak level 100.0 %
Extraction speed 6.4 X
Track quality 100.0 %
Test CRC C055D12C
Copy CRC C055D12C
Accurately ripped (confidence 35) [587CFB44] (AR v2)
Copy OK

Track 6

Filename E:\RRCLtd Rip\06 - Dangerous (Sensual Mix).wav

Pre-gap length 0:00:02.33

Peak level 100.0 %
Extraction speed 6.2 X
Track quality 99.9 %
Test CRC 36FD76DA
Copy CRC 36FD76DA
Accurately ripped (confidence 35) [15483C5C] (AR v2)
Copy OK

Track 7

Filename E:\RRCLtd Rip\07 - Personal Jesus (Pump Mix).wav

Pre-gap length 0:00:01.55

Peak level 100.0 %
Extraction speed 7.6 X
Track quality 100.0 %
Test CRC 9E8AB08F
Copy CRC 9E8AB08F
Accurately ripped (confidence 35) [C3525315] (AR v2)
Copy OK

Track 8

Filename E:\RRCLtd Rip\08 - Personal Jesus (Telephone Stomp Mix).wav

Pre-gap length 0:00:02.08

Peak level 100.0 %
Extraction speed 7.7 X
Track quality 100.0 %
Test CRC 3DB743FF
Copy CRC 3DB743FF
Accurately ripped (confidence 35) [58C99EC4] (AR v2)
Copy OK

Track 9

Filename E:\RRCLtd Rip\09 - Dangerous (Hazchemix).wav

Pre-gap length 0:00:01.62

Peak level 100.0 %
Extraction speed 7.9 X
Track quality 100.0 %
Test CRC DAB456D2
Copy CRC DAB456D2
Accurately ripped (confidence 35) [B9FF563D] (AR v2)
Copy OK


All tracks accurately ripped

No errors occurred

End of status report

–– CUETools DB Plugin V2.1.6

[CTDB TOCID: oa9SerenQ7S8Yqznr3Gm8uS8sl0-] found
Submit result: oa9SerenQ7S8Yqznr3Gm8uS8sl0- has been confirmed
Track | CTDB Status
1 | (93/94) Accurately ripped
2 | (93/94) Accurately ripped
3 | (93/94) Accurately ripped
4 | (93/94) Accurately ripped
5 | (93/94) Accurately ripped
6 | (92/94) Accurately ripped
7 | (93/94) Accurately ripped
8 | (93/94) Accurately ripped
9 | (93/94) Accurately ripped


==== Log checksum 1222F246A4C73B42776780138E1F639D386D65BC98ED602F7B6271A0EA84F57C ====

[CUETools log; Date: 13.06.2021 11:24:47; Version: 2.1.4]
[CTDB TOCID: oa9SerenQ7S8Yqznr3Gm8uS8sl0-] found.
Track | CTDB Status
1 | (124/125) Accurately ripped
2 | (124/125) Accurately ripped
3 | (124/125) Accurately ripped
4 | (124/125) Accurately ripped
5 | (124/125) Accurately ripped
6 | (123/125) Accurately ripped
7 | (124/125) Accurately ripped
8 | (124/125) Accurately ripped
9 | (124/125) Accurately ripped
[AccurateRip ID: 000debf1-00691673-7a0a8909] found.
Track [ CRC | V2 ] Status
01 [9ad14ea9|6fdb563f] (045+045/130) Accurately ripped
02 [f3ade3a6|e97334da] (045+047/132) Accurately ripped
03 [df4b0250|eee84b1e] (046+048/134) Accurately ripped
04 [cc258d8c|dcf821d4] (046+047/133) Accurately ripped
05 [a7cb9908|587cfb44] (046+048/134) Accurately ripped
06 [dcbc5863|15483c5c] (046+048/134) Accurately ripped
07 [270752b6|c3525315] (047+048/135) Accurately ripped
08 [dafa08f6|58c99ec4] (046+048/134) Accurately ripped
09 [bf75b47e|b9ff563d] (046+048/134) Accurately ripped
Offsetted by -6:
01 [24cabdb3] (014/130) Accurately ripped
02 [acd44916] (014/132) Accurately ripped
03 [638196da] (014/134) Accurately ripped
04 [8312c31c] (014/133) Accurately ripped
05 [2691f7d0] (014/134) Accurately ripped
06 [d6703595] (014/134) Accurately ripped
07 [6f52f3e8] (014/135) Accurately ripped
08 [eddbd1aa] (014/134) Accurately ripped
09 [9aa25502] (014/134) Accurately ripped

Track Peak [ CRC32 ] [W/O NULL] [ LOG ]
– 100,0 [763C1C1B] [BE95BA7B]
01 100,0 [BBF23210] [0D8BC749] CRC32
02 100,0 [A1938007] [0BC40B67] CRC32
03 100,0 [4AF16021] [DA5A3A3C] CRC32
04 100,0 [9CF329E2] [CA6F6A4B] CRC32
05 100,0 [C055D12C] [FF225D5A] CRC32
06 100,0 [36FD76DA] [64DA8B8F] CRC32
07 100,0 [9E8AB08F] [F448A888] CRC32
08 100,0 [3DB743FF] [59207C17] CRC32
09 100,0 [DAB456D2] [BA6FD1CB] CRC32

Depeche Mode - Singles 19-24 [6CD Box Set] (2004)

CD 6: Depeche Mode - Enjoy The Silence (1990)
EAC Rip | FLAC (tracks+.cue+log) - 381 MB | Covers - 26 MB
Genre: Synth-pop | RAR 3% Rec. | Label: Mute (CDLITTLE 18X)

Tracklist:
01. Enjoy The Silence (7" Version)
02. Memphisto
03. Enjoy The Silence (Hands And Feet Mix 3" Edit)
04. Enjoy The Silence (Ecstatic Dub Edit)
05. Sibeling (Single Version)
06. Enjoy The Silence (Bass Line)
07. Enjoy The Silence (Harmonium)
08. Enjoy The Silence (Ricki Tik Tik Mix)
09. Enjoy The Silence (The Quad: Final Mix)

Total time: 55:59

Exact Audio Copy V1.3 from 2. September 2016

EAC extraction logfile from 25. January 2020, 13:11

Depeche Mode / Enjoy The Silence (DMBX CD24)

Used drive : PIONEER DVD-RW DVR-215 Adapter: 1 ID: 2

Read mode : Secure
Utilize accurate stream : Yes
Defeat audio cache : Yes
Make use of C2 pointers : No

Read offset correction : 48
Overread into Lead-In and Lead-Out : No
Fill up missing offset samples with silence : Yes
Delete leading and trailing silent blocks : No
Null samples used in CRC calculations : Yes
Used interface : Native Win32 interface for Win NT & 2000
Gap handling : Appended to previous track

Used output format : User Defined Encoder
Selected bitrate : 1024 kBit/s
Quality : High
Add ID3 tag : No
Command line compressor : C:\Program Files (x86)\Exact Audio Copy\FLAC\FLAC.EXE
Additional command line options : -6 -V -T "COMMENT=ripped by RRC" -T "ARTIST=%artist%" -T "TITLE=%title%" -T "ALBUM=%albumtitle%" -T "DATE=%year%" -T "TRACKNUMBER=%tracknr%" -T "GENRE=%genre%" %source%


TOC of the extracted CD

Track | Start | Length | Start sector | End sector
––––––––––––––––––––––––––––-
1 | 0:00.00 | 4:18.30 | 0 | 19379
2 | 4:18.30 | 4:03.43 | 19380 | 37647
3 | 8:21.73 | 6:41.35 | 37648 | 67757
4 | 15:03.33 | 5:44.47 | 67758 | 93604
5 | 20:48.05 | 3:18.70 | 93605 | 108524
6 | 24:07.00 | 7:42.15 | 108525 | 143189
7 | 31:49.15 | 2:43.65 | 143190 | 155479
8 | 34:33.05 | 5:58.35 | 155480 | 182364
9 | 40:31.40 | 15:27.47 | 182365 | 251936


Track 1

Filename E:\RRCLtd Rip\01 - Enjoy The Silence (7'' Version).wav

Pre-gap length 0:00:02.00

Peak level 100.0 %
Extraction speed 3.1 X
Track quality 99.8 %
Test CRC F3635B35
Copy CRC F3635B35
Accurately ripped (confidence 36) [B817EC06] (AR v2)
Copy OK

Track 2

Filename E:\RRCLtd Rip\02 - Memphisto.wav

Pre-gap length 0:00:02.17

Peak level 100.0 %
Extraction speed 5.2 X
Track quality 100.0 %
Test CRC 7B44AE15
Copy CRC 7B44AE15
Accurately ripped (confidence 37) [86BBB6D8] (AR v2)
Copy OK

Track 3

Filename E:\RRCLtd Rip\03 - Enjoy The Silence (Hands and Feet Mix).wav

Pre-gap length 0:00:02.03

Peak level 100.0 %
Extraction speed 6.0 X
Track quality 100.0 %
Test CRC 67320ECA
Copy CRC 67320ECA
Accurately ripped (confidence 38) [A7EBC8C8] (AR v2)
Copy OK

Track 4

Filename E:\RRCLtd Rip\04 - Enjoy The Silence (Ecstatic dub).wav

Pre-gap length 0:00:01.23

Peak level 100.0 %
Extraction speed 5.7 X
Track quality 99.9 %
Test CRC D33D7B9E
Copy CRC D33D7B9E
Accurately ripped (confidence 37) [E5359A51] (AR v2)
Copy OK

Track 5

Filename E:\RRCLtd Rip\05 - Sibeling.wav

Pre-gap length 0:00:01.25

Peak level 100.0 %
Extraction speed 6.3 X
Track quality 100.0 %
Test CRC 82E28819
Copy CRC 82E28819
Accurately ripped (confidence 37) [FD6AB0A1] (AR v2)
Copy OK

Track 6

Filename E:\RRCLtd Rip\06 - Enjoy The Silence (Bass Line).wav

Pre-gap length 0:00:03.00

Peak level 100.0 %
Extraction speed 7.3 X
Track quality 100.0 %
Test CRC DE5EF644
Copy CRC DE5EF644
Accurately ripped (confidence 37) [62D2C525] (AR v2)
Copy OK

Track 7

Filename E:\RRCLtd Rip\07 - Enjoy The Silence (Harmonium).wav

Pre-gap length 0:00:01.22

Peak level 100.0 %
Extraction speed 6.8 X
Track quality 100.0 %
Test CRC 17F8EA91
Copy CRC 17F8EA91
Accurately ripped (confidence 37) [0CDECA0E] (AR v2)
Copy OK

Track 8

Filename E:\RRCLtd Rip\08 - Enjoy The Silence (Ricki Tik Tik Mix).wav

Pre-gap length 0:00:01.60

Peak level 100.0 %
Extraction speed 7.7 X
Track quality 100.0 %
Test CRC 0A152C97
Copy CRC 0A152C97
Accurately ripped (confidence 37) [1CC59F92] (AR v2)
Copy OK

Track 9

Filename E:\RRCLtd Rip\09 - Enjoy The Silence (The Quad- Final Mix).wav

Pre-gap length 0:00:02.07

Peak level 100.0 %
Extraction speed 8.6 X
Track quality 99.9 %
Test CRC 6D6BAFFC
Copy CRC 6D6BAFFC
Accurately ripped (confidence 37) [D3D54688] (AR v2)
Copy OK


All tracks accurately ripped

No errors occurred

End of status report

–– CUETools DB Plugin V2.1.6

[CTDB TOCID: 9tfUMrxSNhDRIcKa8abjtpG2ZSQ-] found
Submit result: already submitted
Track | CTDB Status
1 | (100/101) Accurately ripped
2 | (100/101) Accurately ripped
3 | (100/101) Accurately ripped
4 | (100/101) Accurately ripped
5 | (100/101) Accurately ripped
6 | (100/101) Accurately ripped
7 | (100/101) Accurately ripped
8 | (100/101) Accurately ripped
9 | (100/101) Accurately ripped


==== Log checksum 471081F1E2025B65231893FB7DCDE0144C3CF2FD9E725EE094E93C7A0ACEDB91 ====

[CUETools log; Date: 13.06.2021 11:25:25; Version: 2.1.4]
[CTDB TOCID: 9tfUMrxSNhDRIcKa8abjtpG2ZSQ-] found.
Track | CTDB Status
1 | (134/135) Accurately ripped
2 | (134/135) Accurately ripped
3 | (134/135) Accurately ripped
4 | (134/135) Accurately ripped
5 | (134/135) Accurately ripped
6 | (134/135) Accurately ripped
7 | (134/135) Accurately ripped
8 | (134/135) Accurately ripped
9 | (134/135) Accurately ripped
[AccurateRip ID: 00102c30-007949c1-600d1f09] found.
Track [ CRC | V2 ] Status
01 [5ada13a6|b817ec06] (049+049/138) Accurately ripped
02 [eab31572|86bbb6d8] (047+049/136) Accurately ripped
03 [f4fc8062|a7ebc8c8] (049+051/140) Accurately ripped
04 [0fb0d3a8|e5359a51] (048+049/137) Accurately ripped
05 [11574954|fd6ab0a1] (047+049/136) Accurately ripped
06 [1b139231|62d2c525] (048+049/137) Accurately ripped
07 [47b886d5|0cdeca0e] (048+049/137) Accurately ripped
08 [bbd61682|1cc59f92] (048+050/138) Accurately ripped
09 [0a04bdeb|d3d54688] (049+050/139) Accurately ripped
Offsetted by -6:
01 [ed5a6994] (014/138) Accurately ripped
02 [552a6b56] (014/136) Accurately ripped
03 [9bdc084e] (014/140) Accurately ripped
04 [6f1baa0c] (014/137) Accurately ripped
05 [754a8c4e] (014/136) Accurately ripped
06 [a035ebfd] (014/137) Accurately ripped
07 [4e1cf3e3] (014/137) Accurately ripped
08 [74550d34] (014/138) Accurately ripped
09 [14e248c9] (014/139) Accurately ripped

Track Peak [ CRC32 ] [W/O NULL] [ LOG ]
– 100,0 [FE1D7499] [5EFD3D1F]
01 100,0 [F3635B35] [828E7287] CRC32
02 100,0 [7B44AE15] [47D46474] CRC32
03 100,0 [67320ECA] [75B5FA5F] CRC32
04 100,0 [D33D7B9E] [50B3FC54] CRC32
05 100,0 [82E28819] [D425A2F0] CRC32
06 100,0 [DE5EF644] [BD2EF974] CRC32
07 100,0 [17F8EA91] [531BA41C] CRC32
08 100,0 [0A152C97] [EF7046E7] CRC32
09 100,0 [6D6BAFFC] [0B8F9EB5] CRC32

Thanks to RRC

See also:
Depeche Mode - Singles 1-6 [6CD Box Set] (1991)
Depeche Mode - Singles 7-12 [6CD Box Set] (1991)
Depeche Mode - Singles 13-18 [6CD Box Set] (1991)
Depeche Mode - Songs Of Faith ...n: The 12" Singles (2020)