Tags
Language
Tags

Depeche Mode - Singles 25-30 [6CD Box Set] (2004)

Posted By: gribovar
Depeche Mode - Singles 25-30 [6CD Box Set] (2004)

Depeche Mode - Singles 25-30 [6CD Box Set] (2004)
EAC Rip | FLAC (tracks+.cue+log) - 2,38 GB | Covers - 239 MB
Genre: Synth-pop | RAR 3% Rec. | Label: Mute (DMBX5)

The fourth, fifth, and sixth box sets dedicated to compiling all of Depeche Mode's single releases were put out in 2004, 13 years after the first three originally appeared. All of these sets provide a convenience for hardcore fans since they provide each single in its own slim jewel case. Needless to say, those who bought the original singles as they were released will be flustered once again. The fifth set, covering 1990 through 1994, includes the "Policy of Truth," "World in My Eyes," "I Feel You," "Walking in My Shoes," "Condemnation," and "In Your Room" singles. As usual, numerous live excerpts are provided, and remix duties are performed by the likes of Butch Vig, Brian Eno, François Kevorkian, Portishead, Jon Marsh, and William Orbit.

Depeche Mode - Singles 25-30 [6CD Box Set] (2004)

CD 1: Depeche Mode - Policy Of Truth (1990)
EAC Rip | FLAC (tracks+.cue+log) - 336 MB | Covers - 23 MB
Genre: Synth-pop | RAR 3% Rec. | Label: Mute (CDBONG 19X)

Tracklist:
01. Policy Of Truth (7" Version)
02. Kaleid (7" Version)
03. Policy Of Truth (Beat Box)
04. Policy Of Truth (Capitol Mix)
05. Kaleid (When Worlds Mix)
06. Policy Of Truth (Trancentral Mix)
07. Kaleid (Remix)
08. Policy Of Truth (Pavlov's Dub)

Total time: 46:45

Exact Audio Copy V1.3 from 2. September 2016

EAC extraction logfile from 25. January 2020, 14:43

Depeche Mode / Policy Of Truth (DMBX CD25)

Used drive : PIONEER DVD-RW DVR-215 Adapter: 1 ID: 2

Read mode : Secure
Utilize accurate stream : Yes
Defeat audio cache : Yes
Make use of C2 pointers : No

Read offset correction : 48
Overread into Lead-In and Lead-Out : No
Fill up missing offset samples with silence : Yes
Delete leading and trailing silent blocks : No
Null samples used in CRC calculations : Yes
Used interface : Native Win32 interface for Win NT & 2000
Gap handling : Appended to previous track

Used output format : User Defined Encoder
Selected bitrate : 1024 kBit/s
Quality : High
Add ID3 tag : No
Command line compressor : C:\Program Files (x86)\Exact Audio Copy\FLAC\FLAC.EXE
Additional command line options : -6 -V -T "COMMENT=ripped by RRC" -T "ARTIST=%artist%" -T "TITLE=%title%" -T "ALBUM=%albumtitle%" -T "DATE=%year%" -T "TRACKNUMBER=%tracknr%" -T "GENRE=%genre%" %source%


TOC of the extracted CD

Track | Start | Length | Start sector | End sector
––––––––––––––––––––––––––––-
1 | 0:00.00 | 5:11.25 | 0 | 23349
2 | 5:11.25 | 4:18.45 | 23350 | 42744
3 | 9:29.70 | 7:13.43 | 42745 | 75262
4 | 16:43.38 | 8:02.12 | 75263 | 111424
5 | 24:45.50 | 5:23.20 | 111425 | 135669
6 | 30:08.70 | 5:55.28 | 135670 | 162322
7 | 36:04.23 | 4:37.52 | 162323 | 183149
8 | 40:42.00 | 6:02.60 | 183150 | 210359


Track 1

Filename E:\RRCLtd Rip\01 - Policy Of Truth (7'' Version).wav

Pre-gap length 0:00:02.00

Peak level 100.0 %
Extraction speed 4.8 X
Track quality 100.0 %
Test CRC EF8CC8C0
Copy CRC EF8CC8C0
Accurately ripped (confidence 30) [CD161130] (AR v2)
Copy OK

Track 2

Filename E:\RRCLtd Rip\02 - Kaleid (7'' Version).wav

Pre-gap length 0:00:01.52

Peak level 100.0 %
Extraction speed 4.7 X
Track quality 99.9 %
Test CRC 324BF32F
Copy CRC 324BF32F
Accurately ripped (confidence 30) [2016AEF9] (AR v2)
Copy OK

Track 3

Filename E:\RRCLtd Rip\03 - Policy Of Truth (Beat Box).wav

Pre-gap length 0:00:01.15

Peak level 100.0 %
Extraction speed 5.6 X
Track quality 99.9 %
Test CRC C999666E
Copy CRC C999666E
Accurately ripped (confidence 31) [9BB1F420] (AR v2)
Copy OK

Track 4

Filename E:\RRCLtd Rip\04 - Policy Of Truth (Capitol Mix).wav

Pre-gap length 0:00:00.43

Peak level 100.0 %
Extraction speed 6.8 X
Track quality 100.0 %
Test CRC C1736335
Copy CRC C1736335
Accurately ripped (confidence 32) [15B73B11] (AR v2)
Copy OK

Track 5

Filename E:\RRCLtd Rip\05 - Kaleid (When Worlds Mix).wav

Pre-gap length 0:00:02.43

Peak level 100.0 %
Extraction speed 7.0 X
Track quality 100.0 %
Test CRC F8468780
Copy CRC F8468780
Accurately ripped (confidence 32) [8CEDA61A] (AR v2)
Copy OK

Track 6

Filename E:\RRCLtd Rip\06 - Policy Of Truth (Trancentral Mix).wav

Pre-gap length 0:00:02.07

Peak level 100.0 %
Extraction speed 7.4 X
Track quality 100.0 %
Test CRC 1679722D
Copy CRC 1679722D
Accurately ripped (confidence 33) [32E09D5A] (AR v2)
Copy OK

Track 7

Filename E:\RRCLtd Rip\07 - Kaleid (Remix).wav

Pre-gap length 0:00:02.18

Peak level 100.0 %
Extraction speed 7.7 X
Track quality 100.0 %
Test CRC CFE21A11
Copy CRC CFE21A11
Accurately ripped (confidence 31) [385C9EEF] (AR v2)
Copy OK

Track 8

Filename E:\RRCLtd Rip\08 - Policy Of Truth (Pavlov's Dub).wav

Pre-gap length 0:00:01.52

Peak level 100.0 %
Extraction speed 8.0 X
Track quality 100.0 %
Test CRC 30074E7F
Copy CRC 30074E7F
Accurately ripped (confidence 32) [C570CBA1] (AR v2)
Copy OK


All tracks accurately ripped

No errors occurred

End of status report

–– CUETools DB Plugin V2.1.6

[CTDB TOCID: UBzrpB87vlFGxsTHUWvv978MRbY-] found
Submit result: UBzrpB87vlFGxsTHUWvv978MRbY- has been confirmed
Track | CTDB Status
1 | (88/89) Accurately ripped
2 | (88/89) Accurately ripped
3 | (88/89) Accurately ripped
4 | (88/89) Accurately ripped
5 | (88/89) Accurately ripped
6 | (88/89) Accurately ripped
7 | (88/89) Accurately ripped
8 | (88/89) Accurately ripped


==== Log checksum C179E4F6F5E359ADFBCA88DC71C2DE9D11304FCD5DA05A3D518FDEC9C0C8CDFC ====

[CUETools log; Date: 18.06.2021 21:37:27; Version: 2.1.4]
[CTDB TOCID: UBzrpB87vlFGxsTHUWvv978MRbY-] found.
Track | CTDB Status
1 | (122/123) Accurately ripped
2 | (122/123) Accurately ripped
3 | (122/123) Accurately ripped
4 | (122/123) Accurately ripped
5 | (122/123) Accurately ripped
6 | (122/123) Accurately ripped
7 | (122/123) Accurately ripped
8 | (122/123) Accurately ripped
[AccurateRip ID: 000e689e-0060c4ca-570af408] found.
Track [ CRC | V2 ] Status
01 [cd35fd3f|cd161130] (046+041/120) Accurately ripped
02 [10db3816|2016aef9] (047+041/121) Accurately ripped
03 [7b45d35e|9bb1f420] (048+042/123) Accurately ripped
04 [d8cf8202|15b73b11] (047+043/123) Accurately ripped
05 [6e9dcde0|8ceda61a] (046+043/122) Accurately ripped
06 [b7776c65|32e09d5a] (046+044/123) Accurately ripped
07 [33026523|385c9eef] (046+042/121) Accurately ripped
08 [ea49b2a4|c570cba1] (046+043/122) Accurately ripped
Offsetted by -6:
01 [bd859181] (011/120) Accurately ripped
02 [70df0648] (011/121) Accurately ripped
03 [b48f651a] (011/123) Accurately ripped
04 [ff3c9f5c] (011/123) Accurately ripped
05 [41634686] (011/122) Accurately ripped
06 [fd0e99f5] (011/123) Accurately ripped
07 [7f7c1099] (011/121) Accurately ripped
08 [a92b2468] (011/122) Accurately ripped

Track Peak [ CRC32 ] [W/O NULL] [ LOG ]
– 100,0 [E30D02BC] [6FA586FD]
01 100,0 [EF8CC8C0] [757F9476] CRC32
02 100,0 [324BF32F] [F652015B] CRC32
03 100,0 [C999666E] [EA55015A] CRC32
04 100,0 [C1736335] [3A6C67C9] CRC32
05 100,0 [F8468780] [3231F5F3] CRC32
06 100,0 [1679722D] [6D6FC559] CRC32
07 100,0 [CFE21A11] [BB913A32] CRC32
08 100,0 [30074E7F] [7EE3354D] CRC32

Depeche Mode - Singles 25-30 [6CD Box Set] (2004)

CD 2: Depeche Mode - World In My Eyes (1990)
EAC Rip | FLAC (tracks+.cue+log) - 496 MB | Covers - 30 MB
Genre: Synth-pop | RAR 3% Rec. | Label: Mute (CDBONG 20X)

Tracklist:
01. World In My Eyes (7" Version)
02. Happiest Girl (Jack Mix)
03. Sea Of Sin (Tonal Mix)
04. World In My Eyes (Oil Tank Mix)
05. Happiest Girl (Kiss-A-Mix)
06. Sea Of Sin (Sensoria)
07. World In My Eyes (Dub In My Eyes)
08. World In My Eyes (Mode To Joy)
09. Happiest Girl (The Pulsating Orbital Mix)
10. World In My Eyes (Mayhem Mode)
11. Happiest Girl (The Pulsating Orbital Vocal Mix)

Total time: 01:06:48

Exact Audio Copy V1.3 from 2. September 2016

EAC extraction logfile from 25. January 2020, 16:22

Depeche Mode / World In My Eyes (DMBX CD26)

Used drive : PIONEER DVD-RW DVR-215 Adapter: 1 ID: 2

Read mode : Secure
Utilize accurate stream : Yes
Defeat audio cache : Yes
Make use of C2 pointers : No

Read offset correction : 48
Overread into Lead-In and Lead-Out : No
Fill up missing offset samples with silence : Yes
Delete leading and trailing silent blocks : No
Null samples used in CRC calculations : Yes
Used interface : Native Win32 interface for Win NT & 2000
Gap handling : Appended to previous track

Used output format : User Defined Encoder
Selected bitrate : 1024 kBit/s
Quality : High
Add ID3 tag : No
Command line compressor : C:\Program Files (x86)\Exact Audio Copy\FLAC\FLAC.EXE
Additional command line options : -6 -V -T "COMMENT=ripped by RRC" -T "ARTIST=%artist%" -T "TITLE=%title%" -T "ALBUM=%albumtitle%" -T "DATE=%year%" -T "TRACKNUMBER=%tracknr%" -T "GENRE=%genre%" %source%


TOC of the extracted CD

Track | Start | Length | Start sector | End sector
––––––––––––––––––––––––––––-
1 | 0:00.00 | 4:00.40 | 0 | 18039
2 | 4:00.40 | 4:58.27 | 18040 | 40416
3 | 8:58.67 | 4:46.15 | 40417 | 61881
4 | 13:45.07 | 7:47.38 | 61882 | 96944
5 | 21:32.45 | 6:17.45 | 96945 | 125264
6 | 27:50.15 | 6:06.10 | 125265 | 152724
7 | 33:56.25 | 6:56.72 | 152725 | 183996
8 | 40:53.22 | 6:30.38 | 183997 | 213284
9 | 47:23.60 | 6:28.65 | 213285 | 242449
10 | 53:52.50 | 4:56.73 | 242450 | 264722
11 | 58:49.48 | 7:58.72 | 264723 | 300644


Track 1

Filename E:\RRCLtd Rip\01 - World In My Eyes (7'' Version).wav

Pre-gap length 0:00:02.00

Peak level 100.0 %
Extraction speed 4.6 X
Track quality 100.0 %
Test CRC D1714401
Copy CRC D1714401
Accurately ripped (confidence 29) [303B32FC] (AR v2)
Copy OK

Track 2

Filename E:\RRCLtd Rip\02 - Happiest Girl (Jack Mix).wav

Pre-gap length 0:00:02.22

Peak level 100.0 %
Extraction speed 5.3 X
Track quality 100.0 %
Test CRC A3FFBC9B
Copy CRC A3FFBC9B
Accurately ripped (confidence 31) [12E5EFDA] (AR v2)
Copy OK

Track 3

Filename E:\RRCLtd Rip\03 - Sea Of Sin (Tonal Mix).wav

Pre-gap length 0:00:01.57

Peak level 100.0 %
Extraction speed 5.6 X
Track quality 100.0 %
Test CRC C7B4E1DC
Copy CRC C7B4E1DC
Accurately ripped (confidence 31) [BAAB5442] (AR v2)
Copy OK

Track 4

Filename E:\RRCLtd Rip\04 - World In My Eyes (Oil Tank Mix).wav

Pre-gap length 0:00:01.72

Peak level 100.0 %
Extraction speed 6.6 X
Track quality 100.0 %
Test CRC 4161CF63
Copy CRC 4161CF63
Accurately ripped (confidence 30) [354BC0C4] (AR v2)
Copy OK

Track 5

Filename E:\RRCLtd Rip\05 - Happiest Girl (Kiss-A-Mix).wav

Pre-gap length 0:00:01.42

Peak level 100.0 %
Extraction speed 7.1 X
Track quality 100.0 %
Test CRC E1E41115
Copy CRC E1E41115
Accurately ripped (confidence 30) [DDECE51C] (AR v2)
Copy OK

Track 6

Filename E:\RRCLtd Rip\06 - Sea of Sin (Sensoria).wav

Pre-gap length 0:00:02.10

Peak level 100.0 %
Extraction speed 7.0 X
Track quality 100.0 %
Test CRC F700F4AC
Copy CRC F700F4AC
Accurately ripped (confidence 31) [C0F14E51] (AR v2)
Copy OK

Track 7

Filename E:\RRCLtd Rip\07 - World In My Eyes (Dub in My Eyes).wav

Pre-gap length 0:00:01.37

Peak level 100.0 %
Extraction speed 7.4 X
Track quality 99.9 %
Test CRC 0DD1C93D
Copy CRC 0DD1C93D
Accurately ripped (confidence 29) [BE452925] (AR v2)
Copy OK

Track 8

Filename E:\RRCLtd Rip\08 - World In My Eyes (Mode to Joy).wav

Pre-gap length 0:00:02.02

Peak level 100.0 %
Extraction speed 8.2 X
Track quality 100.0 %
Test CRC 0DAD06FB
Copy CRC 0DAD06FB
Accurately ripped (confidence 30) [C6C4F57D] (AR v2)
Copy OK

Track 9

Filename E:\RRCLtd Rip\09 - Happiest Girl (The Pulsating Orbital Mix).wav

Pre-gap length 0:00:01.50

Peak level 100.0 %
Extraction speed 8.7 X
Track quality 100.0 %
Test CRC 0C209630
Copy CRC 0C209630
Accurately ripped (confidence 30) [B71F7C64] (AR v2)
Copy OK

Track 10

Filename E:\RRCLtd Rip\10 - World In My Eyes (Mayhem Mode).wav

Pre-gap length 0:00:01.62

Peak level 100.0 %
Extraction speed 8.6 X
Track quality 100.0 %
Test CRC A1347E62
Copy CRC A1347E62
Accurately ripped (confidence 31) [3CBDEE31] (AR v2)
Copy OK

Track 11

Filename E:\RRCLtd Rip\11 - Happiest Girl (The Pulsating Orbital Vocal Mix).wav

Pre-gap length 0:00:01.53

Peak level 100.0 %
Extraction speed 9.3 X
Track quality 100.0 %
Test CRC 99922F5B
Copy CRC 99922F5B
Accurately ripped (confidence 33) [DB406037] (AR v2)
Copy OK


All tracks accurately ripped

No errors occurred

End of status report

–– CUETools DB Plugin V2.1.6

[CTDB TOCID: fc6pTbDFsd.pRnMU4FoG7K5SO8Y-] found
Submit result: fc6pTbDFsd.pRnMU4FoG7K5SO8Y- has been confirmed
Track | CTDB Status
1 | (91/94) Accurately ripped
2 | (91/94) Accurately ripped
3 | (91/94) Accurately ripped
4 | (91/94) Accurately ripped
5 | (91/94) Accurately ripped
6 | (91/94) Accurately ripped
7 | (91/94) Accurately ripped
8 | (91/94) Accurately ripped
9 | (90/94) Accurately ripped
10 | (91/94) Accurately ripped
11 | (89/94) Accurately ripped


==== Log checksum 1DF7E7CC6FFFEC7A73A75DE7F27F4BF9869694FC7E4EF909BE5B858B5AB37D91 ====

[CUETools log; Date: 18.06.2021 21:37:59; Version: 2.1.4]
[CTDB TOCID: fc6pTbDFsd.pRnMU4FoG7K5SO8Y-] found.
Track | CTDB Status
1 | (125/128) Accurately ripped
2 | (125/128) Accurately ripped
3 | (125/128) Accurately ripped
4 | (125/128) Accurately ripped
5 | (125/128) Accurately ripped
6 | (125/128) Accurately ripped
7 | (125/128) Accurately ripped
8 | (125/128) Accurately ripped
9 | (124/128) Accurately ripped
10 | (125/128) Accurately ripped
11 | (123/128) Accurately ripped
[AccurateRip ID: 0019f216-00e59560-8c0fa80b] found.
Track [ CRC | V2 ] Status
01 [630aba95|303b32fc] (046+040/119) Accurately ripped
02 [ebf962bb|12e5efda] (045+042/120) Accurately ripped
03 [c4b75ac0|baab5442] (045+042/120) Accurately ripped
04 [32a2b655|354bc0c4] (047+041/121) Accurately ripped
05 [db66f731|ddece51c] (046+041/120) Accurately ripped
06 [bd8bbdea|c0f14e51] (046+042/121) Accurately ripped
07 [c663cbe9|be452925] (045+040/118) Accurately ripped
08 [d60abb22|c6c4f57d] (047+041/120) Accurately ripped
09 [e9914e16|b71f7c64] (046+041/119) Accurately ripped
10 [684563f5|3cbdee31] (046+042/121) Accurately ripped
11 [49ef3070|db406037] (045+044/122) Accurately ripped
Offsetted by -6:
01 [978582c1] (011/119) Accurately ripped
02 [48304563] (011/120) Accurately ripped
03 [46398e20] (011/120) Accurately ripped
04 [84ccdf69] (011/121) Accurately ripped
05 [a329fb57] (011/120) Accurately ripped
06 [678ab27c] (011/121) Accurately ripped
07 [aeed1dd3] (011/118) Accurately ripped
08 [7f2bf2f4] (011/120) Accurately ripped
09 [64beaa74] (011/119) Accurately ripped
10 [b28c4237] (011/121) Accurately ripped
11 [98edb08a] (011/122) Accurately ripped

Track Peak [ CRC32 ] [W/O NULL] [ LOG ]
– 100,0 [6C0FCF8F] [40D8134D]
01 100,0 [D1714401] [D93C3AFA] CRC32
02 100,0 [A3FFBC9B] [DF864A56] CRC32
03 100,0 [C7B4E1DC] [7A1B065E] CRC32
04 100,0 [4161CF63] [66ABD1DB] CRC32
05 100,0 [E1E41115] [39877FDE] CRC32
06 100,0 [F700F4AC] [33F607CE] CRC32
07 100,0 [0DD1C93D] [5B85300C] CRC32
08 100,0 [0DAD06FB] [0662173A] CRC32
09 100,0 [0C209630] [896B09CB] CRC32
10 100,0 [A1347E62] [5A64EC35] CRC32
11 100,0 [99922F5B] [BD216AEC] CRC32

Depeche Mode - Singles 25-30 [6CD Box Set] (2004)

CD 3: Depeche Mode - I Feel You (1993)
EAC Rip | FLAC (tracks+.cue+log) - 350 MB | Covers - 31 MB
Genre: Synth-pop | RAR 3% Rec. | Label: Mute (CDBONG 21X)

Tracklist:
01. I Feel You (Seven Inch Mix)
02. One Caress
03. I Feel You (Throb Mix)
04. I Feel You (Babylon Mix)
05. I Feel You (Life's Too Short Mix)
06. I Feel You (Swamp Mix)
07. I Feel You (Renegade Soundwave Afghan Surgery Mix)
08. I Feel You (Helmet At The Helm Mix)

Total time: 50:39

Exact Audio Copy V1.3 from 2. September 2016

EAC extraction logfile from 25. January 2020, 15:59

Depeche Mode / I Feel You (DMBX CD27)

Used drive : PIONEER DVD-RW DVR-215 Adapter: 1 ID: 2

Read mode : Secure
Utilize accurate stream : Yes
Defeat audio cache : Yes
Make use of C2 pointers : No

Read offset correction : 48
Overread into Lead-In and Lead-Out : No
Fill up missing offset samples with silence : Yes
Delete leading and trailing silent blocks : No
Null samples used in CRC calculations : Yes
Used interface : Native Win32 interface for Win NT & 2000
Gap handling : Appended to previous track

Used output format : User Defined Encoder
Selected bitrate : 1024 kBit/s
Quality : High
Add ID3 tag : No
Command line compressor : C:\Program Files (x86)\Exact Audio Copy\FLAC\FLAC.EXE
Additional command line options : -6 -V -T "COMMENT=ripped by RRC" -T "ARTIST=%artist%" -T "TITLE=%title%" -T "ALBUM=%albumtitle%" -T "DATE=%year%" -T "TRACKNUMBER=%tracknr%" -T "GENRE=%genre%" %source%


TOC of the extracted CD

Track | Start | Length | Start sector | End sector
––––––––––––––––––––––––––––-
1 | 0:00.00 | 4:37.13 | 0 | 20787
2 | 4:37.13 | 3:31.52 | 20788 | 36664
3 | 8:08.65 | 6:49.45 | 36665 | 67384
4 | 14:58.35 | 7:54.70 | 67385 | 103004
5 | 22:53.30 | 8:35.18 | 103005 | 141647
6 | 31:28.48 | 7:28.27 | 141648 | 175274
7 | 38:57.00 | 4:59.23 | 175275 | 197722
8 | 43:56.23 | 6:43.14 | 197723 | 227961


Track 1

Filename E:\RRCLtd Rip\01 - I Feel You (Seven Inch Mix).wav

Pre-gap length 0:00:02.00

Peak level 100.0 %
Extraction speed 4.7 X
Track quality 100.0 %
Test CRC 92B0C82B
Copy CRC 92B0C82B
Accurately ripped (confidence 30) [0381A156] (AR v2)
Copy OK

Track 2

Filename E:\RRCLtd Rip\02 - One Caress.wav

Pre-gap length 0:00:01.63

Peak level 100.0 %
Extraction speed 5.0 X
Track quality 100.0 %
Test CRC 6BDF6759
Copy CRC 6BDF6759
Accurately ripped (confidence 29) [A94F356A] (AR v2)
Copy OK

Track 3

Filename E:\RRCLtd Rip\03 - I Feel You (Throb Mix).wav

Pre-gap length 0:00:01.02

Peak level 100.0 %
Extraction speed 5.9 X
Track quality 100.0 %
Test CRC 043115C1
Copy CRC 043115C1
Accurately ripped (confidence 31) [F4F90F56] (AR v2)
Copy OK

Track 4

Filename E:\RRCLtd Rip\04 - I Feel You (Babylon Mix).wav

Pre-gap length 0:00:02.17

Peak level 100.0 %
Extraction speed 6.6 X
Track quality 100.0 %
Test CRC 4059BC01
Copy CRC 4059BC01
Accurately ripped (confidence 31) [8A7D4967] (AR v2)
Copy OK

Track 5

Filename E:\RRCLtd Rip\05 - I Feel You (Life's Too Short Mix).wav

Pre-gap length 0:00:01.42

Peak level 100.0 %
Extraction speed 6.9 X
Track quality 99.9 %
Test CRC 684820AF
Copy CRC 684820AF
Accurately ripped (confidence 32) [7F0904B5] (AR v2)
Copy OK

Track 6

Filename E:\RRCLtd Rip\06 - I Feel You (Swamp Mix).wav

Pre-gap length 0:00:01.33

Peak level 100.0 %
Extraction speed 7.8 X
Track quality 100.0 %
Test CRC 59118F10
Copy CRC 59118F10
Accurately ripped (confidence 32) [2080231B] (AR v2)
Copy OK

Track 7

Filename E:\RRCLtd Rip\07 - I Feel You (Renegade Soundwave Afghan Surgery Mix).wav

Pre-gap length 0:00:01.32

Peak level 100.0 %
Extraction speed 8.0 X
Track quality 100.0 %
Test CRC 03911A49
Copy CRC 03911A49
Accurately ripped (confidence 31) [06D7E766] (AR v2)
Copy OK

Track 8

Filename E:\RRCLtd Rip\08 - I Feel You (Helmet At The Helm Mix).wav

Pre-gap length 0:00:00.60

Peak level 100.0 %
Extraction speed 8.5 X
Track quality 100.0 %
Test CRC A7DD5E80
Copy CRC A7DD5E80
Accurately ripped (confidence 31) [4E65979C] (AR v2)
Copy OK


All tracks accurately ripped

No errors occurred

End of status report

–– CUETools DB Plugin V2.1.6

[CTDB TOCID: uwyCiyyVN.yGDAQnexx86fixGzE-] found
Submit result: uwyCiyyVN.yGDAQnexx86fixGzE- has been confirmed
Track | CTDB Status
1 | (85/88) Accurately ripped
2 | (85/88) Accurately ripped
3 | (85/88) Accurately ripped
4 | (85/88) Accurately ripped
5 | (85/88) Accurately ripped
6 | (85/88) Accurately ripped
7 | (85/88) Accurately ripped
8 | (85/88) Accurately ripped


==== Log checksum E43D1C4CBA15308300FD97ED5100B5273B21F5E5739E3014D2A4BBA89DAA6F7A ====

[CUETools log; Date: 18.06.2021 21:38:15; Version: 2.1.4]
[CTDB TOCID: uwyCiyyVN.yGDAQnexx86fixGzE-] found.
Track | CTDB Status
1 | (118/121) Accurately ripped
2 | (118/121) Accurately ripped
3 | (118/121) Accurately ripped
4 | (118/121) Accurately ripped
5 | (118/121) Accurately ripped
6 | (118/121) Accurately ripped
7 | (118/121) Accurately ripped
8 | (117/121) Accurately ripped
[AccurateRip ID: 000eced3-00656a78-700bdf08] found.
Track [ CRC | V2 ] Status
01 [5f85dca8|0381a156] (043+039/117) Accurately ripped
02 [7d606b93|a94f356a] (042+038/115) Accurately ripped
03 [daaa4793|f4f90f56] (044+040/119) Accurately ripped
04 [ba58629b|8a7d4967] (043+040/118) Accurately ripped
05 [5e8ecf86|7f0904b5] (043+041/119) Accurately ripped
06 [9ce7bf3a|2080231b] (044+041/120) Accurately ripped
07 [b85437b8|06d7e766] (044+040/119) Accurately ripped
08 [d2a6314a|4e65979c] (044+040/119) Accurately ripped
Offsetted by -6:
01 [22e94d0e] (013/117) Accurately ripped
02 [a615bb57] (013/115) Accurately ripped
03 [3c16b26f] (013/119) Accurately ripped
04 [c7fba2ab] (013/118) Accurately ripped
05 [779aa202] (013/119) Accurately ripped
06 [09aef7d6] (013/120) Accurately ripped
07 [672289d0] (013/119) Accurately ripped
08 [c34a0e7c] (013/119) Accurately ripped

Track Peak [ CRC32 ] [W/O NULL] [ LOG ]
– 100,0 [F634EFA7] [D5F2CC16]
01 100,0 [92B0C82B] [B9290470] CRC32
02 100,0 [6BDF6759] [7F44DC04] CRC32
03 100,0 [043115C1] [37126E5B] CRC32
04 100,0 [4059BC01] [2C3B34A9] CRC32
05 100,0 [684820AF] [789424AB] CRC32
06 100,0 [59118F10] [E52A281F] CRC32
07 100,0 [03911A49] [A7B4118F] CRC32
08 100,0 [A7DD5E80] [F7D7313C] CRC32

Depeche Mode - Singles 25-30 [6CD Box Set] (2004)

CD 4: Depeche Mode - Walking In My Shoes (1993)
EAC Rip | FLAC (tracks+.cue+log) - 319 MB | Covers - 23 MB
Genre: Synth-pop | RAR 3% Rec. | Label: Mute (CDBONG 22)

Tracklist:
01. Walking In My Shoes (Seven Inch Mix)
02. My Joy (Seven Inch Mix)
03. Walking In My Shoes (Grungy Gonads Mix)
04. My Joy (Slow Slide Mix)
05. Walking In My Shoes (Extended Twelve Inch Mix)
06. Walking In My Shoes (Random Carpet Mix)
07. Walking In My Shoes (Anandamidic Mix)
08. Walking In My Shoes (Ambient Whale Mix)

Total time: 45:18

Exact Audio Copy V1.3 from 2. September 2016

EAC extraction logfile from 25. January 2020, 15:40

Depeche Mode / Walking In My Shoes (DMBX CD28)

Used drive : PIONEER DVD-RW DVR-215 Adapter: 1 ID: 2

Read mode : Secure
Utilize accurate stream : Yes
Defeat audio cache : Yes
Make use of C2 pointers : No

Read offset correction : 48
Overread into Lead-In and Lead-Out : No
Fill up missing offset samples with silence : Yes
Delete leading and trailing silent blocks : No
Null samples used in CRC calculations : Yes
Used interface : Native Win32 interface for Win NT & 2000
Gap handling : Appended to previous track

Used output format : User Defined Encoder
Selected bitrate : 1024 kBit/s
Quality : High
Add ID3 tag : No
Command line compressor : C:\Program Files (x86)\Exact Audio Copy\FLAC\FLAC.EXE
Additional command line options : -6 -V -T "COMMENT=ripped by RRC" -T "ARTIST=%artist%" -T "TITLE=%title%" -T "ALBUM=%albumtitle%" -T "DATE=%year%" -T "TRACKNUMBER=%tracknr%" -T "GENRE=%genre%" %source%


TOC of the extracted CD

Track | Start | Length | Start sector | End sector
––––––––––––––––––––––––––––-
1 | 0:00.00 | 5:02.10 | 0 | 22659
2 | 5:02.10 | 3:59.13 | 22660 | 40597
3 | 9:01.23 | 6:24.62 | 40598 | 69459
4 | 15:26.10 | 5:13.05 | 69460 | 92939
5 | 20:39.15 | 6:54.20 | 92940 | 124009
6 | 27:33.35 | 6:36.48 | 124010 | 153757
7 | 34:10.08 | 6:11.55 | 153758 | 181637
8 | 40:21.63 | 4:56.49 | 181638 | 203886


Track 1

Filename E:\RRCLtd Rip\01 - Walking In My Shoes (Seven Inch Mix).wav

Pre-gap length 0:00:02.00

Peak level 100.0 %
Extraction speed 4.3 X
Track quality 99.9 %
Test CRC E88142A1
Copy CRC E88142A1
Accurately ripped (confidence 31) [192B5BAE] (AR v2)
Copy OK

Track 2

Filename E:\RRCLtd Rip\02 - My Joy (Seven Inch Mix).wav

Pre-gap length 0:00:02.07

Peak level 100.0 %
Extraction speed 5.2 X
Track quality 100.0 %
Test CRC 8624217A
Copy CRC 8624217A
Accurately ripped (confidence 32) [CF745FCE] (AR v2)
Copy OK

Track 3

Filename E:\RRCLtd Rip\03 - Walking In My Shoes (Grungy Gonads Mix).wav

Pre-gap length 0:00:01.45

Peak level 100.0 %
Extraction speed 5.9 X
Track quality 100.0 %
Test CRC 511AD8D5
Copy CRC 511AD8D5
Accurately ripped (confidence 31) [C4900C4F] (AR v2)
Copy OK

Track 4

Filename E:\RRCLtd Rip\04 - My Joy (Slow Slide Mix).wav

Pre-gap length 0:00:01.60

Peak level 100.0 %
Extraction speed 5.7 X
Track quality 99.9 %
Test CRC 7914727C
Copy CRC 7914727C
Accurately ripped (confidence 31) [48F0FFB6] (AR v2)
Copy OK

Track 5

Filename E:\RRCLtd Rip\05 - Walking In My Shoes (Extended Twelve Inch Mix).wav

Pre-gap length 0:00:01.25

Peak level 100.0 %
Extraction speed 7.0 X
Track quality 100.0 %
Test CRC 44031F35
Copy CRC 44031F35
Accurately ripped (confidence 31) [BBB2A934] (AR v2)
Copy OK

Track 6

Filename E:\RRCLtd Rip\06 - Walking In My Shoes (Random Carpet Mix).wav

Pre-gap length 0:00:01.45

Peak level 100.0 %
Extraction speed 7.4 X
Track quality 100.0 %
Test CRC FE2B10D3
Copy CRC FE2B10D3
Accurately ripped (confidence 32) [45D7F09B] (AR v2)
Copy OK

Track 7

Filename E:\RRCLtd Rip\07 - Walking In My Shoes (Anandamidic Mix).wav

Pre-gap length 0:00:01.00

Peak level 100.0 %
Extraction speed 7.9 X
Track quality 100.0 %
Test CRC 2F70A332
Copy CRC 2F70A332
Accurately ripped (confidence 31) [39008FE0] (AR v2)
Copy OK

Track 8

Filename E:\RRCLtd Rip\08 - Walking In My Shoes (Ambient Whale Mix).wav

Pre-gap length 0:00:00.25

Peak level 100.0 %
Extraction speed 7.9 X
Track quality 100.0 %
Test CRC BA192F63
Copy CRC BA192F63
Accurately ripped (confidence 31) [1FCBB6AB] (AR v2)
Copy OK


All tracks accurately ripped

No errors occurred

End of status report

–– CUETools DB Plugin V2.1.6

[CTDB TOCID: M0_ej29Xg5czKU9cunHrqsdN3PI-] found
Submit result: M0_ej29Xg5czKU9cunHrqsdN3PI- has been confirmed
Track | CTDB Status
1 | (85/87) Accurately ripped
2 | (85/87) Accurately ripped
3 | (85/87) Accurately ripped
4 | (85/87) Accurately ripped
5 | (85/87) Accurately ripped
6 | (85/87) Accurately ripped
7 | (85/87) Accurately ripped
8 | (85/87) Accurately ripped


==== Log checksum 521530FADD5CA82BA48B00CC0BF8906ED2C501E3954967874FA14D536C2979F0 ====

[CUETools log; Date: 18.06.2021 21:38:31; Version: 2.1.4]
[CTDB TOCID: M0_ej29Xg5czKU9cunHrqsdN3PI-] found.
Track | CTDB Status
1 | (116/118) Accurately ripped
2 | (116/118) Accurately ripped
3 | (116/118) Accurately ripped
4 | (116/118) Accurately ripped
5 | (116/118) Accurately ripped
6 | (116/118) Accurately ripped
7 | (116/118) Accurately ripped
8 | (116/118) Accurately ripped
[AccurateRip ID: 000d9077-005bd43c-550a9e08] found.
Track [ CRC | V2 ] Status
01 [ead1eda8|192b5bae] (044+040/119) Accurately ripped
02 [d128b480|cf745fce] (044+041/120) Accurately ripped
03 [a0477c23|c4900c4f] (043+040/118) Accurately ripped
04 [db6af9e3|48f0ffb6] (043+039/117) Accurately ripped
05 [e04cbb32|bbb2a934] (045+040/120) Accurately ripped
06 [255b7008|45d7f09b] (044+041/120) Accurately ripped
07 [86d8558a|39008fe0] (044+039/118) Accurately ripped
08 [d7cdcd1c|1fcbb6ab] (045+040/120) Accurately ripped
Offsetted by -6:
01 [ddf03a1e] (013/119) Accurately ripped
02 [3f176c32] (013/120) Accurately ripped
03 [5f57d9e1] (013/118) Accurately ripped
04 [228aa36b] (013/117) Accurately ripped
05 [bca096ec] (013/120) Accurately ripped
06 [83c1de68] (013/120) Accurately ripped
07 [10cb108a] (013/118) Accurately ripped
08 [6b2420b0] (013/120) Accurately ripped

Track Peak [ CRC32 ] [W/O NULL] [ LOG ]
– 100,0 [6B84D615] [C170B103]
01 100,0 [E88142A1] [0C324F44] CRC32
02 100,0 [8624217A] [2E64CF0F] CRC32
03 100,0 [511AD8D5] [0C28955A] CRC32
04 100,0 [7914727C] [075B9F45] CRC32
05 100,0 [44031F35] [49F5F6E4] CRC32
06 100,0 [FE2B10D3] [AC253093] CRC32
07 100,0 [2F70A332] [2FFC4B0C] CRC32
08 100,0 [BA192F63] [441B0E72] CRC32

Depeche Mode - Singles 25-30 [6CD Box Set] (2004)

CD 5: Depeche Mode - Condemnation (1993)
EAC Rip | FLAC (tracks+.cue+log) - 383 MB | Covers - 23 MB
Genre: Synth-pop | RAR 3% Rec. | Label: Mute (CDBONG 23X)

Tracklist:
01. Condemnation (Paris Mix)
02. Death's Door (Jazz Mix)
03. Rush (Spiritual Guidance Mix)
04. Rush (Amylnitrate Mix - Instrumental)
05. Rush (Wild Planet Mix - Vocal)
06. Condemnation (Live)
07. Personal Jesus (Live)
08. Enjoy The Silence (Live)
09. Halo (Live)

Total time: 51:34

Exact Audio Copy V1.3 from 2. September 2016

EAC extraction logfile from 25. January 2020, 15:11

Depeche Mode / Condemnation (DMBX CD29)

Used drive : PIONEER DVD-RW DVR-221L Adapter: 1 ID: 0

Read mode : Secure
Utilize accurate stream : Yes
Defeat audio cache : Yes
Make use of C2 pointers : No

Read offset correction : 6
Overread into Lead-In and Lead-Out : No
Fill up missing offset samples with silence : Yes
Delete leading and trailing silent blocks : No
Null samples used in CRC calculations : Yes
Used interface : Native Win32 interface for Win NT & 2000
Gap handling : Appended to previous track

Used output format : User Defined Encoder
Selected bitrate : 1024 kBit/s
Quality : High
Add ID3 tag : No
Command line compressor : C:\Program Files (x86)\Exact Audio Copy\FLAC\FLAC.EXE
Additional command line options : -6 -V -T "COMMENT=ripped by RRC" -T "ARTIST=%artist%" -T "TITLE=%title%" -T "ALBUM=%albumtitle%" -T "DATE=%year%" -T "TRACKNUMBER=%tracknr%" -T "GENRE=%genre%" %source%


TOC of the extracted CD

Track | Start | Length | Start sector | End sector
––––––––––––––––––––––––––––-
1 | 0:00.00 | 3:23.63 | 0 | 15287
2 | 3:23.63 | 6:39.40 | 15288 | 45252
3 | 10:03.28 | 5:31.05 | 45253 | 70082
4 | 15:34.33 | 7:42.52 | 70083 | 104784
5 | 23:17.10 | 6:24.55 | 104785 | 133639
6 | 29:41.65 | 4:10.28 | 133640 | 152417
7 | 33:52.18 | 6:00.15 | 152418 | 179432
8 | 39:52.33 | 6:46.00 | 179433 | 209882
9 | 46:38.33 | 4:56.05 | 209883 | 232087


Track 1

Filename E:\RRCLtd Rip\01 - Condemnation (Paris Mix).wav

Pre-gap length 0:00:02.00

Peak level 100.0 %
Extraction speed 2.1 X
Track quality 99.9 %
Test CRC CCBADD76
Copy CRC CCBADD76
Accurately ripped (confidence 29) [1F8705EF] (AR v2)
Copy OK

Track 2

Filename E:\RRCLtd Rip\02 - Death's Door (Jazz Mix).wav

Pre-gap length 0:00:01.03

Peak level 100.0 %
Extraction speed 3.4 X
Track quality 100.0 %
Test CRC D0029B60
Copy CRC D0029B60
Accurately ripped (confidence 30) [4D80D260] (AR v2)
Copy OK

Track 3

Filename E:\RRCLtd Rip\03 - Rush (Spiritual Guidance Mix).wav

Pre-gap length 0:00:00.55

Peak level 100.0 %
Extraction speed 3.7 X
Track quality 100.0 %
Test CRC EBA2C538
Copy CRC EBA2C538
Accurately ripped (confidence 31) [FE969A4D] (AR v2)
Copy OK

Track 4

Filename E:\RRCLtd Rip\04 - Rush (Amylnitrate Mix - Instrumental).wav

Pre-gap length 0:00:01.05

Peak level 100.0 %
Extraction speed 4.2 X
Track quality 100.0 %
Test CRC 79FD8EE8
Copy CRC 79FD8EE8
Accurately ripped (confidence 30) [69CBCDD4] (AR v2)
Copy OK

Track 5

Filename E:\RRCLtd Rip\05 - Rush (Wild Planet Mix - Vocal).wav

Pre-gap length 0:00:01.57

Peak level 100.0 %
Extraction speed 4.5 X
Track quality 100.0 %
Test CRC A2861EC8
Copy CRC A2861EC8
Accurately ripped (confidence 31) [3261D289] (AR v2)
Copy OK

Track 6

Filename E:\RRCLtd Rip\06 - Condemnation (Live).wav

Pre-gap length 0:00:01.40

Peak level 100.0 %
Extraction speed 4.6 X
Track quality 100.0 %
Test CRC F67A002C
Copy CRC F67A002C
Accurately ripped (confidence 31) [B9B43395] (AR v2)
Copy OK

Track 7

Filename E:\RRCLtd Rip\07 - Personal Jesus (Live).wav

Pre-gap length 0:00:01.60

Peak level 100.0 %
Extraction speed 4.2 X
Track quality 99.9 %
Test CRC CEE706A5
Copy CRC CEE706A5
Accurately ripped (confidence 31) [7E5FF372] (AR v2)
Copy OK

Track 8

Filename E:\RRCLtd Rip\08 - Enjoy The Silence (Live).wav

Peak level 100.0 %
Extraction speed 4.5 X
Track quality 99.9 %
Test CRC 321716D2
Copy CRC 321716D2
Accurately ripped (confidence 31) [A01BE5BE] (AR v2)
Copy OK

Track 9

Filename E:\RRCLtd Rip\09 - Halo (Live).wav

Pre-gap length 0:00:01.25

Peak level 100.0 %
Extraction speed 5.5 X
Track quality 100.0 %
Test CRC A041823C
Copy CRC A041823C
Accurately ripped (confidence 31) [9E4ABC1A] (AR v2)
Copy OK


All tracks accurately ripped

No errors occurred

End of status report

–– CUETools DB Plugin V2.1.6

[CTDB TOCID: xm4D3JdPDwIYRXeSrIIO9JNvGos-] found
Submit result: xm4D3JdPDwIYRXeSrIIO9JNvGos- has been confirmed
Track | CTDB Status
1 | (85/87) Accurately ripped
2 | (85/87) Accurately ripped
3 | (85/87) Accurately ripped
4 | (85/87) Accurately ripped
5 | (85/87) Accurately ripped
6 | (85/87) Accurately ripped
7 | (84/87) Accurately ripped
8 | (85/87) Accurately ripped
9 | (85/87) Accurately ripped


==== Log checksum B280D27743412682DAF3C3FCACC183C43DFA1821362E132DB95846786EA840D3 ====

[CUETools log; Date: 18.06.2021 21:38:48; Version: 2.1.4]
[CTDB TOCID: xm4D3JdPDwIYRXeSrIIO9JNvGos-] found.
Track | CTDB Status
1 | (117/119) Accurately ripped
2 | (117/119) Accurately ripped
3 | (117/119) Accurately ripped
4 | (117/119) Accurately ripped
5 | (117/119) Accurately ripped
6 | (117/119) Accurately ripped
7 | (116/119) Accurately ripped
8 | (117/119) Accurately ripped
9 | (116/119) Accurately ripped
[AccurateRip ID: 00117057-0081772a-740c1609] found.
Track [ CRC | V2 ] Status
01 [73f9baba|1f8705ef] (047+038/119) Accurately ripped
02 [7df1f28b|4d80d260] (044+039/119) Accurately ripped
03 [6fa564a2|fe969a4d] (045+040/121) Accurately ripped
04 [16fa830e|69cbcdd4] (045+039/120) Accurately ripped
05 [cfe07102|3261d289] (046+040/122) Accurately ripped
06 [4625f4d5|b9b43395] (044+040/120) Accurately ripped
07 [81ba2e52|7e5ff372] (045+040/121) Accurately ripped
08 [bb2bf4a7|a01be5be] (047+040/123) Accurately ripped
09 [972269d0|9e4abc1a] (045+040/121) Accurately ripped
Offsetted by -6:
01 [f1133e4a] (013/119) Accurately ripped
02 [48124cfb] (014/119) Accurately ripped
03 [14dbf4b2] (014/121) Accurately ripped
04 [cc20a562] (014/120) Accurately ripped
05 [d233020a] (014/122) Accurately ripped
06 [714b7839] (014/120) Accurately ripped
07 [06dc0a7b] (014/121) Accurately ripped
08 [0fc6d808] (014/123) Accurately ripped
09 [92be9f52] (014/121) Accurately ripped

Track Peak [ CRC32 ] [W/O NULL] [ LOG ]
– 100,0 [69B9A677] [B32ACBCB]
01 100,0 [CCBADD76] [7EEAFDD1] CRC32
02 100,0 [D0029B60] [E908E37E] CRC32
03 100,0 [EBA2C538] [218D2B68] CRC32
04 100,0 [79FD8EE8] [FDDA0311] CRC32
05 100,0 [A2861EC8] [5D5A256D] CRC32
06 100,0 [F67A002C] [E748805F] CRC32
07 100,0 [CEE706A5] [CD027CD9] CRC32
08 100,0 [321716D2] [52282289] CRC32
09 100,0 [A041823C] [AD3F6C1E] CRC32

Depeche Mode - Singles 25-30 [6CD Box Set] (2004)

CD 6: Depeche Mode - In Your Room (1994)
EAC Rip | FLAC (tracks+.cue+log) - 502 MB | Covers - 22 MB
Genre: Synth-pop | RAR 3% Rec. | Label: Mute (CDLITTLE 24X)

Tracklist:
01. In Your Room (Zephyr Mix)
02. Higher Love (Adrenaline Mix) (Edit)
03. In Your Room (Apex Mix)
04. In Your Room (The Jeep Rock Mix)
05. Higher Love (Adrenaline Mix)
06. In Your Room (Extended Zephyr Mix)
07. In Your Room (Live)
08. Policy Of Truth (Live)
09. World In My Eyes (Live)
10. Fly On The Windscreen (Live)
11. Never Let Me Down Again (Live)
12. Death's Door (Live)

Total time: 01:08:47

Exact Audio Copy V1.3 from 2. September 2016

EAC extraction logfile from 25. January 2020, 14:22

Depeche Mode / In Your Room (DMBX CD30)

Used drive : PIONEER DVD-RW DVR-221L Adapter: 1 ID: 0

Read mode : Secure
Utilize accurate stream : Yes
Defeat audio cache : Yes
Make use of C2 pointers : No

Read offset correction : 6
Overread into Lead-In and Lead-Out : No
Fill up missing offset samples with silence : Yes
Delete leading and trailing silent blocks : No
Null samples used in CRC calculations : Yes
Used interface : Native Win32 interface for Win NT & 2000
Gap handling : Appended to previous track

Used output format : User Defined Encoder
Selected bitrate : 1024 kBit/s
Quality : High
Add ID3 tag : No
Command line compressor : C:\Program Files (x86)\Exact Audio Copy\FLAC\FLAC.EXE
Additional command line options : -6 -V -T "COMMENT=ripped by RRC" -T "ARTIST=%artist%" -T "TITLE=%title%" -T "ALBUM=%albumtitle%" -T "DATE=%year%" -T "TRACKNUMBER=%tracknr%" -T "GENRE=%genre%" %source%


TOC of the extracted CD

Track | Start | Length | Start sector | End sector
––––––––––––––––––––––––––––-
1 | 0:00.00 | 4:52.46 | 0 | 21945
2 | 4:52.46 | 4:48.17 | 21946 | 43562
3 | 9:40.63 | 6:45.10 | 43563 | 73947
4 | 16:25.73 | 6:21.30 | 73948 | 102552
5 | 22:47.28 | 7:50.40 | 102553 | 137842
6 | 30:37.68 | 6:43.60 | 137843 | 168127
7 | 37:21.53 | 6:51.23 | 168128 | 198975
8 | 44:13.01 | 5:08.05 | 198976 | 222080
9 | 49:21.06 | 6:15.67 | 222081 | 250272
10 | 55:36.73 | 5:22.25 | 250273 | 274447
11 | 60:59.23 | 5:01.10 | 274448 | 297032
12 | 66:00.33 | 2:47.02 | 297033 | 309559


Track 1

Filename E:\RRCLtd Rip\01 - In Your Room (Zephyr Mix).wav

Pre-gap length 0:00:02.00

Peak level 100.0 %
Extraction speed 2.9 X
Track quality 100.0 %
Test CRC AC02B741
Copy CRC AC02B741
Accurately ripped (confidence 33) [6444A2FD] (AR v2)
Copy OK

Track 2

Filename E:\RRCLtd Rip\02 - Higher Love (Adrenaline Mix (Edit)).wav

Pre-gap length 0:00:00.73

Peak level 100.0 %
Extraction speed 3.3 X
Track quality 100.0 %
Test CRC B4D790BA
Copy CRC B4D790BA
Accurately ripped (confidence 34) [BAC430DA] (AR v2)
Copy OK

Track 3

Filename E:\RRCLtd Rip\03 - In Your Room (Apex Mix).wav

Pre-gap length 0:00:02.48

Peak level 100.0 %
Extraction speed 3.8 X
Track quality 100.0 %
Test CRC 051EAEEE
Copy CRC 051EAEEE
Accurately ripped (confidence 35) [ADB494AC] (AR v2)
Copy OK

Track 4

Filename E:\RRCLtd Rip\04 - In Your Room (The Jeep Rock Mix).wav

Pre-gap length 0:00:02.18

Peak level 100.0 %
Extraction speed 4.1 X
Track quality 100.0 %
Test CRC 184D0F2D
Copy CRC 184D0F2D
Accurately ripped (confidence 34) [FDFE0A1D] (AR v2)
Copy OK

Track 5

Filename E:\RRCLtd Rip\05 - Higher Love (Adrenaline Mix).wav

Pre-gap length 0:00:02.43

Peak level 100.0 %
Extraction speed 4.6 X
Track quality 100.0 %
Test CRC 11DD4A1B
Copy CRC 11DD4A1B
Accurately ripped (confidence 35) [20C74A97] (AR v2)
Copy OK

Track 6

Filename E:\RRCLtd Rip\06 - In Your Room (Extended Zephyr Mix).wav

Pre-gap length 0:00:00.73

Peak level 100.0 %
Extraction speed 4.9 X
Track quality 100.0 %
Test CRC DEC7809C
Copy CRC DEC7809C
Accurately ripped (confidence 35) [5B9CDFA1] (AR v2)
Copy OK

Track 7

Filename E:\RRCLtd Rip\07 - In Your Room (Live).wav

Pre-gap length 0:00:00.40

Peak level 100.0 %
Extraction speed 5.2 X
Track quality 100.0 %
Test CRC A3BB3F4F
Copy CRC A3BB3F4F
Accurately ripped (confidence 35) [EFBA7C2B] (AR v2)
Copy OK

Track 8

Filename E:\RRCLtd Rip\08 - Policy Of Truth (Live).wav

Pre-gap length 0:00:02.23

Peak level 100.0 %
Extraction speed 4.3 X
Track quality 99.9 %
Test CRC 8C8A0716
Copy CRC 8C8A0716
Accurately ripped (confidence 35) [ED34258E] (AR v2)
Copy OK

Track 9

Filename E:\RRCLtd Rip\09 - World In My Eyes (Live).wav

Pre-gap length 0:00:02.36

Peak level 100.0 %
Extraction speed 5.6 X
Track quality 100.0 %
Test CRC EC0784C4
Copy CRC EC0784C4
Accurately ripped (confidence 35) [9278A821] (AR v2)
Copy OK

Track 10

Filename E:\RRCLtd Rip\10 - Fly On The Windscreen (Live).wav

Pre-gap length 0:00:02.40

Peak level 100.0 %
Extraction speed 4.6 X
Track quality 99.9 %
Test CRC F1F567E2
Copy CRC F1F567E2
Accurately ripped (confidence 35) [864292A0] (AR v2)
Copy OK

Track 11

Filename E:\RRCLtd Rip\11 - Never Let Me Down Again (Live).wav

Pre-gap length 0:00:02.08

Peak level 100.0 %
Extraction speed 4.7 X
Track quality 99.9 %
Test CRC 335B5498
Copy CRC 335B5498
Accurately ripped (confidence 35) [9133B8DD] (AR v2)
Copy OK

Track 12

Filename E:\RRCLtd Rip\12 - Death's Door (Live).wav

Pre-gap length 0:00:02.10

Peak level 100.0 %
Extraction speed 5.3 X
Track quality 100.0 %
Test CRC 23714DA9
Copy CRC 23714DA9
Accurately ripped (confidence 35) [889366D0] (AR v2)
Copy OK


All tracks accurately ripped

No errors occurred

End of status report

–– CUETools DB Plugin V2.1.6

[CTDB TOCID: oCRW4JmILci4EDIXnZh.wGTabd8-] found
Submit result: oCRW4JmILci4EDIXnZh.wGTabd8- has been confirmed
Track | CTDB Status
1 | (86/87) Accurately ripped
2 | (86/87) Accurately ripped
3 | (85/87) Accurately ripped
4 | (86/87) Accurately ripped
5 | (86/87) Accurately ripped
6 | (86/87) Accurately ripped
7 | (86/87) Accurately ripped
8 | (85/87) Accurately ripped
9 | (86/87) Accurately ripped
10 | (86/87) Accurately ripped
11 | (86/87) Accurately ripped
12 | (86/87) Accurately ripped


==== Log checksum 36BD231412E23858718BB7322DA8C1201AD59EBE0D9C99069D12648273B6F72E ====

[CUETools log; Date: 18.06.2021 21:39:06; Version: 2.1.4]
[CTDB TOCID: oCRW4JmILci4EDIXnZh.wGTabd8-] found.
Track | CTDB Status
1 | (121/122) Accurately ripped
2 | (121/122) Accurately ripped
3 | (120/122) Accurately ripped
4 | (121/122) Accurately ripped
5 | (121/122) Accurately ripped
6 | (121/122) Accurately ripped
7 | (121/122) Accurately ripped
8 | (120/122) Accurately ripped
9 | (121/122) Accurately ripped
10 | (121/122) Accurately ripped
11 | (121/122) Accurately ripped
12 | (121/122) Accurately ripped
[AccurateRip ID: 00200c80-012c6a1c-c6101f0c] found.
Track [ CRC | V2 ] Status
01 [c6762e6c|6444a2fd] (045+042/122) Accurately ripped
02 [33be4440|bac430da] (046+043/125) Accurately ripped
03 [1807b2b3|adb494ac] (045+044/126) Accurately ripped
04 [b9ab49e6|fdfe0a1d] (046+043/125) Accurately ripped
05 [23be0f07|20c74a97] (046+044/125) Accurately ripped
06 [79794d04|5b9cdfa1] (047+044/127) Accurately ripped
07 [6968d59a|efba7c2b] (046+044/126) Accurately ripped
08 [edf571ff|ed34258e] (046+044/126) Accurately ripped
09 [219e7b5d|9278a821] (046+044/126) Accurately ripped
10 [7f91533d|864292a0] (046+044/126) Accurately ripped
11 [6bebbe5d|9133b8dd] (045+044/125) Accurately ripped
12 [d7791abb|889366d0] (046+044/126) Accurately ripped
Offsetted by -6:
01 [a58f5d48] (014/122) Accurately ripped
02 [138eddea] (014/125) Accurately ripped
03 [3cd136cf] (014/126) Accurately ripped
04 [e96b828c] (014/125) Accurately ripped
05 [3a62b917] (014/125) Accurately ripped
06 [3e68cdae] (014/127) Accurately ripped
07 [daee582e] (014/126) Accurately ripped
08 [54dde6c1] (014/126) Accurately ripped
09 [801e366b] (014/126) Accurately ripped
10 [36aa3eeb] (014/126) Accurately ripped
11 [c563a82d] (014/125) Accurately ripped
12 [e4ea8013] (014/126) Accurately ripped

Track Peak [ CRC32 ] [W/O NULL] [ LOG ]
– 100,0 [7730AE8A] [22E7D9F9]
01 100,0 [AC02B741] [41113962] CRC32
02 100,0 [B4D790BA] [AECEC966] CRC32
03 100,0 [051EAEEE] [936ABC9E] CRC32
04 100,0 [184D0F2D] [BC8B0681] CRC32
05 100,0 [11DD4A1B] [8C9F0684] CRC32
06 100,0 [DEC7809C] [FC06D48C] CRC32
07 100,0 [A3BB3F4F] [0F9DBD35] CRC32
08 100,0 [8C8A0716] [58E97400] CRC32
09 100,0 [EC0784C4] [C392D844] CRC32
10 100,0 [F1F567E2] [CBEDBD53] CRC32
11 100,0 [335B5498] [389749B5] CRC32
12 100,0 [23714DA9] [CAF21E56] CRC32

Thanks to RRC

See also:
Depeche Mode - Singles 1-6 [6CD Box Set] (1991)
Depeche Mode - Singles 7-12 [6CD Box Set] (1991)
Depeche Mode - Singles 13-18 [6CD Box Set] (1991)
Depeche Mode - Singles 19-24 [6CD Box Set] (2004)
Depeche Mode - Songs Of Faith ...n: The 12" Singles (2020)