Tags
Language
Tags

Depeche Mode - Singles 31-36 [6CD Box Set] (2004)

Posted By: gribovar
Depeche Mode - Singles 31-36 [6CD Box Set] (2004)

Depeche Mode - Singles 31-36 [6CD Box Set] (2004)
EAC Rip | FLAC (tracks+.cue+log) - 2,21 GB | Covers - 180 MB
Genre: Synth-pop | RAR 3% Rec. | Label: Mute (DMBX6)

The fourth, fifth, and sixth box sets dedicated to compiling all of Depeche Mode's single releases were put out in 2004, 13 years after the first three originally appeared. All of these sets provide a convenience for hardcore fans since they provide each single in its own slim jewel case. Needless to say, those who bought the original singles as they were released will be flustered once again. The sixth set, covering 1997 through 2001, includes the "Barrell of Gun," "It's No Good," "Home," "Useless," "Only When I Lose Myself," and "Dream On" singles. Remixes come from Dan the Automator, DJ Shadow, GusGus, Plastikman, Dave Clarke, Kid 606, Bushwacka!, and Kruder & Dorfmeister.

Depeche Mode - Singles 31-36 [6CD Box Set] (2004)

CD 1: Depeche Mode - Barrel Of A Gun (1997)
EAC Rip | FLAC (tracks+.cue+log) - 422 MB | Covers - 21 MB
Genre: Synth-pop | RAR 3% Rec. | Label: Mute (CDBONG 25X)

Tracklist:
01. Barrel Of A Gun
02. Painkiller
03. Barrel Of A Gun (Underworld Soft Mix)
04. Barrel Of A Gun (One Inch Punch Mix)
05. Barrel Of A Gun (Underworld Hard Mix)
06. Barrel Of A Gun (United Mix)
07. Painkiller (Plastikman Mix)
08. Barrel Of A Gun (3.Phase Mix)
09. Barrel Of A Gun (One Inch Punch Mix) (Version 2)

Total time: 01:00:48

Exact Audio Copy V1.3 from 2. September 2016

EAC extraction logfile from 25. January 2020, 23:31

Depeche Mode / Barrel Of A Gun (DMBX CD31)

Used drive : PIONEER DVD-RW DVR-215 Adapter: 1 ID: 2

Read mode : Secure
Utilize accurate stream : Yes
Defeat audio cache : Yes
Make use of C2 pointers : No

Read offset correction : 48
Overread into Lead-In and Lead-Out : No
Fill up missing offset samples with silence : Yes
Delete leading and trailing silent blocks : No
Null samples used in CRC calculations : Yes
Used interface : Native Win32 interface for Win NT & 2000
Gap handling : Appended to previous track

Used output format : User Defined Encoder
Selected bitrate : 1024 kBit/s
Quality : High
Add ID3 tag : No
Command line compressor : C:\Program Files (x86)\Exact Audio Copy\FLAC\FLAC.EXE
Additional command line options : -6 -V -T "COMMENT=ripped by RRC" -T "ARTIST=%artist%" -T "TITLE=%title%" -T "ALBUM=%albumtitle%" -T "DATE=%year%" -T "TRACKNUMBER=%tracknr%" -T "GENRE=%genre%" %source%


TOC of the extracted CD

Track | Start | Length | Start sector | End sector
––––––––––––––––––––––––––––-
1 | 0:00.00 | 5:32.23 | 0 | 24922
2 | 5:32.23 | 7:29.38 | 24923 | 58635
3 | 13:01.61 | 6:29.00 | 58636 | 87810
4 | 19:30.61 | 5:27.50 | 87811 | 112385
5 | 24:58.36 | 9:38.00 | 112386 | 155735
6 | 34:36.36 | 6:36.35 | 155736 | 185470
7 | 41:12.71 | 8:40.22 | 185471 | 224492
8 | 49:53.18 | 5:25.50 | 224493 | 248917
9 | 55:18.68 | 5:29.37 | 248918 | 273629


Track 1

Filename E:\RRCLtd Rip\01 - Barrel Of A Gun.wav

Pre-gap length 0:00:02.00

Peak level 100.0 %
Extraction speed 4.5 X
Track quality 99.9 %
Test CRC 61854CB3
Copy CRC 61854CB3
Accurately ripped (confidence 43) [0C668CBB] (AR v2)
Copy OK

Track 2

Filename E:\RRCLtd Rip\02 - Painkiller.wav

Pre-gap length 0:00:02.18

Peak level 100.0 %
Extraction speed 5.4 X
Track quality 99.9 %
Test CRC E6B8C7D7
Copy CRC E6B8C7D7
Accurately ripped (confidence 44) [F8324248] (AR v2)
Copy OK

Track 3

Filename E:\RRCLtd Rip\03 - Barrel Of A Gun (Underworld Soft Mix).wav

Pre-gap length 0:00:01.38

Peak level 100.0 %
Extraction speed 6.4 X
Track quality 100.0 %
Test CRC 0F497172
Copy CRC 0F497172
Accurately ripped (confidence 44) [6277303F] (AR v2)
Copy OK

Track 4

Filename E:\RRCLtd Rip\04 - Barrel Of A Gun (One Inch Punch Mix).wav

Pre-gap length 0:00:01.70

Peak level 100.0 %
Extraction speed 6.1 X
Track quality 99.9 %
Test CRC E9A2FEB7
Copy CRC E9A2FEB7
Accurately ripped (confidence 44) [1DA3D1FE] (AR v2)
Copy OK

Track 5

Filename E:\RRCLtd Rip\05 - Barrel Of A Gun (Underworld Hard Mix).wav

Pre-gap length 0:00:02.57

Peak level 100.0 %
Extraction speed 7.3 X
Track quality 99.9 %
Test CRC 9E869CFD
Copy CRC 9E869CFD
Accurately ripped (confidence 44) [DD717598] (AR v2)
Copy OK

Track 6

Filename E:\RRCLtd Rip\06 - Barrel Of A Gun (United Mix).wav

Pre-gap length 0:00:01.41

Peak level 100.0 %
Extraction speed 7.9 X
Track quality 100.0 %
Test CRC 09B3DD29
Copy CRC 09B3DD29
Accurately ripped (confidence 44) [1D22A467] (AR v2)
Copy OK

Track 7

Filename E:\RRCLtd Rip\07 - Painkiller (Plastikman Mix).wav

Pre-gap length 0:00:02.43

Peak level 100.0 %
Extraction speed 8.6 X
Track quality 100.0 %
Test CRC 3EAF93C7
Copy CRC 3EAF93C7
Accurately ripped (confidence 44) [2C5F7080] (AR v2)
Copy OK

Track 8

Filename E:\RRCLtd Rip\08 - Barrel Of A Gun (3 Phase Mix).wav

Pre-gap length 0:00:01.48

Peak level 100.0 %
Extraction speed 7.6 X
Track quality 99.9 %
Test CRC 071C613A
Copy CRC 071C613A
Accurately ripped (confidence 44) [0DFD2F7F] (AR v2)
Copy OK

Track 9

Filename E:\RRCLtd Rip\09 - Barrel Of A Gun (One Inch Punch Mix - Version 2).wav

Pre-gap length 0:00:02.12

Peak level 100.0 %
Extraction speed 8.8 X
Track quality 100.0 %
Test CRC 15BD7E82
Copy CRC 15BD7E82
Accurately ripped (confidence 44) [13EC77A0] (AR v2)
Copy OK


All tracks accurately ripped

No errors occurred

End of status report

–– CUETools DB Plugin V2.1.6

[CTDB TOCID: mbhabMsi178EY4MFU5jPHH8HB.c-] found
Submit result: mbhabMsi178EY4MFU5jPHH8HB.c- has been confirmed
Track | CTDB Status
1 | (83/85) Accurately ripped
2 | (83/85) Accurately ripped
3 | (83/85) Accurately ripped
4 | (83/85) Accurately ripped
5 | (83/85) Accurately ripped
6 | (83/85) Accurately ripped
7 | (83/85) Accurately ripped
8 | (83/85) Accurately ripped
9 | (82/85) Accurately ripped


==== Log checksum 571FB9CC7EDB080C3A42C7D5F91949EA6FE46FD2E3295698A49CF8D815CC4394 ====

[CUETools log; Date: 02.07.2021 0:47:41; Version: 2.1.4]
[CTDB TOCID: mbhabMsi178EY4MFU5jPHH8HB.c-] found.
Track | CTDB Status
1 | (107/109) Accurately ripped
2 | (107/109) Accurately ripped
3 | (106/109) Accurately ripped
4 | (106/109) Accurately ripped
5 | (106/109) Accurately ripped
6 | (106/109) Accurately ripped
7 | (106/109) Accurately ripped
8 | (106/109) Accurately ripped
9 | (106/109) Accurately ripped
[AccurateRip ID: 0014ef64-009ac994-720e4009] found.
Track [ CRC | V2 ] Status
01 [95da0b06|0c668cbb] (049+053/105) Accurately ripped
02 [de996501|f8324248] (048+055/106) Accurately ripped
03 [4d45c8bf|6277303f] (049+054/106) Accurately ripped
04 [f46cf48e|1da3d1fe] (049+055/107) Accurately ripped
05 [ef087ae1|dd717598] (049+054/106) Accurately ripped
06 [6c9508f9|1d22a467] (049+055/107) Accurately ripped
07 [e64eee18|2c5f7080] (049+055/107) Accurately ripped
08 [8042f4de|0dfd2f7f] (049+053/105) Accurately ripped
09 [ffa3584a|13ec77a0] (049+054/106) Accurately ripped
Offsetted by -78:
01 [e7c72d94] (003/105) Accurately ripped
02 [2450e70b] (003/106) Accurately ripped
03 [412edefb] (003/106) Accurately ripped
04 [dfe3cbd8] (003/107) Accurately ripped
05 [cd723deb] (003/106) Accurately ripped
06 [6f6fd521] (003/107) Accurately ripped
07 [c0ba6a42] (003/107) Accurately ripped
08 [3b9e54f8] (003/105) Accurately ripped
09 [738cf71e] (003/106) Accurately ripped

Track Peak [ CRC32 ] [W/O NULL] [ LOG ]
– 100,0 [C9288332] [10D3401E]
01 100,0 [61854CB3] [56AB608D] CRC32
02 100,0 [E6B8C7D7] [9515FA21] CRC32
03 100,0 [0F497172] [87599A42] CRC32
04 100,0 [E9A2FEB7] [C75D4BE3] CRC32
05 100,0 [9E869CFD] [529F1D9A] CRC32
06 100,0 [09B3DD29] [50CA3FC3] CRC32
07 100,0 [3EAF93C7] [93166394] CRC32
08 100,0 [071C613A] [9E049C86] CRC32
09 100,0 [15BD7E82] [210BA777] CRC32

Depeche Mode - Singles 31-36 [6CD Box Set] (2004)

CD 2: Depeche Mode - It's No Good (1997)
EAC Rip | FLAC (tracks+.cue+log) - 304 MB | Covers - 18 MB
Genre: Synth-pop | RAR 3% Rec. | Label: Mute (CDBONG 26X)

Tracklist:
01. It's No Good
02. Slowblow
03. It's No Good (Dom T's Bass Bounce Mix)
04. It's No Good (Speedy J Mix)
05. It's No Good (Hardfloor Mix)
06. Slowblow (Darren Price Mix)
07. It's No Good (Andrea Parker Mix)
08. It's No Good (Motor Bass Mix)

Total time: 47:03

Exact Audio Copy V1.3 from 2. September 2016

EAC extraction logfile from 25. January 2020, 23:09

Depeche Mode / It's No Good (DMBX CD32)

Used drive : PIONEER DVD-RW DVR-215 Adapter: 1 ID: 2

Read mode : Secure
Utilize accurate stream : Yes
Defeat audio cache : Yes
Make use of C2 pointers : No

Read offset correction : 48
Overread into Lead-In and Lead-Out : No
Fill up missing offset samples with silence : Yes
Delete leading and trailing silent blocks : No
Null samples used in CRC calculations : Yes
Used interface : Native Win32 interface for Win NT & 2000
Gap handling : Appended to previous track

Used output format : User Defined Encoder
Selected bitrate : 1024 kBit/s
Quality : High
Add ID3 tag : No
Command line compressor : C:\Program Files (x86)\Exact Audio Copy\FLAC\FLAC.EXE
Additional command line options : -6 -V -T "COMMENT=ripped by RRC" -T "ARTIST=%artist%" -T "TITLE=%title%" -T "ALBUM=%albumtitle%" -T "DATE=%year%" -T "TRACKNUMBER=%tracknr%" -T "GENRE=%genre%" %source%


TOC of the extracted CD

Track | Start | Length | Start sector | End sector
––––––––––––––––––––––––––––-
1 | 0:00.00 | 6:00.68 | 0 | 27067
2 | 6:00.68 | 5:25.42 | 27068 | 51484
3 | 11:26.35 | 7:16.68 | 51485 | 84252
4 | 18:43.28 | 5:04.57 | 84253 | 107109
5 | 23:48.10 | 6:43.15 | 107110 | 137349
6 | 30:31.25 | 6:29.15 | 137350 | 166539
7 | 37:00.40 | 6:14.38 | 166540 | 194627
8 | 43:15.03 | 3:48.54 | 194628 | 211781


Track 1

Filename E:\RRCLtd Rip\01 - It's No Good.wav

Pre-gap length 0:00:02.00

Peak level 100.0 %
Extraction speed 4.9 X
Track quality 100.0 %
Test CRC D35D3CFE
Copy CRC D35D3CFE
Accurately ripped (confidence 24) [FC4B57C4] (AR v2)
Copy OK

Track 2

Filename E:\RRCLtd Rip\02 - Slowblow.wav

Pre-gap length 0:00:02.40

Peak level 100.0 %
Extraction speed 5.6 X
Track quality 100.0 %
Test CRC E5BEB608
Copy CRC E5BEB608
Accurately ripped (confidence 24) [978A7F14] (AR v2)
Copy OK

Track 3

Filename E:\RRCLtd Rip\03 - It's No Good (Dom T's Bass Bounce Mix).wav

Pre-gap length 0:00:01.22

Peak level 100.0 %
Extraction speed 5.9 X
Track quality 99.9 %
Test CRC 777EF119
Copy CRC 777EF119
Accurately ripped (confidence 24) [CC1F65CF] (AR v2)
Copy OK

Track 4

Filename E:\RRCLtd Rip\04 - It's No Good (Speedy J Mix).wav

Pre-gap length 0:00:02.40

Peak level 100.0 %
Extraction speed 6.0 X
Track quality 99.9 %
Test CRC 4600C930
Copy CRC 4600C930
Accurately ripped (confidence 24) [13A03F90] (AR v2)
Copy OK

Track 5

Filename E:\RRCLtd Rip\05 - It's No Good (Hardfloor Mix).wav

Pre-gap length 0:00:02.25

Peak level 100.0 %
Extraction speed 7.3 X
Track quality 100.0 %
Test CRC 455CE419
Copy CRC 455CE419
Accurately ripped (confidence 24) [CEAC8381] (AR v2)
Copy OK

Track 6

Filename E:\RRCLtd Rip\06 - Slowblow (Darren Price Mix).wav

Pre-gap length 0:00:02.40

Peak level 100.0 %
Extraction speed 7.7 X
Track quality 100.0 %
Test CRC F484C0D7
Copy CRC F484C0D7
Accurately ripped (confidence 24) [1BDE5CFE] (AR v2)
Copy OK

Track 7

Filename E:\RRCLtd Rip\07 - It's No Good (Andrea Parker Mix).wav

Pre-gap length 0:00:02.42

Peak level 100.0 %
Extraction speed 7.4 X
Track quality 99.9 %
Test CRC 0DCC5782
Copy CRC 0DCC5782
Accurately ripped (confidence 25) [86AE764D] (AR v2)
Copy OK

Track 8

Filename E:\RRCLtd Rip\08 - It's No Good (Motor Bass Mix).wav

Pre-gap length 0:00:02.50

Peak level 100.0 %
Extraction speed 6.9 X
Track quality 99.9 %
Test CRC AA6FB059
Copy CRC AA6FB059
Accurately ripped (confidence 24) [AC1F57B1] (AR v2)
Copy OK


All tracks accurately ripped

No errors occurred

End of status report

–– CUETools DB Plugin V2.1.6

[CTDB TOCID: 7tjIkimICII1X7YJH0Ber44a52Y-] found
Submit result: 7tjIkimICII1X7YJH0Ber44a52Y- has been confirmed
Track | CTDB Status
1 | (79/81) Accurately ripped
2 | (79/81) Accurately ripped
3 | (79/81) Accurately ripped
4 | (79/81) Accurately ripped
5 | (79/81) Accurately ripped
6 | (79/81) Accurately ripped
7 | (79/81) Accurately ripped
8 | (79/81) Accurately ripped


==== Log checksum 3B4B1FB61D8895568345D7DC1ECC927E39BBF5FF4729768B77455195F35D88F8 ====

[CUETools log; Date: 02.07.2021 0:48:30; Version: 2.1.4]
[CTDB TOCID: 7tjIkimICII1X7YJH0Ber44a52Y-] found.
Track | CTDB Status
1 | (103/105) Accurately ripped
2 | (103/105) Accurately ripped
3 | (103/105) Accurately ripped
4 | (103/105) Accurately ripped
5 | (103/105) Accurately ripped
6 | (103/105) Accurately ripped
7 | (103/105) Accurately ripped
8 | (102/105) Accurately ripped
[AccurateRip ID: 000ef4f8-0063b3d0-620b0708] found.
Track [ CRC | V2 ] Status
01 [ecefe983|fc4b57c4] (035+032/102) Accurately ripped
02 [b5c78811|978a7f14] (037+031/103) Accurately ripped
03 [2614887d|cc1f65cf] (037+032/104) Accurately ripped
04 [c9d4a8a3|13a03f90] (038+031/104) Accurately ripped
05 [06a6b9a0|ceac8381] (036+032/103) Accurately ripped
06 [fb3f99d2|1bde5cfe] (037+032/104) Accurately ripped
07 [a759ade2|86ae764d] (037+032/104) Accurately ripped
08 [7590545f|ac1f57b1] (036+032/103) Accurately ripped
Offsetted by -78:
01 [f11c0bf9] (003/102) Accurately ripped
02 [eaebb171] (003/103) Accurately ripped
03 [5905294f] (003/104) Accurately ripped
04 [e497805b] (003/104) Accurately ripped
05 [a6caa85a] (003/103) Accurately ripped
06 [1c231e42] (003/104) Accurately ripped
07 [7f17a4a2] (003/104) Accurately ripped
08 [7ab2f95f] (003/103) Accurately ripped
Offsetted by -6:
01 [b22e6251] (010/102) Accurately ripped
02 [43b69ef1] (010/103) Accurately ripped
03 [b3d84617] (010/104) Accurately ripped
04 [7d1eb93b] (010/104) Accurately ripped
05 [b0821ac2] (010/103) Accurately ripped
06 [73eea402] (010/104) Accurately ripped
07 [06b70fa2] (010/104) Accurately ripped
08 [137f4d5f] (010/103) Accurately ripped

Track Peak [ CRC32 ] [W/O NULL] [ LOG ]
– 100,0 [EE388A13] [9F1034D4]
01 100,0 [D35D3CFE] [9260A084] CRC32
02 100,0 [E5BEB608] [25B694F3] CRC32
03 100,0 [777EF119] [B78C3B4B] CRC32
04 100,0 [4600C930] [E1FB04FF] CRC32
05 100,0 [455CE419] [523B35FD] CRC32
06 100,0 [F484C0D7] [A1E8AE99] CRC32
07 100,0 [0DCC5782] [6839AF89] CRC32
08 100,0 [AA6FB059] [F44009B0] CRC32

Depeche Mode - Singles 31-36 [6CD Box Set] (2004)

CD 3: Depeche Mode - Home (1997)
EAC Rip | FLAC (tracks+.cue+log) - 295 MB | Covers - 24 MB
Genre: Synth-pop | RAR 3% Rec. | Label: Mute (CDBONG 27X)

Tracklist:
01. Home
02. Home (Air "Around The Golf" Remix)
03. Home (LFO Meant To Be)
04. Home (The Noodles And The Damage Done)
05. Home (Jedi Knights Remix) (Drowning In Time)
06. Home (Grantby Mix)
07. Barrel Of A Gun (Live)
08. It's No Good (Live)

Total time: 42:41

Exact Audio Copy V1.3 from 2. September 2016

EAC extraction logfile from 25. January 2020, 22:50

Depeche Mode / Home (DMBX CD33)

Used drive : PIONEER DVD-RW DVR-215 Adapter: 1 ID: 2

Read mode : Secure
Utilize accurate stream : Yes
Defeat audio cache : Yes
Make use of C2 pointers : No

Read offset correction : 48
Overread into Lead-In and Lead-Out : No
Fill up missing offset samples with silence : Yes
Delete leading and trailing silent blocks : No
Null samples used in CRC calculations : Yes
Used interface : Native Win32 interface for Win NT & 2000
Gap handling : Appended to previous track

Used output format : User Defined Encoder
Selected bitrate : 1024 kBit/s
Quality : High
Add ID3 tag : No
Command line compressor : C:\Program Files (x86)\Exact Audio Copy\FLAC\FLAC.EXE
Additional command line options : -6 -V -T "COMMENT=ripped by RRC" -T "ARTIST=%artist%" -T "TITLE=%title%" -T "ALBUM=%albumtitle%" -T "DATE=%year%" -T "TRACKNUMBER=%tracknr%" -T "GENRE=%genre%" %source%


TOC of the extracted CD

Track | Start | Length | Start sector | End sector
––––––––––––––––––––––––––––-
1 | 0:00.00 | 5:47.33 | 0 | 26057
2 | 5:47.33 | 3:57.08 | 26058 | 43840
3 | 9:44.41 | 4:26.07 | 43841 | 63797
4 | 14:10.48 | 6:37.20 | 63798 | 93592
5 | 20:47.68 | 7:02.70 | 93593 | 125312
6 | 27:50.63 | 4:39.35 | 125313 | 146272
7 | 32:30.23 | 6:02.40 | 146273 | 173462
8 | 38:32.63 | 4:08.02 | 173463 | 192064


Track 1

Filename E:\RRCLtd Rip\01 - Home.wav

Pre-gap length 0:00:02.00

Peak level 100.0 %
Extraction speed 4.9 X
Track quality 100.0 %
Test CRC 45974ACB
Copy CRC 45974ACB
Accurately ripped (confidence 23) [0FD261D1] (AR v2)
Copy OK

Track 2

Filename E:\RRCLtd Rip\02 - Home (Air ''Around The Golf'' Remix).wav

Pre-gap length 0:00:00.23

Peak level 100.0 %
Extraction speed 5.2 X
Track quality 100.0 %
Test CRC 2D744F10
Copy CRC 2D744F10
Accurately ripped (confidence 24) [27927437] (AR v2)
Copy OK

Track 3

Filename E:\RRCLtd Rip\03 - Home (LFO Meant To Be).wav

Pre-gap length 0:00:01.38

Peak level 100.0 %
Extraction speed 5.7 X
Track quality 100.0 %
Test CRC 46BEBB13
Copy CRC 46BEBB13
Accurately ripped (confidence 24) [A7E1988A] (AR v2)
Copy OK

Track 4

Filename E:\RRCLtd Rip\04 - Home (The Noodles And The Damage Done).wav

Pre-gap length 0:00:00.73

Peak level 100.0 %
Extraction speed 6.5 X
Track quality 100.0 %
Test CRC 69AC9D21
Copy CRC 69AC9D21
Accurately ripped (confidence 24) [95950116] (AR v2)
Copy OK

Track 5

Filename E:\RRCLtd Rip\05 - Home (Jedi Knights Remix) (Drowning In Time).wav

Pre-gap length 0:00:01.16

Peak level 100.0 %
Extraction speed 6.5 X
Track quality 99.9 %
Test CRC F24BE395
Copy CRC F24BE395
Accurately ripped (confidence 24) [EFEDE252] (AR v2)
Copy OK

Track 6

Filename E:\RRCLtd Rip\06 - Home (Grantby Mix).wav

Pre-gap length 0:00:01.48

Peak level 100.0 %
Extraction speed 6.9 X
Track quality 100.0 %
Test CRC B4A12128
Copy CRC B4A12128
Accurately ripped (confidence 24) [C449A7E4] (AR v2)
Copy OK

Track 7

Filename E:\RRCLtd Rip\07 - Barrel Of A Gun (Live).wav

Pre-gap length 0:00:02.03

Peak level 100.0 %
Extraction speed 7.1 X
Track quality 99.9 %
Test CRC E389B03E
Copy CRC E389B03E
Accurately ripped (confidence 24) [3F090831] (AR v2)
Copy OK

Track 8

Filename E:\RRCLtd Rip\08 - It's No Good (Live).wav

Pre-gap length 0:00:01.68

Peak level 100.0 %
Extraction speed 6.7 X
Track quality 99.9 %
Test CRC 931E7EB0
Copy CRC 931E7EB0
Accurately ripped (confidence 24) [F0B97CE8] (AR v2)
Copy OK


All tracks accurately ripped

No errors occurred

End of status report

–– CUETools DB Plugin V2.1.6

[CTDB TOCID: 1PwAXDBKOAUDtdFfdRbis9NL2fQ-] found
Submit result: 1PwAXDBKOAUDtdFfdRbis9NL2fQ- has been confirmed
Track | CTDB Status
1 | (73/78) Accurately ripped
2 | (73/78) Accurately ripped
3 | (68/78) Accurately ripped
4 | (73/78) Accurately ripped
5 | (73/78) Accurately ripped
6 | (76/78) Accurately ripped
7 | (76/78) Accurately ripped
8 | (76/78) Accurately ripped


==== Log checksum 62DDB235DA7BBCA9631DB2212B6CC975CFDC1E8894CD3913234453BBB9644899 ====

[CUETools log; Date: 02.07.2021 0:49:13; Version: 2.1.4]
[CTDB TOCID: 1PwAXDBKOAUDtdFfdRbis9NL2fQ-] found.
Track | CTDB Status
1 | (94/99) Accurately ripped
2 | (94/99) Accurately ripped
3 | (87/99) Accurately ripped
4 | (94/99) Accurately ripped
5 | (94/99) Accurately ripped
6 | (97/99) Accurately ripped
7 | (97/99) Accurately ripped
8 | (97/99) Accurately ripped
[AccurateRip ID: 000d3094-00587bdb-6f0a0008] found.
Track [ CRC | V2 ] Status
01 [f21e09b1|0fd261d1] (033+030/097) Accurately ripped
02 [ed5de6cc|27927437] (034+031/099) Accurately ripped
03 [e78b7db6|a7e1988a] (032+032/097) Accurately ripped
04 [a97657dc|95950116] (031+032/097) Accurately ripped
05 [e950b6c6|efede252] (035+031/100) Accurately ripped
06 [d7d26b89|c449a7e4] (035+032/101) Accurately ripped
07 [2bdd92dd|3f090831] (034+032/100) Accurately ripped
08 [37a04535|f0b97ce8] (034+032/100) Accurately ripped
Offsetted by -78:
01 [5fb229ef] (003/097) Accurately ripped
02 [dcfd8140] (003/099) Accurately ripped
03 [631c5d94] (003/097) Accurately ripped
04 [0a9e180e] (003/097) Accurately ripped
05 [8f56198a] (003/100) Accurately ripped
06 [a0f1d909] (003/101) Accurately ripped
07 [ee9c7a8d] (003/100) Accurately ripped
08 [8037d9c9] (003/100) Accurately ripped
Offsetted by -6:
01 [9815bd67] (010/097) Accurately ripped
02 [272f1a10] (010/099) Accurately ripped
03 [7ae5678c] (010/097) Accurately ripped
04 [ffb47a56] (010/097) Accurately ripped
05 [6c3d6f9a] (010/100) Accurately ripped
06 [225eaf09] (010/101) Accurately ripped
07 [899d7d4d] (010/100) Accurately ripped
08 [8bfab319] (010/100) Accurately ripped

Track Peak [ CRC32 ] [W/O NULL] [ LOG ]
– 100,0 [E630CB96] [102A4D96]
01 100,0 [45974ACB] [44BCE347] CRC32
02 100,0 [2D744F10] [01824A52] CRC32
03 100,0 [46BEBB13] [02F84E51] CRC32
04 100,0 [69AC9D21] [27A20FE2] CRC32
05 100,0 [F24BE395] [0E6166A3] CRC32
06 100,0 [B4A12128] [6CCD7A69] CRC32
07 100,0 [E389B03E] [A71D8552] CRC32
08 100,0 [931E7EB0] [4BBD0619] CRC32

Depeche Mode - Singles 31-36 [6CD Box Set] (2004)

CD 4: Depeche Mode - Useless (1997)
EAC Rip | FLAC (tracks+.cue+log) - 378 MB | Covers - 23 MB
Genre: Synth-pop | RAR 3% Rec. | Label: Mute (CDBONG 28X)

Tracklist:
01. Useless (Remix)
02. Useless (Escape From Wherever: Parts 1 & 2!)
03. Useless (Cosmic Blues Mix)
04. Useless (CJ Bolland Ultrasonar Mix)
05. Useless (The Kruder + Dorfmeister Session™)
06. Useless (CJ Bolland Funky Sub Mix)
07. Useless (Air 20 Mix)
08. Useless (Live)

Total time: 53:20

Exact Audio Copy V1.3 from 2. September 2016

EAC extraction logfile from 25. January 2020, 22:33

Depeche Mode / Useless (DMBX CD34)

Used drive : PIONEER DVD-RW DVR-215 Adapter: 1 ID: 2

Read mode : Secure
Utilize accurate stream : Yes
Defeat audio cache : Yes
Make use of C2 pointers : No

Read offset correction : 48
Overread into Lead-In and Lead-Out : No
Fill up missing offset samples with silence : Yes
Delete leading and trailing silent blocks : No
Null samples used in CRC calculations : Yes
Used interface : Native Win32 interface for Win NT & 2000
Gap handling : Appended to previous track

Used output format : User Defined Encoder
Selected bitrate : 1024 kBit/s
Quality : High
Add ID3 tag : No
Command line compressor : C:\Program Files (x86)\Exact Audio Copy\FLAC\FLAC.EXE
Additional command line options : -6 -V -T "COMMENT=ripped by RRC" -T "ARTIST=%artist%" -T "TITLE=%title%" -T "ALBUM=%albumtitle%" -T "DATE=%year%" -T "TRACKNUMBER=%tracknr%" -T "GENRE=%genre%" %source%


TOC of the extracted CD

Track | Start | Length | Start sector | End sector
––––––––––––––––––––––––––––-
1 | 0:00.00 | 4:54.21 | 0 | 22070
2 | 4:54.21 | 7:17.26 | 22071 | 54871
3 | 12:11.47 | 6:57.55 | 54872 | 86201
4 | 19:09.27 | 6:02.05 | 86202 | 113356
5 | 25:11.32 | 9:09.30 | 113357 | 154561
6 | 34:20.62 | 5:39.02 | 154562 | 179988
7 | 39:59.64 | 7:58.59 | 179989 | 215897
8 | 47:58.48 | 5:22.03 | 215898 | 240050
9 | 55:52.51 | 13:35.24 | 251451 | 312599


Track 1

Filename E:\RRCLtd Rip\01 - Useless (Remix).wav

Pre-gap length 0:00:02.00

Peak level 100.0 %
Extraction speed 4.7 X
Track quality 100.0 %
Test CRC BB64D263
Copy CRC BB64D263
Accurately ripped (confidence 24) [DAE70800] (AR v2)
Copy OK

Track 2

Filename E:\RRCLtd Rip\02 - Useless (Escape From Wherever- Parts 1 & 2!).wav

Pre-gap length 0:00:02.08

Peak level 100.0 %
Extraction speed 5.6 X
Track quality 100.0 %
Test CRC 2FBB2BB3
Copy CRC 2FBB2BB3
Accurately ripped (confidence 25) [F06F879D] (AR v2)
Copy OK

Track 3

Filename E:\RRCLtd Rip\03 - Useless (Cosmic Blues Mix).wav

Pre-gap length 0:00:02.40

Peak level 100.0 %
Extraction speed 6.2 X
Track quality 100.0 %
Test CRC 4B52F85E
Copy CRC 4B52F85E
Accurately ripped (confidence 24) [FDBE4832] (AR v2)
Copy OK

Track 4

Filename E:\RRCLtd Rip\04 - Useless (CJ Bolland Ultrasonar Mix).wav

Pre-gap length 0:00:02.55

Peak level 100.0 %
Extraction speed 6.6 X
Track quality 100.0 %
Test CRC 4E70FE9C
Copy CRC 4E70FE9C
Accurately ripped (confidence 24) [043A60A0] (AR v2)
Copy OK

Track 5

Filename E:\RRCLtd Rip\05 - Useless (The Kruder + Dorfmeister Session).wav

Pre-gap length 0:00:01.67

Peak level 99.4 %
Extraction speed 7.5 X
Track quality 100.0 %
Test CRC 3BCA698B
Copy CRC 3BCA698B
Accurately ripped (confidence 25) [D383FC47] (AR v2)
Copy OK

Track 6

Filename E:\RRCLtd Rip\06 - Useless (CJ Bolland Funky Sub Mix).wav

Pre-gap length 0:00:02.28

Peak level 100.0 %
Extraction speed 7.7 X
Track quality 100.0 %
Test CRC 027747BA
Copy CRC 027747BA
Accurately ripped (confidence 24) [24D8E6F5] (AR v2)
Copy OK

Track 7

Filename E:\RRCLtd Rip\07 - Useless (Air 20 Mix).wav

Pre-gap length 0:00:00.12

Peak level 100.0 %
Extraction speed 8.3 X
Track quality 100.0 %
Test CRC 9646EACB
Copy CRC 9646EACB
Accurately ripped (confidence 24) [4B6D35F9] (AR v2)
Copy OK

Track 8

Filename E:\RRCLtd Rip\08 - Useless (Live).wav

Pre-gap length 0:00:01.25

Peak level 100.0 %
Extraction speed 7.6 X
Track quality 99.9 %
Test CRC 5849858A
Copy CRC 5849858A
Accurately ripped (confidence 24) [78F8AB84] (AR v2)
Copy OK


All tracks accurately ripped

No errors occurred

End of status report

–– CUETools DB Plugin V2.1.6

[CTDB TOCID: 2l.vrsuAgaF8ploXNYwzQI6xJo4-] found
Submit result: 2l.vrsuAgaF8ploXNYwzQI6xJo4- has been confirmed
Track | CTDB Status
1 | (81/82) Accurately ripped
2 | (81/82) Accurately ripped
3 | (81/82) Accurately ripped
4 | (81/82) Accurately ripped
5 | (81/82) Accurately ripped
6 | (81/82) Accurately ripped
7 | (81/82) Accurately ripped
8 | (81/82) Accurately ripped


==== Log checksum 9809FA65DAF2CE8C2AC33F9F1B2BF9474DC9165C4AB0D89806AE9C346CDD5B65 ====

[CUETools log; Date: 02.07.2021 0:50:13; Version: 2.1.4]
CD-Extra data track length 13:35:24.
[CTDB TOCID: 2l.vrsuAgaF8ploXNYwzQI6xJo4-] found.
Track | CTDB Status
1 | (105/106) Accurately ripped
2 | (105/106) Accurately ripped
3 | (105/106) Accurately ripped
4 | (105/106) Accurately ripped
5 | (105/106) Accurately ripped
6 | (105/106) Accurately ripped
7 | (105/106) Accurately ripped
8 | (105/106) Accurately ripped
[AccurateRip ID: 0011635f-0077c127-64104809] found.
Track [ CRC | V2 ] Status
01 [5fcacc53|dae70800] (35+29/93) Accurately ripped
02 [d1a43f96|f06f879d] (35+31/95) Accurately ripped
03 [58270fee|fdbe4832] (35+30/94) Accurately ripped
04 [7bdebf66|043a60a0] (34+30/93) Accurately ripped
05 [e63b2a89|d383fc47] (34+30/93) Accurately ripped
06 [1e0e824c|24d8e6f5] (35+29/93) Accurately ripped
07 [9fd2f11d|4b6d35f9] (35+30/94) Accurately ripped
08 [97251010|78f8ab84] (34+30/92) Accurately ripped
Offsetted by -6:
01 [ec862e73] (09/93) Accurately ripped
02 [a282f072] (09/95) Accurately ripped
03 [0511a672] (09/94) Accurately ripped
04 [c16e078a] (09/93) Accurately ripped
05 [8926a7ab] (09/93) Accurately ripped
06 [6f3f3806] (09/93) Accurately ripped
07 [0ba3edf5] (09/94) Accurately ripped
08 [26ff362a] (08/92) Accurately ripped

Track Peak [ CRC32 ] [W/O NULL] [ LOG ]
– 100,0 [136E444B] [754FCEA9]
01 100,0 [BB64D263] [58ADE3D9] CRC32
02 100,0 [2FBB2BB3] [3E291AA8] CRC32
03 100,0 [4B52F85E] [86B18CDA] CRC32
04 100,0 [4E70FE9C] [2BF6F2A2] CRC32
05 99,4 [3BCA698B] [09536B92] CRC32
06 100,0 [027747BA] [7D1A778A] CRC32
07 100,0 [9646EACB] [528095E0] CRC32
08 100,0 [5849858A] [40F078C3] CRC32

Depeche Mode - Singles 31-36 [6CD Box Set] (2004)

CD 5: Depeche Mode - Only When I Lose Myself (1998)
EAC Rip | FLAC (tracks+.cue+log) - 503 MB | Covers - 22 MB
Genre: Synth-pop | RAR 3% Rec. | Label: Mute (CDBONG 29X)

Tracklist:
01. Only When I Lose Myself
02. Surrender
03. Headstar
04. Only When I Lose Myself (Subsonic Legacy Mix)
05. Only When I Lose Myself (Dan The Automator Mix)
06. Headstar (Luke Slater Remix)
07. Only When I Lose Myself (Gus Gus Long Play Mix)
08. Painkiller (Kill The Pain - DJ Shadow Vs. Depeche Mode)
09. Surrender (FC Catalan Out Of Reach Mix)
10. Only When I Lose Myself (Gus Gus Short Play Mix)
11. World In My Eyes (Safar Mix)

Total time: 01:11:39

Exact Audio Copy V1.3 from 2. September 2016

EAC extraction logfile from 25. January 2020, 22:13

Depeche Mode / Only When I Lose Myself (DMBX CD35)

Used drive : PIONEER DVD-RW DVR-215 Adapter: 1 ID: 2

Read mode : Secure
Utilize accurate stream : Yes
Defeat audio cache : Yes
Make use of C2 pointers : No

Read offset correction : 48
Overread into Lead-In and Lead-Out : No
Fill up missing offset samples with silence : Yes
Delete leading and trailing silent blocks : No
Null samples used in CRC calculations : Yes
Used interface : Native Win32 interface for Win NT & 2000
Gap handling : Appended to previous track

Used output format : User Defined Encoder
Selected bitrate : 1024 kBit/s
Quality : High
Add ID3 tag : No
Command line compressor : C:\Program Files (x86)\Exact Audio Copy\FLAC\FLAC.EXE
Additional command line options : -6 -V -T "COMMENT=ripped by RRC" -T "ARTIST=%artist%" -T "TITLE=%title%" -T "ALBUM=%albumtitle%" -T "DATE=%year%" -T "TRACKNUMBER=%tracknr%" -T "GENRE=%genre%" %source%


TOC of the extracted CD

Track | Start | Length | Start sector | End sector
––––––––––––––––––––––––––––-
1 | 0:00.00 | 4:36.25 | 0 | 20724
2 | 4:36.25 | 6:19.70 | 20725 | 49219
3 | 10:56.20 | 4:24.43 | 49220 | 69062
4 | 15:20.63 | 7:03.00 | 69063 | 100787
5 | 22:23.63 | 4:57.72 | 100788 | 123134
6 | 27:21.60 | 5:48.30 | 123135 | 149264
7 | 33:10.15 | 11:21.50 | 149265 | 200389
8 | 44:31.65 | 6:34.13 | 200390 | 229952
9 | 51:06.03 | 6:55.27 | 229953 | 261104
10 | 58:01.30 | 5:07.08 | 261105 | 284137
11 | 63:08.38 | 8:31.09 | 284138 | 322471


Track 1

Filename E:\RRCLtd Rip\01 - Only When I Lose Myself.wav

Pre-gap length 0:00:02.00

Peak level 100.0 %
Extraction speed 3.5 X
Track quality 99.8 %
Test CRC 31248558
Copy CRC 31248558
Accurately ripped (confidence 40) [34332915] (AR v2)
Copy OK

Track 2

Filename E:\RRCLtd Rip\02 - Surrender.wav

Pre-gap length 0:00:02.37

Peak level 100.0 %
Extraction speed 5.5 X
Track quality 100.0 %
Test CRC D3CCD544
Copy CRC D3CCD544
Accurately ripped (confidence 41) [FC62BE70] (AR v2)
Copy OK

Track 3

Filename E:\RRCLtd Rip\03 - Headstar.wav

Pre-gap length 0:00:02.25

Peak level 100.0 %
Extraction speed 5.2 X
Track quality 99.9 %
Test CRC E5400C69
Copy CRC E5400C69
Accurately ripped (confidence 41) [9C0DCB66] (AR v2)
Copy OK

Track 4

Filename E:\RRCLtd Rip\04 - Only When I Lose Myself (Subsonic Legacy Mix).wav

Pre-gap length 0:00:01.45

Peak level 100.0 %
Extraction speed 6.6 X
Track quality 100.0 %
Test CRC 4C60E5C8
Copy CRC 4C60E5C8
Accurately ripped (confidence 41) [4C9F486F] (AR v2)
Copy OK

Track 5

Filename E:\RRCLtd Rip\05 - Only When I Lose Myself (Dan the Automator Mix).wav

Pre-gap length 0:00:02.38

Peak level 100.0 %
Extraction speed 6.8 X
Track quality 100.0 %
Test CRC 4A3C2FC3
Copy CRC 4A3C2FC3
Accurately ripped (confidence 41) [D5EE2AC2] (AR v2)
Copy OK

Track 6

Filename E:\RRCLtd Rip\06 - Headstar (Luke Slater Remix).wav

Pre-gap length 0:00:01.50

Peak level 100.0 %
Extraction speed 7.3 X
Track quality 100.0 %
Test CRC D6B18721
Copy CRC D6B18721
Accurately ripped (confidence 41) [E5857D79] (AR v2)
Copy OK

Track 7

Filename E:\RRCLtd Rip\07 - Only When I Lose Myself (Gus Gus Long Play Mix).wav

Pre-gap length 0:00:01.57

Peak level 100.0 %
Extraction speed 8.2 X
Track quality 100.0 %
Test CRC 026FD79C
Copy CRC 026FD79C
Accurately ripped (confidence 42) [8C320C41] (AR v2)
Copy OK

Track 8

Filename E:\RRCLtd Rip\08 - Painkiller (Kill the Pain - DJ Shadow vs. Depeche Mode).wav

Pre-gap length 0:00:02.67

Peak level 100.0 %
Extraction speed 8.4 X
Track quality 100.0 %
Test CRC C01E3EEA
Copy CRC C01E3EEA
Accurately ripped (confidence 42) [EE2DA123] (AR v2)
Copy OK

Track 9

Filename E:\RRCLtd Rip\09 - Surrender (FC Catalan Out Of Reach Mix).wav

Pre-gap length 0:00:02.63

Peak level 100.0 %
Extraction speed 8.7 X
Track quality 100.0 %
Test CRC BA62F237
Copy CRC BA62F237
Accurately ripped (confidence 42) [E87AF213] (AR v2)
Copy OK

Track 10

Filename E:\RRCLtd Rip\10 - Only When I Lose Myself (Gus Gus Short Play Mix).wav

Pre-gap length 0:00:02.25

Peak level 100.0 %
Extraction speed 8.0 X
Track quality 99.9 %
Test CRC 8AA60F99
Copy CRC 8AA60F99
Accurately ripped (confidence 42) [11FD287E] (AR v2)
Copy OK

Track 11

Filename E:\RRCLtd Rip\11 - World in My Eyes (Safar Mix).wav

Pre-gap length 0:00:02.33

Peak level 100.0 %
Extraction speed 9.5 X
Track quality 100.0 %
Test CRC 9244CEF3
Copy CRC 9244CEF3
Accurately ripped (confidence 41) [CD296EDD] (AR v2)
Copy OK


All tracks accurately ripped

No errors occurred

End of status report

–– CUETools DB Plugin V2.1.6

[CTDB TOCID: TvCGiya_bOYiU.Y05kQUA5qjMNQ-] found
Submit result: TvCGiya_bOYiU.Y05kQUA5qjMNQ- has been confirmed
Track | CTDB Status
1 | (79/79) Accurately ripped
2 | (79/79) Accurately ripped
3 | (79/79) Accurately ripped
4 | (79/79) Accurately ripped
5 | (79/79) Accurately ripped
6 | (79/79) Accurately ripped
7 | (79/79) Accurately ripped
8 | (79/79) Accurately ripped
9 | (79/79) Accurately ripped
10 | (79/79) Accurately ripped
11 | (79/79) Accurately ripped


==== Log checksum 3461C543F08E75F4FAE5A1973ECDA10B5553D3344822645DF3CE37AA51C6ABD6 ====

[CUETools log; Date: 02.07.2021 0:51:11; Version: 2.1.4]
[CTDB TOCID: TvCGiya_bOYiU.Y05kQUA5qjMNQ-] found.
Track | CTDB Status
1 | (100/100) Accurately ripped
2 | (100/100) Accurately ripped
3 | (100/100) Accurately ripped
4 | (100/100) Accurately ripped
5 | (100/100) Accurately ripped
6 | (100/100) Accurately ripped
7 | (100/100) Accurately ripped
8 | (100/100) Accurately ripped
9 | (100/100) Accurately ripped
10 | (100/100) Accurately ripped
11 | (100/100) Accurately ripped
[AccurateRip ID: 001b9f4e-00f4a099-ab10cb0b] found.
Track [ CRC | V2 ] Status
01 [fe80fc01|34332915] (045+049/097) Accurately ripped
02 [23a96ca3|fc62be70] (045+051/099) Accurately ripped
03 [097ec822|9c0dcb66] (045+051/099) Accurately ripped
04 [9cf2587f|4c9f486f] (046+051/100) Accurately ripped
05 [df5b2753|d5ee2ac2] (046+050/099) Accurately ripped
06 [867e6669|e5857d79] (046+050/099) Accurately ripped
07 [b1cea9a8|8c320c41] (046+052/101) Accurately ripped
08 [a5668dd1|ee2da123] (046+052/101) Accurately ripped
09 [e984f8eb|e87af213] (046+051/100) Accurately ripped
10 [2f47d1f7|11fd287e] (046+051/100) Accurately ripped
11 [65a48a12|cd296edd] (046+051/100) Accurately ripped
Offsetted by -78:
01 [95d53f2f] (003/097) Accurately ripped
02 [6e69abff] (003/099) Accurately ripped
03 [a4aa3766] (003/099) Accurately ripped
04 [d88660cb] (003/100) Accurately ripped
05 [1140091d] (003/099) Accurately ripped
06 [5d23ec53] (003/099) Accurately ripped
07 [f92b8a8c] (003/101) Accurately ripped
08 [e3924b01] (003/101) Accurately ripped
09 [e4fd1eb7] (003/100) Accurately ripped
10 [a62bb007] (003/100) Accurately ripped
11 [1eac3e0c] (003/100) Accurately ripped

Track Peak [ CRC32 ] [W/O NULL] [ LOG ]
– 100,0 [664C097C] [C33A0932]
01 100,0 [31248558] [71E62E53] CRC32
02 100,0 [D3CCD544] [1165A4F0] CRC32
03 100,0 [E5400C69] [5DFA55F0] CRC32
04 100,0 [4C60E5C8] [54CF3A78] CRC32
05 100,0 [4A3C2FC3] [F001D939] CRC32
06 100,0 [D6B18721] [AEA40824] CRC32
07 100,0 [026FD79C] [42A4677D] CRC32
08 100,0 [C01E3EEA] [1989EA2F] CRC32
09 100,0 [BA62F237] [4139FADB] CRC32
10 100,0 [8AA60F99] [88715BC7] CRC32
11 100,0 [9244CEF3] [60F454B4] CRC32

Depeche Mode - Singles 31-36 [6CD Box Set] (2004)

CD 6: Depeche Mode - Dream On (2001)
EAC Rip | FLAC (tracks+.cue+log) - 310 MB | Covers - 22 MB
Genre: Synth-pop | RAR 3% Rec. | Label: Mute (CDLITTLE 30X)

Tracklist:
01. Dream On (Single Version)
02. Easy Tiger (Full Version)
03. Easy Tiger (Bertrand Burgalat & A.S. Dragon Version)
04. Dream On (Bushwacka Tough Guy Mix)
05. Dream On (Dave Clarke Acoustic Version)
06. Dream On (Octagon Man Mix)
07. Dream On (Kid 606 Mix)
08. Dream On (Dave Clarke Remix)
09. Dream On (Bushwacka Blunt Mix)

Total time: 46:23

Exact Audio Copy V1.3 from 2. September 2016

EAC extraction logfile from 25. January 2020, 21:50

Depeche Mode / Dream On (DMBX CD36)

Used drive : PIONEER DVD-RW DVR-215 Adapter: 1 ID: 2

Read mode : Secure
Utilize accurate stream : Yes
Defeat audio cache : Yes
Make use of C2 pointers : No

Read offset correction : 48
Overread into Lead-In and Lead-Out : No
Fill up missing offset samples with silence : Yes
Delete leading and trailing silent blocks : No
Null samples used in CRC calculations : Yes
Used interface : Native Win32 interface for Win NT & 2000
Gap handling : Appended to previous track

Used output format : User Defined Encoder
Selected bitrate : 1024 kBit/s
Quality : High
Add ID3 tag : No
Command line compressor : C:\Program Files (x86)\Exact Audio Copy\FLAC\FLAC.EXE
Additional command line options : -6 -V -T "COMMENT=ripped by RRC" -T "ARTIST=%artist%" -T "TITLE=%title%" -T "ALBUM=%albumtitle%" -T "DATE=%year%" -T "TRACKNUMBER=%tracknr%" -T "GENRE=%genre%" %source%


TOC of the extracted CD

Track | Start | Length | Start sector | End sector
––––––––––––––––––––––––––––-
1 | 0:00.00 | 3:43.48 | 0 | 16772
2 | 3:43.48 | 4:57.10 | 16773 | 39057
3 | 8:40.58 | 4:53.50 | 39058 | 61082
4 | 13:34.33 | 6:08.52 | 61083 | 88734
5 | 19:43.10 | 4:24.45 | 88735 | 108579
6 | 24:07.55 | 5:24.33 | 108580 | 132912
7 | 29:32.13 | 4:46.52 | 132913 | 154414
8 | 34:18.65 | 5:14.68 | 154415 | 178032
9 | 39:33.58 | 6:49.59 | 178033 | 208766


Track 1

Filename E:\RRCLtd Rip\01 - Dream On (Single Version).wav

Pre-gap length 0:00:02.00

Peak level 100.0 %
Extraction speed 4.5 X
Track quality 100.0 %
Test CRC 7B1F7F97
Copy CRC 7B1F7F97
Accurately ripped (confidence 24) [3DFC5BB2] (AR v2)
Copy OK

Track 2

Filename E:\RRCLtd Rip\02 - Easy Tiger (Full Version).wav

Pre-gap length 0:00:03.22

Peak level 100.0 %
Extraction speed 4.7 X
Track quality 99.9 %
Test CRC 00F2A8C8
Copy CRC 00F2A8C8
Accurately ripped (confidence 25) [B92FB677] (AR v2)
Copy OK

Track 3

Filename E:\RRCLtd Rip\03 - Easy Tiger (Bertrand Burgalat & A.S. Dragon Version).wav

Pre-gap length 0:00:02.60

Peak level 100.0 %
Extraction speed 5.7 X
Track quality 100.0 %
Test CRC 4C6BA6CF
Copy CRC 4C6BA6CF
Accurately ripped (confidence 25) [BEDCB61C] (AR v2)
Copy OK

Track 4

Filename E:\RRCLtd Rip\04 - Dream On (Bushwacka Tough Guy Mix).wav

Pre-gap length 0:00:01.38

Peak level 100.0 %
Extraction speed 6.3 X
Track quality 100.0 %
Test CRC 3F02B8B6
Copy CRC 3F02B8B6
Accurately ripped (confidence 24) [37307894] (AR v2)
Copy OK

Track 5

Filename E:\RRCLtd Rip\05 - Dream On (Dave Clarke Acoustic Version).wav

Pre-gap length 0:00:01.32

Peak level 91.3 %
Extraction speed 5.8 X
Track quality 99.9 %
Test CRC 7157DB7B
Copy CRC 7157DB7B
Accurately ripped (confidence 25) [40D9095A] (AR v2)
Copy OK

Track 6

Filename E:\RRCLtd Rip\06 - Dream On (Octagon Man Mix).wav

Pre-gap length 0:00:01.62

Peak level 100.0 %
Extraction speed 6.8 X
Track quality 100.0 %
Test CRC C8A18A81
Copy CRC C8A18A81
Accurately ripped (confidence 25) [138A7751] (AR v2)
Copy OK

Track 7

Filename E:\RRCLtd Rip\07 - Dream On (Kid 606 Mix).wav

Pre-gap length 0:00:01.55

Peak level 100.0 %
Extraction speed 7.2 X
Track quality 100.0 %
Test CRC FD443FA8
Copy CRC FD443FA8
Accurately ripped (confidence 25) [2AEFC205] (AR v2)
Copy OK

Track 8

Filename E:\RRCLtd Rip\08 - Dream On (Dave Clarke Remix).wav

Pre-gap length 0:00:02.20

Peak level 100.0 %
Extraction speed 7.7 X
Track quality 100.0 %
Test CRC EE4C4204
Copy CRC EE4C4204
Accurately ripped (confidence 25) [B0C3C738] (AR v2)
Copy OK

Track 9

Filename E:\RRCLtd Rip\09 - Dream On (Bushwacka Blunt Mix).wav

Pre-gap length 0:00:02.25

Peak level 100.0 %
Extraction speed 8.2 X
Track quality 100.0 %
Test CRC 1D21CB72
Copy CRC 1D21CB72
Accurately ripped (confidence 25) [1388B848] (AR v2)
Copy OK


All tracks accurately ripped

No errors occurred

End of status report

–– CUETools DB Plugin V2.1.6

[CTDB TOCID: KqQMO86PBgDst9ahfS_QqFe9nmY-] found
Submit result: KqQMO86PBgDst9ahfS_QqFe9nmY- has been confirmed
Track | CTDB Status
1 | (77/77) Accurately ripped
2 | (77/77) Accurately ripped
3 | (77/77) Accurately ripped
4 | (77/77) Accurately ripped
5 | (77/77) Accurately ripped
6 | (77/77) Accurately ripped
7 | (77/77) Accurately ripped
8 | (77/77) Accurately ripped
9 | (77/77) Accurately ripped


==== Log checksum E2F4AA9917819BD321CC0BA348446A95D57673A1237CA48DC76198E6C7F07F81 ====

[CUETools log; Date: 02.07.2021 0:51:56; Version: 2.1.4]
[CTDB TOCID: KqQMO86PBgDst9ahfS_QqFe9nmY-] found.
Track | CTDB Status
1 | (101/101) Accurately ripped
2 | (101/101) Accurately ripped
3 | (101/101) Accurately ripped
4 | (101/101) Accurately ripped
5 | (101/101) Accurately ripped
6 | (101/101) Accurately ripped
7 | (101/101) Accurately ripped
8 | (101/101) Accurately ripped
9 | (101/101) Accurately ripped
[AccurateRip ID: 000f14c5-007016de-700adf09] found.
Track [ CRC | V2 ] Status
01 [86feaabf|3dfc5bb2] (038+033/103) Accurately ripped
02 [9320f1ec|b92fb677] (037+033/102) Accurately ripped
03 [353402a3|bedcb61c] (038+034/104) Accurately ripped
04 [f4f96859|37307894] (038+032/102) Accurately ripped
05 [2ef9e436|40d9095a] (038+034/105) Accurately ripped
06 [79cefab8|138a7751] (038+034/105) Accurately ripped
07 [41a79ea2|2aefc205] (038+034/103) Accurately ripped
08 [3b46eea2|b0c3c738] (038+033/103) Accurately ripped
09 [748c32ad|1388b848] (038+034/104) Accurately ripped
Offsetted by -78:
01 [e1c3a2dd] (003/103) Accurately ripped
02 [780e5faa] (003/102) Accurately ripped
03 [0ba39467] (003/104) Accurately ripped
04 [5439ccf5] (003/102) Accurately ripped
05 [a76e4830] (003/105) Accurately ripped
06 [3db30728] (003/105) Accurately ripped
07 [41d49eb2] (003/103) Accurately ripped
08 [2f99ada2] (003/103) Accurately ripped
09 [cdb9915b] (003/104) Accurately ripped
Offsetted by -6:
01 [17d2bdd5] (009/103) Accurately ripped
02 [b86e4922] (009/102) Accurately ripped
03 [a828e677] (009/104) Accurately ripped
04 [0ffe5c65] (009/102) Accurately ripped
05 [e978ff98] (009/105) Accurately ripped
06 [eb56ace8] (009/105) Accurately ripped
07 [690d8af2] (009/103) Accurately ripped
08 [8925e9a2] (009/103) Accurately ripped
09 [67b71293] (009/104) Accurately ripped

Track Peak [ CRC32 ] [W/O NULL] [ LOG ]
– 100,0 [04274261] [1CC04AAA]
01 100,0 [7B1F7F97] [66E5C29F] CRC32
02 100,0 [00F2A8C8] [CB13B3EB] CRC32
03 100,0 [4C6BA6CF] [C327CE4D] CRC32
04 100,0 [3F02B8B6] [443BE753] CRC32
05 91,3 [7157DB7B] [6561D6A9] CRC32
06 100,0 [C8A18A81] [2DD1AAE5] CRC32
07 100,0 [FD443FA8] [EF1063E8] CRC32
08 100,0 [EE4C4204] [96802C31] CRC32
09 100,0 [1D21CB72] [36EAE7A5] CRC32

Thanks to RRC

See also:
Depeche Mode - Singles 1-6 [6CD Box Set] (1991)
Depeche Mode - Singles 7-12 [6CD Box Set] (1991)
Depeche Mode - Singles 13-18 [6CD Box Set] (1991)
Depeche Mode - Singles 19-24 [6CD Box Set] (2004)
Depeche Mode - Singles 25-30 [6CD Box Set] (2004)
Depeche Mode - Songs Of Faith ...n: The 12" Singles (2020)