Tags
Language
Tags

Depeche Mode - Singles 7-12 [6CD Box Set] (1991)

Posted By: gribovar
Depeche Mode - Singles 7-12 [6CD Box Set] (1991)

Depeche Mode - Singles 7-12 [6CD Box Set] (1991)
EAC Rip | FLAC (tracks+.cue+log) - 895 MB | Covers - 221 MB
Genre: Synth-pop | RAR 3% Rec. | Label: Mute (DMBX2)

The second box set of Depeche Mode singles, reissued on CD for the first time, picks up with "Get the Balance Right," the band's third single following the departure of original songwriter Vince Clarke and the considerably edgier Martin L. Gore's elevation to the fore. Necessarily, his earliest efforts (included on the first box) echoed the pure poppiness of Clarke's work; here, the emphasis is on the period of transition that dragged Depeche Mode from an apparently transient teenybop sensation to the darker, harsher, and above all adventurous electro pioneers whose longevity is now a matter of history. Via "Everything Counts," "Love in Itself," "People Are People," "Master and Servant," and "Blasphemous Rumours," by the time you reach the end of the box, Depeche Mode is unrecognizable from the combo who opened it. Each of the six discs here features all the B-sides and extended versions featured on the original British 7" and 12" releases; unfortunately, the limited special-edition 12"s that accompanied several of the singles (usually encompassing live or remix material) are generally overlooked - the in-concert "Tora Tora Tora" (from the "Get the Balance Right" limited edition) is the only survivor from that area. Nevertheless, this box set - like those on either side of it - offers a readymade entry into one of the most exhilarating singles catalogs of the 1980s.

Depeche Mode - Singles 7-12 [6CD Box Set] (1991)

CD 1: Depeche Mode - Get The Balance Right! (1983)
EAC Rip | FLAC (tracks+.cue+log) - 109 MB | Covers - 24 MB
Genre: Synth-pop | RAR 3% Rec. | Label: Mute (CDBONG 2)

Tracklist:
01. Get The Balance Right!
02. The Great Outdoors!
03. Get The Balance Right! (Combination Mix)
04. Tora! Tora! Tora! (Live At Hammersmith Odeon, 25th October 1982)

Total time: 20:28

Exact Audio Copy V1.3 from 2. September 2016

EAC extraction logfile from 25. January 2020, 13:47

Depeche Mode / Get The Balance Right! (DMBX CD7)

Used drive : PIONEER DVD-RW DVR-221L Adapter: 1 ID: 0

Read mode : Secure
Utilize accurate stream : Yes
Defeat audio cache : Yes
Make use of C2 pointers : No

Read offset correction : 6
Overread into Lead-In and Lead-Out : No
Fill up missing offset samples with silence : Yes
Delete leading and trailing silent blocks : No
Null samples used in CRC calculations : Yes
Used interface : Native Win32 interface for Win NT & 2000
Gap handling : Appended to previous track

Used output format : User Defined Encoder
Selected bitrate : 1024 kBit/s
Quality : High
Add ID3 tag : No
Command line compressor : C:\Program Files (x86)\Exact Audio Copy\FLAC\FLAC.EXE
Additional command line options : -6 -V -T "COMMENT=ripped by RRC" -T "ARTIST=%artist%" -T "TITLE=%title%" -T "ALBUM=%albumtitle%" -T "DATE=%year%" -T "TRACKNUMBER=%tracknr%" -T "GENRE=%genre%" %source%


TOC of the extracted CD

Track | Start | Length | Start sector | End sector
––––––––––––––––––––––––––––-
1 | 0:00.32 | 3:13.45 | 32 | 14551
2 | 3:14.02 | 5:03.00 | 14552 | 37276
3 | 8:17.02 | 7:58.45 | 37277 | 73171
4 | 16:15.47 | 4:12.48 | 73172 | 92119


Track 1

Filename E:\RRCLtd Rip\01 - Get The Balance Right!.wav

Pre-gap length 0:00:02.32

Peak level 98.4 %
Extraction speed 4.1 X
Track quality 100.0 %
Test CRC B75BE037
Copy CRC B75BE037
Accurately ripped (confidence 22) [8CBBAF8D] (AR v2)
Copy OK

Track 2

Filename E:\RRCLtd Rip\02 - The Great Outdoors!.wav

Peak level 65.3 %
Extraction speed 4.9 X
Track quality 100.0 %
Test CRC 26B32494
Copy CRC 26B32494
Accurately ripped (confidence 22) [1A74FEB0] (AR v2)
Copy OK

Track 3

Filename E:\RRCLtd Rip\03 - Get The Balance Right! (Combination Mix).wav

Pre-gap length 0:00:00.64

Peak level 100.0 %
Extraction speed 5.9 X
Track quality 100.0 %
Test CRC B48323BD
Copy CRC B48323BD
Accurately ripped (confidence 22) [4CE9392E] (AR v2)
Copy OK

Track 4

Filename E:\RRCLtd Rip\04 - Tora! Tora! Tora! (Live).wav

Pre-gap length 0:00:00.60

Peak level 100.0 %
Extraction speed 5.1 X
Track quality 99.9 %
Test CRC 4F4132E2
Copy CRC 4F4132E2
Accurately ripped (confidence 22) [67E94B2C] (AR v2)
Copy OK


All tracks accurately ripped

No errors occurred

End of status report

–– CUETools DB Plugin V2.1.6

[CTDB TOCID: 75oE.341R9BnoCyK0wbX1rlzGd4-] found
Submit result: already submitted
Track | CTDB Status
1 | (148/149) Accurately ripped
2 | (146/149) Accurately ripped
3 | (146/149) Accurately ripped
4 | (147/149) Accurately ripped


==== Log checksum F2E91C27D9D8D536F4A5BF2899ABF07A376BEE37BEF1040D429282E5C0865B1B ====

[CUETools log; Date: 06.06.2021 19:25:01; Version: 2.1.4]
Pregap length 00:00:32.
[CTDB TOCID: 75oE.341R9BnoCyK0wbX1rlzGd4-] found.
Track | CTDB Status
1 | (195/197) Accurately ripped
2 | (193/197) Accurately ripped
3 | (193/197) Accurately ripped
4 | (194/197) Accurately ripped
[AccurateRip ID: 00035041-000da52f-3f04cc04] found.
Track [ CRC | V2 ] Status
01 [3a3742c5|8cbbaf8d] (020+024/200) Accurately ripped
02 [e9d9d1ff|1a74feb0] (021+024/200) Accurately ripped
03 [f76dbd1b|4ce9392e] (020+024/204) Accurately ripped
04 [946fd431|67e94b2c] (020+024/201) Accurately ripped
Offsetted by -1806:
01 [66141c6f] (017/200) Accurately ripped
02 [81611a09] (017/200) Accurately ripped
03 [c3f57efd] (017/204) Accurately ripped
04 [5b01d6d3] (017/201) Accurately ripped
Offsetted by -1010:
01 [1a0bca1b] (014/200) Accurately ripped
02 [d4905af5] (013/200) Accurately ripped
03 [6ca58839] (014/204) Accurately ripped
04 [7f603e8f] (014/201) Accurately ripped
Offsetted by -924:
01 [9e0d7699] (005/200) Accurately ripped
02 [9c961a93] (006/200) Accurately ripped
03 [e900975f] (007/204) Accurately ripped
04 [a6ae9ff5] (006/201) Accurately ripped
Offsetted by -589:
01 [61c0a26c] (016/200) Accurately ripped
02 [fb17a8b6] (015/200) Accurately ripped
03 [df4587f6] (015/204) Accurately ripped
04 [c5bf332c] (016/201) Accurately ripped
Offsetted by -109:
01 [487c94cc] (006/200) Accurately ripped
02 [a4e46516] (005/200) Accurately ripped
03 [dccab2d6] (006/204) Accurately ripped
04 [b8f1b20c] (005/201) Accurately ripped

Track Peak [ CRC32 ] [W/O NULL] [ LOG ]
– 100,0 [2AB5070D] [0FA909ED]
01 98,4 [B75BE037] [FA91D6F9] CRC32
02 65,3 [26B32494] [946B7C34] CRC32
03 100,0 [B48323BD] [0B67DD5A] CRC32
04 100,0 [4F4132E2] [4BC55D28] CRC32

Depeche Mode - Singles 7-12 [6CD Box Set] (1991)

CD 2: Depeche Mode - Everything Counts (1983)
EAC Rip | FLAC (tracks+.cue+log) - 142 MB | Covers - 37 MB
Genre: Synth-pop | RAR 3% Rec. | Label: Mute (CDBONG 3)

Tracklist:
01. Everything Counts
02. Work Hard
03. Everything Counts (In Larger Amounts)
04. Work Hard (East End Remix)

Total time: 22:42

Exact Audio Copy V1.3 from 2. September 2016

EAC extraction logfile from 19. January 2020, 13:44

Depeche Mode / Everything Counts (DMBX CD8)

Used drive : PIONEER DVD-RW DVR-221L Adapter: 1 ID: 0

Read mode : Secure
Utilize accurate stream : Yes
Defeat audio cache : Yes
Make use of C2 pointers : No

Read offset correction : 6
Overread into Lead-In and Lead-Out : No
Fill up missing offset samples with silence : Yes
Delete leading and trailing silent blocks : No
Null samples used in CRC calculations : Yes
Used interface : Native Win32 interface for Win NT & 2000
Gap handling : Appended to previous track

Used output format : User Defined Encoder
Selected bitrate : 1024 kBit/s
Quality : High
Add ID3 tag : No
Command line compressor : C:\Program Files (x86)\Exact Audio Copy\FLAC\FLAC.EXE
Additional command line options : -6 -V -T "COMMENT=ripped by RRC" -T "ARTIST=%artist%" -T "TITLE=%title%" -T "ALBUM=%albumtitle%" -T "DATE=%year%" -T "TRACKNUMBER=%tracknr%" -T "GENRE=%genre%" %source%


TOC of the extracted CD

Track | Start | Length | Start sector | End sector
––––––––––––––––––––––––––––-
1 | 0:00.32 | 3:59.53 | 32 | 18009
2 | 4:00.10 | 4:22.70 | 18010 | 37729
3 | 8:23.05 | 7:21.20 | 37730 | 70824
4 | 15:44.25 | 6:58.52 | 70825 | 102226


Track 1

Filename E:\RRCLtd Rip\01 - Everything Counts.wav

Pre-gap length 0:00:02.32

Peak level 100.0 %
Extraction speed 2.1 X
Track quality 99.9 %
Test CRC 367D5991
Copy CRC 367D5991
Accurately ripped (confidence 19) [84C71AAA] (AR v2)
Copy OK

Track 2

Filename E:\RRCLtd Rip\02 - Work Hard.wav

Pre-gap length 0:00:00.48

Peak level 86.6 %
Extraction speed 2.4 X
Track quality 99.9 %
Test CRC FB2F1775
Copy CRC FB2F1775
Accurately ripped (confidence 19) [2D90D43A] (AR v2)
Copy OK

Track 3

Filename E:\RRCLtd Rip\03 - Everything Counts (In Larger Amounts).wav

Pre-gap length 0:00:00.74

Peak level 93.6 %
Extraction speed 3.6 X
Track quality 100.0 %
Test CRC F351C411
Copy CRC F351C411
Accurately ripped (confidence 19) [55AF1FA0] (AR v2)
Copy OK

Track 4

Filename E:\RRCLtd Rip\04 - Work Hard (East End Remix).wav

Pre-gap length 0:00:00.63

Peak level 100.0 %
Extraction speed 3.5 X
Track quality 99.9 %
Test CRC E5D456ED
Copy CRC E5D456ED
Accurately ripped (confidence 19) [8E0A1CBF] (AR v2)
Copy OK


All tracks accurately ripped

No errors occurred

End of status report

–– CUETools DB Plugin V2.1.6

[CTDB TOCID: 5JaZeQLach4JepXjUNSI8PjRoF4-] found
Submit result: 5JaZeQLach4JepXjUNSI8PjRoF4- has been confirmed
Track | CTDB Status
1 | ( 32/136) Accurately ripped
2 | ( 32/136) Accurately ripped
3 | ( 32/136) Accurately ripped
4 | ( 32/136) Accurately ripped


==== Log checksum F789EC46A4B79E22EC18263A5F701254D620E6B16191C4604CE284B83B24F5A4 ====

[CUETools log; Date: 06.06.2021 19:48:43; Version: 2.1.4]
Pregap length 00:00:32.
[CTDB TOCID: 5JaZeQLach4JepXjUNSI8PjRoF4-] found.
Track | CTDB Status
1 | ( 45/180) Accurately ripped
2 | ( 45/180) Accurately ripped
3 | ( 45/180) Accurately ripped
4 | ( 45/180) Accurately ripped
[AccurateRip ID: 00037dd8-000e663d-27055304] found.
Track [ CRC | V2 ] Status
01 [1af5b79b|84c71aaa] (015+021/148) Accurately ripped
02 [b09d2173|2d90d43a] (016+021/148) Accurately ripped
03 [9d282e68|55af1fa0] (016+021/151) Accurately ripped
04 [d00fbb4b|8e0a1cbf] (017+021/151) Accurately ripped
Offsetted by -664:
01 [65aea71b] (000/148) No match (V2 was not tested)
02 [3cbdbe73] (000/148) No match (V2 was not tested)
03 [60d64000] (000/151) No match (V2 was not tested)
04 [1be14e73] (000/151) No match (V2 was not tested)

Track Peak [ CRC32 ] [W/O NULL] [ LOG ]
– 100,0 [E796BD52] [4A0B935E]
01 100,0 [367D5991] [3BC490AA] CRC32
02 86,6 [FB2F1775] [C49E1977] CRC32
03 93,6 [F351C411] [400C7209] CRC32
04 100,0 [E5D456ED] [1B9FEA3C] CRC32

Depeche Mode - Singles 7-12 [6CD Box Set] (1991)

CD 3: Depeche Mode - Love In Itself (1983)
EAC Rip | FLAC (tracks+.cue+log) - 165 MB | Covers - 26 MB
Genre: Synth-pop | RAR 3% Rec. | Label: Mute (CDBONG 4)

Tracklist:
01. Love In Itself.2
02. Fools
03. Love In Itself.3
04. Fools (Bigger)
05. Love In Itself.4

Total time: 27:56

Exact Audio Copy V1.3 from 2. September 2016

EAC extraction logfile from 19. January 2020, 13:06

Depeche Mode / Love In Itself (DMBX CD9)

Used drive : PIONEER DVD-RW DVR-221L Adapter: 1 ID: 0

Read mode : Secure
Utilize accurate stream : Yes
Defeat audio cache : Yes
Make use of C2 pointers : No

Read offset correction : 6
Overread into Lead-In and Lead-Out : No
Fill up missing offset samples with silence : Yes
Delete leading and trailing silent blocks : No
Null samples used in CRC calculations : Yes
Used interface : Native Win32 interface for Win NT & 2000
Gap handling : Appended to previous track

Used output format : User Defined Encoder
Selected bitrate : 1024 kBit/s
Quality : High
Add ID3 tag : No
Command line compressor : C:\Program Files (x86)\Exact Audio Copy\FLAC\FLAC.EXE
Additional command line options : -6 -V -T "COMMENT=ripped by RRC" -T "ARTIST=%artist%" -T "TITLE=%title%" -T "ALBUM=%albumtitle%" -T "DATE=%year%" -T "TRACKNUMBER=%tracknr%" -T "GENRE=%genre%" %source%


TOC of the extracted CD

Track | Start | Length | Start sector | End sector
––––––––––––––––––––––––––––-
1 | 0:00.32 | 4:02.53 | 32 | 18234
2 | 4:03.10 | 4:17.37 | 18235 | 37546
3 | 8:20.47 | 7:17.33 | 37547 | 70354
4 | 15:38.05 | 7:39.32 | 70355 | 104811
5 | 23:17.37 | 4:39.30 | 104812 | 125766


Track 1

Filename E:\RRCLtd Rip\01 - Love In Itself. 2.wav

Pre-gap length 0:00:02.32

Peak level 97.2 %
Extraction speed 2.1 X
Track quality 99.9 %
Test CRC 9ADA8271
Copy CRC 9ADA8271
Cannot be verified as accurate (confidence 21) [42FA6225], AccurateRip returned [6E7FCA00] (AR v2)
Copy OK

Track 2

Filename E:\RRCLtd Rip\02 - Fools.wav

Pre-gap length 0:00:01.29

Peak level 73.7 %
Extraction speed 3.0 X
Track quality 100.0 %
Test CRC 15FDA7B9
Copy CRC 15FDA7B9
Cannot be verified as accurate (confidence 21) [CC8286F4], AccurateRip returned [4B8C15E3] (AR v2)
Copy OK

Track 3

Filename E:\RRCLtd Rip\03 - Love In Itself. 3.wav

Pre-gap length 0:00:01.56

Peak level 94.4 %
Extraction speed 3.6 X
Track quality 100.0 %
Test CRC 907883B2
Copy CRC 907883B2
Cannot be verified as accurate (confidence 21) [E384D6CB], AccurateRip returned [10706DC0] (AR v2)
Copy OK

Track 4

Filename E:\RRCLtd Rip\04 - Fools (Bigger).wav

Pre-gap length 0:00:00.68

Peak level 84.9 %
Extraction speed 4.0 X
Track quality 100.0 %
Test CRC 76CFB7CC
Copy CRC 76CFB7CC
Cannot be verified as accurate (confidence 22) [F32576E6], AccurateRip returned [289BC6A0] (AR v2)
Copy OK

Track 5

Filename E:\RRCLtd Rip\05 - Love In Itself. 4.wav

Peak level 67.1 %
Extraction speed 4.1 X
Track quality 100.0 %
Test CRC 3FA117BE
Copy CRC 3FA117BE
Cannot be verified as accurate (confidence 22) [67DA1C4E], AccurateRip returned [88FF762B] (AR v2)
Copy OK


No tracks could be verified as accurate
You may have a different pressing from the one(s) in the database

No errors occurred

End of status report

–– CUETools DB Plugin V2.1.6

[CTDB TOCID: PpAzmYTiNAIZ53hbEfQ7kQBW2sM-] found
Submit result: PpAzmYTiNAIZ53hbEfQ7kQBW2sM- has been confirmed
Track | CTDB Status
1 | (82/83) Accurately ripped
2 | (82/83) Accurately ripped
3 | (82/83) Accurately ripped
4 | (82/83) Accurately ripped
5 | (82/83) Accurately ripped


==== Log checksum 9975D8754B1AD72123A381B7E627F68EF2668DC5720A98E1C53A0B286EDEA7F1 ====

[CUETools log; Date: 06.06.2021 19:27:24; Version: 2.1.4]
Pregap length 00:00:32.
[CTDB TOCID: PpAzmYTiNAIZ53hbEfQ7kQBW2sM-] found.
Track | CTDB Status
1 | (107/109) Accurately ripped
2 | (107/109) Accurately ripped
3 | (107/109) Accurately ripped
4 | (107/109) Accurately ripped
5 | (107/109) Accurately ripped
[AccurateRip ID: 0005718c-001a14a9-37068c05] found.
Track [ CRC | V2 ] Status
01 [66388427|42fa6225] (000+000/107) No match
02 [e2937a5b|cc8286f4] (000+000/109) No match
03 [e6d0793e|e384d6cb] (000+000/111) No match
04 [cb7ce277|f32576e6] (000+000/113) No match
05 [561f3909|67da1c4e] (000+000/112) No match
Offsetted by -1094:
01 [ea632eed] (011/107) Accurately ripped
02 [d97e68e7] (010/109) Accurately ripped
03 [1f84c3a8] (011/111) Accurately ripped
04 [d49e51e3] (011/113) Accurately ripped
05 [e0d15ab7] (011/112) Accurately ripped
Offsetted by -286:
01 [d765d5c5] (003/107) Accurately ripped
02 [d139ba97] (003/109) Accurately ripped
03 [49e12f90] (003/111) Accurately ripped
04 [1c083313] (003/113) Accurately ripped
05 [93a72e2f] (003/112) Accurately ripped
Offsetted by -107:
01 [7056e5d2] (014/107) Accurately ripped
02 [3da6b631] (014/109) Accurately ripped
03 [d710e86b] (014/111) Accurately ripped
04 [c072593d] (015/113) Accurately ripped
05 [507fbd08] (015/112) Accurately ripped
Offsetted by 667:
01 [893cec4c] (017/107) Accurately ripped
02 [5e490a25] (019/109) Accurately ripped
03 [1b8696c1] (019/111) Accurately ripped
04 [f1363051] (019/113) Accurately ripped
05 [4225479a] (019/112) Accurately ripped

Track Peak [ CRC32 ] [W/O NULL] [ LOG ]
– 97,2 [5237473A] [E2B8AB1F]
01 97,2 [9ADA8271] [F7B7672D] CRC32
02 73,7 [15FDA7B9] [C1A74B1D] CRC32
03 94,4 [907883B2] [9DB0FD6C] CRC32
04 84,9 [76CFB7CC] [15B869A4] CRC32
05 67,1 [3FA117BE] [60A3D482] CRC32

Depeche Mode - Singles 7-12 [6CD Box Set] (1991)

CD 4: Depeche Mode - People Are People (1984)
EAC Rip | FLAC (tracks+.cue+log) - 146 MB | Covers - 24 MB
Genre: Synth-pop | RAR 3% Rec. | Label: Mute (CDBONG 5)

Tracklist:
01. People Are People
02. In Your Memory
03. People Are People (Different Mix)
04. In Your Memory (Slick Mix)

Total time: 23:17

Exact Audio Copy V1.3 from 2. September 2016

EAC extraction logfile from 19. January 2020, 12:48

Depeche Mode / People Are People (DMBX CD10)

Used drive : PIONEER DVD-RW DVR-221L Adapter: 1 ID: 0

Read mode : Secure
Utilize accurate stream : Yes
Defeat audio cache : Yes
Make use of C2 pointers : No

Read offset correction : 6
Overread into Lead-In and Lead-Out : No
Fill up missing offset samples with silence : Yes
Delete leading and trailing silent blocks : No
Null samples used in CRC calculations : Yes
Used interface : Native Win32 interface for Win NT & 2000
Gap handling : Appended to previous track

Used output format : User Defined Encoder
Selected bitrate : 1024 kBit/s
Quality : High
Add ID3 tag : No
Command line compressor : C:\Program Files (x86)\Exact Audio Copy\FLAC\FLAC.EXE
Additional command line options : -6 -V -T "COMMENT=ripped by RRC" -T "ARTIST=%artist%" -T "TITLE=%title%" -T "ALBUM=%albumtitle%" -T "DATE=%year%" -T "TRACKNUMBER=%tracknr%" -T "GENRE=%genre%" %source%


TOC of the extracted CD

Track | Start | Length | Start sector | End sector
––––––––––––––––––––––––––––-
1 | 0:00.32 | 3:46.08 | 32 | 16989
2 | 3:46.40 | 4:03.27 | 16990 | 35241
3 | 7:49.67 | 7:14.05 | 35242 | 67796
4 | 15:03.72 | 8:13.48 | 67797 | 104819


Track 1

Filename E:\RRCLtd Rip\01 - People Are People.wav

Pre-gap length 0:00:02.32

Peak level 85.3 %
Extraction speed 2.1 X
Track quality 99.9 %
Test CRC D38E9318
Copy CRC D38E9318
Accurately ripped (confidence 14) [56B1D0EB] (AR v2)
Copy OK

Track 2

Filename E:\RRCLtd Rip\02 - In Your Memory.wav

Pre-gap length 0:00:01.63

Peak level 97.6 %
Extraction speed 2.3 X
Track quality 99.9 %
Test CRC 2A8FD3ED
Copy CRC 2A8FD3ED
Accurately ripped (confidence 14) [0FAA5C96] (AR v2)
Copy OK

Track 3

Filename E:\RRCLtd Rip\03 - People Are People (Different Mix).wav

Pre-gap length 0:00:01.22

Peak level 92.3 %
Extraction speed 3.6 X
Track quality 100.0 %
Test CRC 42A69D23
Copy CRC 42A69D23
Accurately ripped (confidence 14) [F52A32D9] (AR v2)
Copy OK

Track 4

Filename E:\RRCLtd Rip\04 - In Your Memory (Slick Mix).wav

Pre-gap length 0:00:01.00

Peak level 100.0 %
Extraction speed 4.1 X
Track quality 100.0 %
Test CRC B8BD23B4
Copy CRC B8BD23B4
Accurately ripped (confidence 14) [6961FC03] (AR v2)
Copy OK


All tracks accurately ripped

No errors occurred

End of status report

–– CUETools DB Plugin V2.1.6

[CTDB TOCID: CdQvXRYoqESIjdPN1A0oGojiKVY-] found
Submit result: CdQvXRYoqESIjdPN1A0oGojiKVY- has been confirmed
Track | CTDB Status
1 | (89/90) Accurately ripped
2 | (89/90) Accurately ripped
3 | (89/90) Accurately ripped
4 | (89/90) Accurately ripped


==== Log checksum 82AA93354D9563C7280D014E56B4705F366A19662C10BCEA16F5597C1546CA0D ====

[CUETools log; Date: 06.06.2021 19:27:00; Version: 2.1.4]
Pregap length 00:00:32.
[CTDB TOCID: CdQvXRYoqESIjdPN1A0oGojiKVY-] found.
Track | CTDB Status
1 | (119/121) Accurately ripped
2 | (119/121) Accurately ripped
3 | (119/121) Accurately ripped
4 | (119/121) Accurately ripped
[AccurateRip ID: 00036e71-000e4472-28057504] found.
Track [ CRC | V2 ] Status
01 [9c38d8b1|56b1d0eb] (008+016/116) Accurately ripped
02 [0f29200a|0faa5c96] (008+016/117) Accurately ripped
03 [3684d772|f52a32d9] (008+016/121) Accurately ripped
04 [7c5275a5|6961fc03] (008+016/121) Accurately ripped
Offsetted by -1246:
01 [3e939197] (011/116) Accurately ripped
02 [022c97c8] (011/117) Accurately ripped
03 [5650d422] (013/121) Accurately ripped
04 [483064fb] (012/121) Accurately ripped
Offsetted by -813:
01 [4468f26a] (002/116) Accurately ripped
02 [bb7d5d87] (002/117) Accurately ripped
03 [6d93cd7a] (002/121) Accurately ripped
04 [a0fbb806] (002/121) Accurately ripped
Offsetted by -775:
01 [4c9b995c] (015/116) Accurately ripped
02 [97b9aa01] (015/117) Accurately ripped
03 [4c25358a] (015/121) Accurately ripped
04 [613cdc48] (016/121) Accurately ripped
Offsetted by 667:
01 [17e7d1c2] (012/116) Accurately ripped
02 [72faaf3f] (013/117) Accurately ripped
03 [21980e3a] (013/121) Accurately ripped
04 [c5d7571e] (013/121) Accurately ripped

Track Peak [ CRC32 ] [W/O NULL] [ LOG ]
– 100,0 [B3A9344F] [579E2E29]
01 85,3 [D38E9318] [48860FB6] CRC32
02 97,6 [2A8FD3ED] [0D503B53] CRC32
03 92,3 [42A69D23] [B228E693] CRC32
04 100,0 [B8BD23B4] [13D54C0B] CRC32

Depeche Mode - Singles 7-12 [6CD Box Set] (1991)

CD 5: Depeche Mode - Master And Servant (1984)
EAC Rip | FLAC (tracks+.cue+log) - 196 MB | Covers - 25 MB
Genre: Synth-pop | RAR 3% Rec. | Label: Mute (CDBONG 6)

Tracklist:
01. Master And Servant
02. (Set Me Free) Remotivate Me
03. Master And Servant (Slavery Whip Mix)
04 (Set Me Free) Remotivate Me (Release Mix)
05. Master And Servant (Voxless)

Total time: 30:30

Exact Audio Copy V1.3 from 2. September 2016

EAC extraction logfile from 19. January 2020, 12:31

Depeche Mode / Master And Servant (DMBX CD11)

Used drive : PIONEER DVD-RW DVR-221L Adapter: 1 ID: 0

Read mode : Secure
Utilize accurate stream : Yes
Defeat audio cache : Yes
Make use of C2 pointers : No

Read offset correction : 6
Overread into Lead-In and Lead-Out : No
Fill up missing offset samples with silence : Yes
Delete leading and trailing silent blocks : No
Null samples used in CRC calculations : Yes
Used interface : Native Win32 interface for Win NT & 2000
Gap handling : Appended to previous track

Used output format : User Defined Encoder
Selected bitrate : 1024 kBit/s
Quality : High
Add ID3 tag : No
Command line compressor : C:\Program Files (x86)\Exact Audio Copy\FLAC\FLAC.EXE
Additional command line options : -6 -V -T "COMMENT=ripped by RRC" -T "ARTIST=%artist%" -T "TITLE=%title%" -T "ALBUM=%albumtitle%" -T "DATE=%year%" -T "TRACKNUMBER=%tracknr%" -T "GENRE=%genre%" %source%


TOC of the extracted CD

Track | Start | Length | Start sector | End sector
––––––––––––––––––––––––––––-
1 | 0:00.32 | 3:48.30 | 32 | 17161
2 | 3:48.62 | 4:13.68 | 17162 | 36204
3 | 8:02.55 | 9:38.12 | 36205 | 79566
4 | 17:40.67 | 8:49.50 | 79567 | 119291
5 | 26:30.42 | 4:00.35 | 119292 | 137326


Track 1

Filename E:\RRCLtd Rip\01 - Master And Servant (7'' Version).wav

Pre-gap length 0:00:02.32

Peak level 100.0 %
Extraction speed 2.1 X
Track quality 99.9 %
Test CRC A50BCC77
Copy CRC A50BCC77
Accurately ripped (confidence 2) [AC9825DE] (AR v2)
Copy OK

Track 2

Filename E:\RRCLtd Rip\02 - (Set Me Free) Remotivate Me (7'' Version).wav

Pre-gap length 0:00:02.12

Peak level 98.0 %
Extraction speed 3.0 X
Track quality 100.0 %
Test CRC B7EE8406
Copy CRC B7EE8406
Accurately ripped (confidence 2) [34FB785C] (AR v2)
Copy OK

Track 3

Filename E:\RRCLtd Rip\03 - Master And Servant (Slavery Whip Mix).wav

Pre-gap length 0:00:01.15

Peak level 98.4 %
Extraction speed 3.8 X
Track quality 100.0 %
Test CRC 0995DFE5
Copy CRC 0995DFE5
Accurately ripped (confidence 2) [614C76E8] (AR v2)
Copy OK

Track 4

Filename E:\RRCLtd Rip\04 - (Set Me Free) Remotivate Me (Release Mix).wav

Pre-gap length 0:00:00.42

Peak level 88.8 %
Extraction speed 4.3 X
Track quality 100.0 %
Test CRC BD7D0823
Copy CRC BD7D0823
Accurately ripped (confidence 2) [A48AA9DB] (AR v2)
Copy OK

Track 5

Filename E:\RRCLtd Rip\05 - Master And Servant (Voxless).wav

Pre-gap length 0:00:01.67

Peak level 88.2 %
Extraction speed 4.3 X
Track quality 100.0 %
Test CRC F3CF9110
Copy CRC F3CF9110
Accurately ripped (confidence 2) [E3A2B794] (AR v2)
Copy OK


All tracks accurately ripped

No errors occurred

End of status report

–– CUETools DB Plugin V2.1.6

[CTDB TOCID: 9z8EbSQsSQiKWQif9KmBsQEv4LA-] found
Submit result: 9z8EbSQsSQiKWQif9KmBsQEv4LA- has been confirmed
Track | CTDB Status
1 | (147/187) Accurately ripped
2 | (185/187) Accurately ripped
3 | (186/187) Accurately ripped
4 | (186/187) Accurately ripped
5 | (186/187) Accurately ripped


==== Log checksum 52E059330942E308E24802815D541C7B57BEFE2308B0D780B2563ECBC92F6099 ====

[CUETools log; Date: 06.06.2021 19:28:22; Version: 2.1.4]
Pregap length 00:00:32.
[CTDB TOCID: 9z8EbSQsSQiKWQif9KmBsQEv4LA-] found.
Track | CTDB Status
1 | (196/253) Accurately ripped
2 | (250/253) Accurately ripped
3 | (251/253) Accurately ripped
4 | (251/253) Accurately ripped
5 | (250/253) Accurately ripped
[AccurateRip ID: 0005f1d1-001cb63d-31072705] found.
Track [ CRC | V2 ] Status
01 [fa2c4a8e|ac9825de] (000+002/217) Accurately ripped
02 [23f10482|34fb785c] (000+002/221) Accurately ripped
03 [7b977d23|614c76e8] (000+002/224) Accurately ripped
04 [3cf06b46|a48aa9db] (000+002/223) Accurately ripped
05 [758993d5|e3a2b794] (000+002/222) Accurately ripped
Offsetted by -1139:
01 [e3a0841c] (027/217) Accurately ripped
02 [6748f64a] (027/221) Accurately ripped
03 [df4014f8] (026/224) Accurately ripped
04 [8f52eeda] (027/223) Accurately ripped
05 [f6bfde8e] (026/222) Accurately ripped
Offsetted by -913:
01 [7d4cea1d] (011/217) Accurately ripped
02 [2840471a] (011/221) Accurately ripped
03 [1a243faa] (011/224) Accurately ripped
04 [00e33c22] (011/223) Accurately ripped
05 [2d111497] (012/222) Accurately ripped
Offsetted by -579:
01 [b35de66e] (004/217) Accurately ripped
02 [872151ca] (004/221) Accurately ripped
03 [dba74aa8] (004/224) Accurately ripped
04 [f803419a] (004/223) Accurately ripped
05 [3d4b86e5] (004/222) Accurately ripped
Offsetted by -109:
01 [b8b9c4d4] (012/217) Accurately ripped
02 [f8b6e7ba] (012/221) Accurately ripped
03 [3d34c56e] (012/224) Accurately ripped
04 [c6bbd032] (012/223) Accurately ripped
05 [3a988c03] (011/222) Accurately ripped
Offsetted by 679:
01 [fcc2ff5c] (016/217) Accurately ripped
02 [f42759da] (018/221) Accurately ripped
03 [e407d4a2] (018/224) Accurately ripped
04 [82463602] (018/223) Accurately ripped
05 [92c958bd] (018/222) Accurately ripped
Offsetted by -2077:
01 [561fdd75] (000/217) No match (V2 was not tested)
02 [9ebe903a] (000/221) No match (V2 was not tested)
03 [8bacce3e] (000/224) No match (V2 was not tested)
04 [d32b9772] (000/223) No match (V2 was not tested)
05 [f469a246] (000/222) No match (V2 was not tested)
Offsetted by -1846:
01 [e44db2e8] (000/217) No match (V2 was not tested)
02 [2247cf92] (000/221) No match (V2 was not tested)
03 [5d642dfd] (002/224) Accurately ripped
04 [f7f4532e] (000/223) No match (V2 was not tested)
05 [4e5255ad] (002/222) Accurately ripped
Offsetted by 503:
01 [38252d3e] (000/217) No match (V2 was not tested)
02 [cce35a5a] (007/221) Accurately ripped
03 [8d63bc72] (007/224) Accurately ripped
04 [10ea3942] (007/223) Accurately ripped
05 [40393f70] (007/222) Accurately ripped

Track Peak [ CRC32 ] [W/O NULL] [ LOG ]
– 100,0 [902A27A9] [3BC25D85]
01 100,0 [A50BCC77] [2FF685A7] CRC32
02 98,0 [B7EE8406] [7CEA94DE] CRC32
03 98,4 [0995DFE5] [FF5FA351] CRC32
04 88,8 [BD7D0823] [4A732C55] CRC32
05 88,2 [F3CF9110] [522CABCC] CRC32

Depeche Mode - Singles 7-12 [6CD Box Set] (1991)

CD 6: Depeche Mode - Blasphemous Rumours / Somebody (1984)
EAC Rip | FLAC (tracks+.cue+log) - 137 MB | Covers - 19 MB
Genre: Synth-pop | RAR 3% Rec. | Label: Mute (CDBONG 7)

Tracklist:
01. Blasphemous Rumours
02. Told You So (Live At The Empire Theatre, Liverpool On 29.9.84)
03. Somebody (Remix)
04. Everything Counts (Live At The Empire Theatre, Liverpool On 29.9.84)

Total time: 21:34

Exact Audio Copy V1.3 from 2. September 2016

EAC extraction logfile from 19. January 2020, 12:12

Depeche Mode / Blasphemous Rumours - Somebody (DMBX CD12)

Used drive : PIONEER DVD-RW DVR-221L Adapter: 1 ID: 0

Read mode : Secure
Utilize accurate stream : Yes
Defeat audio cache : Yes
Make use of C2 pointers : No

Read offset correction : 6
Overread into Lead-In and Lead-Out : No
Fill up missing offset samples with silence : Yes
Delete leading and trailing silent blocks : No
Null samples used in CRC calculations : Yes
Used interface : Native Win32 interface for Win NT & 2000
Gap handling : Appended to previous track

Used output format : User Defined Encoder
Selected bitrate : 1024 kBit/s
Quality : High
Add ID3 tag : No
Command line compressor : C:\Program Files (x86)\Exact Audio Copy\FLAC\FLAC.EXE
Additional command line options : -6 -V -T "COMMENT=ripped by RRC" -T "ARTIST=%artist%" -T "TITLE=%title%" -T "ALBUM=%albumtitle%" -T "DATE=%year%" -T "TRACKNUMBER=%tracknr%" -T "GENRE=%genre%" %source%


TOC of the extracted CD

Track | Start | Length | Start sector | End sector
––––––––––––––––––––––––––––-
1 | 0:00.32 | 6:23.50 | 32 | 28806
2 | 6:24.07 | 4:56.25 | 28807 | 51031
3 | 11:20.32 | 4:20.63 | 51032 | 70594
4 | 15:41.20 | 5:53.55 | 70595 | 97124


Track 1

Filename E:\RRCLtd Rip\01 - Blasphemous Rumours.wav

Pre-gap length 0:00:02.32

Peak level 100.0 %
Extraction speed 4.7 X
Track quality 100.0 %
Test CRC C2FC2808
Copy CRC C2FC2808
Accurately ripped (confidence 20) [7683A4AD] (AR v2)
Copy OK

Track 2

Filename E:\RRCLtd Rip\02 - Told You So (Live).wav

Pre-gap length 0:00:00.30

Peak level 84.5 %
Extraction speed 5.3 X
Track quality 100.0 %
Test CRC 7D719A67
Copy CRC 7D719A67
Accurately ripped (confidence 20) [60AA33C9] (AR v2)
Copy OK

Track 3

Filename E:\RRCLtd Rip\03 - Somebody (Remix).wav

Pre-gap length 0:00:00.25

Peak level 100.0 %
Extraction speed 5.6 X
Track quality 100.0 %
Test CRC 16D381DD
Copy CRC 16D381DD
Accurately ripped (confidence 20) [D2B74400] (AR v2)
Copy OK

Track 4

Filename E:\RRCLtd Rip\04 - Everything Counts (Live).wav

Peak level 95.6 %
Extraction speed 6.3 X
Track quality 100.0 %
Test CRC 882A77A2
Copy CRC 882A77A2
Accurately ripped (confidence 20) [C827EFA7] (AR v2)
Copy OK


All tracks accurately ripped

No errors occurred

End of status report

–– CUETools DB Plugin V2.1.6

[CTDB TOCID: iISTCpZX.OdECivmeKnFNOab2gw-] found
Submit result: iISTCpZX.OdECivmeKnFNOab2gw- has been confirmed
Track | CTDB Status
1 | (20/76) Accurately ripped
2 | (20/76) Accurately ripped
3 | (20/76) Accurately ripped
4 | (20/76) Accurately ripped


==== Log checksum 1F95476D21F0CF71B0AB9D1CA611F8D2134C1A70D70D5CD4206E72342E926DC7 ====

[CUETools log; Date: 06.06.2021 19:29:14; Version: 2.1.4]
Pregap length 00:00:32.
[CTDB TOCID: iISTCpZX.OdECivmeKnFNOab2gw-] found.
Track | CTDB Status
1 | ( 29/100) Accurately ripped
2 | ( 29/100) Accurately ripped
3 | ( 29/100) Accurately ripped
4 | ( 29/100) Accurately ripped
[AccurateRip ID: 0003c727-000eef3b-33050f04] found.
Track [ CRC | V2 ] Status
01 [5768abbd|7683a4ad] (018+022/112) Accurately ripped
02 [0dbf2483|60aa33c9] (019+022/109) Accurately ripped
03 [c4d766e8|d2b74400] (019+022/113) Accurately ripped
04 [bf4ed132|c827efa7] (020+022/114) Accurately ripped

Track Peak [ CRC32 ] [W/O NULL] [ LOG ]
– 100,0 [5D2EF53E] [87006F89]
01 100,0 [C2FC2808] [CC35B789] CRC32
02 84,5 [7D719A67] [302571F7] CRC32
03 100,0 [16D381DD] [64288ED4] CRC32
04 95,6 [882A77A2] [22D9B645] CRC32

Thanks to RRC

See also:
Depeche Mode - Singles 1-6 [6CD Box Set] (1991)
Depeche Mode - Songs Of Faith ...n: The 12" Singles (2020)