Tags
Language
Tags

Derek And The Dominos - Layla And Other Assorted Love Songs (1970) {1989, Japanese Edition}

Posted By: popsakov
Derek And The Dominos - Layla And Other Assorted Love Songs (1970) {1989, Japanese Edition}

Derek And The Dominos - Layla And Other Assorted Love Songs (1970) {1989, Japanese Edition}
2CD | EAC Rip | FLAC (Img) + Cue + Log ~ 487 Mb | MP3 CBR320 ~ 186 Mb
Full Scans ~ 53 Mb | 00:39:28 + 00:37:48 | RAR 5% Recovery
Classic Rock, Blues Rock | RSO / Polydor K.K. #P36W 22010/11

Layla and Other Assorted Love Songs is the only studio album by Anglo-American blues rock band Derek and the Dominos. Released in November 1970, the double album is best known for its title track, "Layla", and is often regarded as Eric Clapton's greatest musical achievement. The other band members were Bobby Whitlock on keyboards and vocals, Jim Gordon on drums, Carl Radle on bass, and special guest performer Duane Allman on lead and slide guitar on 11 of the 14 songs. In 2000, the album was inducted into the Grammy Hall of Fame. In 2003, television network VH1 named Layla and Other Assorted Love Songs the 89th-greatest album of all time, and Rolling Stone ranked it number 117 on its list of "The 500 Greatest Albums of All Time". Critic Robert Christgau ranked Layla the third greatest album of the 1970s.
Derek And The Dominos - Layla And Other Assorted Love Songs (1970) {1989, Japanese Edition}


***************

Derek And The Dominos - Layla And Other Assorted Love Songs (1970) {1989, Japanese Edition}

Derek And The Dominos - Layla And Other Assorted Love Songs (1970) {1989, Japanese Edition}

Track List CD1:

01. I Looked Away [3:07]
02. Bell Bottom Blues [5:04]
03. Keep On Growing [6:23]
04. Nobody Knows You (When You're Down And Out) [5:00]
05. I Am Yours [3:37]
06. Anyday [6:37]
07. Key To The Highway [9:40]

Exact Audio Copy V1.3 from 2. September 2016

EAC extraction logfile from 6. June 2017, 17:39

Derek And The Dominos / Layla And Other Assorted Love Songs (CD 1)

Used drive : MATSHITADVD-RAM UJ8A0AS Adapter: 1 ID: 0

Read mode : Secure
Utilize accurate stream : Yes
Defeat audio cache : Yes
Make use of C2 pointers : No

Read offset correction : 102
Overread into Lead-In and Lead-Out : No
Fill up missing offset samples with silence : Yes
Delete leading and trailing silent blocks : No
Null samples used in CRC calculations : Yes
Used interface : Native Win32 interface for Win NT & 2000

Used output format : Internal WAV Routines
Sample format : 44.100 Hz; 16 Bit; Stereo


TOC of the extracted CD

Track | Start | Length | Start sector | End sector
––––––––––––––––––––––––––––-
1 | 0:00.37 | 3:07.08 | 37 | 14069
2 | 3:07.45 | 5:03.60 | 14070 | 36854
3 | 8:11.30 | 6:22.70 | 36855 | 65574
4 | 14:34.25 | 5:00.07 | 65575 | 88081
5 | 19:34.32 | 3:36.63 | 88082 | 104344
6 | 23:11.20 | 6:37.25 | 104345 | 134144
7 | 29:48.45 | 9:40.02 | 134145 | 177646


Range status and errors

Selected range

Filename F:\Alexharvey\Derek And The Dominos - Layla And Other Assorted Love Songs (CD 1).wav

Peak level 100.0 %
Extraction speed 3.6 X
Range quality 100.0 %
Test CRC 8759F787
Copy CRC 8759F787
Copy OK

No errors occurred


AccurateRip summary

Track 1 accurately ripped (confidence 2) [E852958F] (AR v2)
Track 2 accurately ripped (confidence 2) [E5F302CD] (AR v2)
Track 3 accurately ripped (confidence 2) [871D2F8E] (AR v2)
Track 4 accurately ripped (confidence 2) [79A86DE1] (AR v2)
Track 5 accurately ripped (confidence 2) [867EE2AE] (AR v2)
Track 6 accurately ripped (confidence 2) [89D6FFA9] (AR v2)
Track 7 accurately ripped (confidence 2) [B9DE47B5] (AR v2)

All tracks accurately ripped

End of status report

–– CUETools DB Plugin V2.1.6

[CTDB TOCID: Eit2nDRiYvs7iijwU47De5uJfmc-] found
Submit result: Eit2nDRiYvs7iijwU47De5uJfmc- has been confirmed
Track | CTDB Status
1 | (146/148) Accurately ripped
2 | (146/148) Accurately ripped
3 | (143/148) Accurately ripped
4 | (146/148) Accurately ripped
5 | (144/148) Accurately ripped
6 | (135/148) Accurately ripped, or (5/148) differs in 3 samples @06:25:68
7 | (141/148) Accurately ripped


==== Log checksum 864520AC0C831319043DABC37A8A642C291515DE6C3C818E2A3179ECF34B283F ====

foobar2000 1.2.6 / Dynamic Range Meter 1.1.1
log date: 2017-06-07 00:45:35

––––––––––––––––––––––––––––––––––––––––
Analyzed: Derek And The Dominos / Layla And Other Assorted Love Songs (CD 1)
––––––––––––––––––––––––––––––––––––––––

DR Peak RMS Duration Track
––––––––––––––––––––––––––––––––––––––––
DR12 0.00 dB -15.05 dB 3:07 01-I Looked Away
DR11 0.00 dB -13.34 dB 5:04 02-Bell Bottom Blues
DR13 0.00 dB -14.24 dB 6:23 03-Keep On Growing
DR13 0.00 dB -15.78 dB 5:00 04-Nobody Knows You (When You're Down And Out)
DR14 -1.70 dB -18.46 dB 3:37 05-I Am Yours
DR11 0.00 dB -13.11 dB 6:37 06-Anyday
DR11 0.00 dB -12.96 dB 9:40 07-Key To The Highway
––––––––––––––––––––––––––––––––––––––––

Number of tracks: 7
Official DR value: DR12

Samplerate: 44100 Hz
Channels: 2
Bits per sample: 16
Bitrate: 848 kbps
Codec: FLAC
================================================================================

[CUETools log; Date: 07.06.2017 0:45:47; Version: 2.1.5]
Pregap length 00:00:37.
[CTDB TOCID: Eit2nDRiYvs7iijwU47De5uJfmc-] found.
Track | CTDB Status
1 | (147/149) Accurately ripped
2 | (147/149) Accurately ripped
3 | (144/149) Accurately ripped
4 | (147/149) Accurately ripped
5 | (145/149) Accurately ripped
6 | (136/149) Accurately ripped, or (5/149) differs in 3 samples @06:25:68
7 | (142/149) Accurately ripped
[AccurateRip ID: 000978d4-003a6801-69094007] found.
Track [ CRC | V2 ] Status
01 [cee8ceb7|e852958f] (00+02/15) Accurately ripped
02 [09f65b77|e5f302cd] (00+02/12) Accurately ripped
03 [4e9a3fd0|871d2f8e] (00+02/12) Accurately ripped
04 [2eb6df86|79a86de1] (00+02/10) Accurately ripped
05 [83834829|867ee2ae] (00+02/10) Accurately ripped
06 [0b786ee1|89d6ffa9] (00+02/10) Accurately ripped
07 [dc670de7|b9de47b5] (00+02/10) Accurately ripped
Offsetted by -2179:
01 [1f7b6148] (00/15) No match (V2 was not tested)
02 [b045eb5c] (00/12) No match (V2 was not tested)
03 [fcbb97ba] (00/12) No match (V2 was not tested)
04 [16bbd445] (00/10) No match (V2 was not tested)
05 [769116e4] (00/10) No match (V2 was not tested)
06 [80db2e9a] (00/10) No match (V2 was not tested)
07 [2d326c53] (00/10) No match (V2 was not tested)
Offsetted by -2178:
01 [8a2d4d95] (02/15) Accurately ripped
02 [eca14afd] (02/12) Accurately ripped
03 [2b02df9c] (02/12) Accurately ripped
04 [27f41f99] (00/10) No match (V2 was not tested)
05 [d115c6bb] (00/10) No match (V2 was not tested)
06 [97c736ad] (00/10) No match (V2 was not tested)
07 [592ebfde] (00/10) No match (V2 was not tested)

Track Peak [ CRC32 ] [W/O NULL] [ LOG ]
– 100,0 [8759F787] [CA7B7723] CRC32
01 100,0 [955261C4] [D91B677A]
02 100,0 [FD246DF5] [ED97E3F7]
03 100,0 [4A67D7EC] [26EF2D42]
04 100,0 [B6950C67] [92A7CF48]
05 82,1 [C341269E] [7783AD40]
06 100,0 [F4807B68] [3B6CA80A]
07 100,0 [F4625E83] [11E3B4CD]

Derek And The Dominos - Layla And Other Assorted Love Songs (1970) {1989, Japanese Edition}

Derek And The Dominos - Layla And Other Assorted Love Songs (1970) {1989, Japanese Edition}

Track List CD2:

01. Tell The Truth [6:41]
02. Why Does Love Ggot To Be So Sad [4:44]
03. Have You Ever Loved A Woman [6:55]
04. Little Wing [5:37]
05. It's Too Late [3:50]
06. Layla [7:10]
07. Thorn Tree In The Garden [2:52]

Exact Audio Copy V1.3 from 2. September 2016

EAC extraction logfile from 6. June 2017, 18:11

Derek And The Dominos / Layla And Other Assorted Love Songs (CD 2)

Used drive : MATSHITADVD-RAM UJ8A0AS Adapter: 1 ID: 0

Read mode : Secure
Utilize accurate stream : Yes
Defeat audio cache : Yes
Make use of C2 pointers : No

Read offset correction : 102
Overread into Lead-In and Lead-Out : No
Fill up missing offset samples with silence : Yes
Delete leading and trailing silent blocks : No
Null samples used in CRC calculations : Yes
Used interface : Native Win32 interface for Win NT & 2000

Used output format : Internal WAV Routines
Sample format : 44.100 Hz; 16 Bit; Stereo


TOC of the extracted CD

Track | Start | Length | Start sector | End sector
––––––––––––––––––––––––––––-
1 | 0:00.37 | 6:40.48 | 37 | 30084
2 | 6:41.10 | 4:44.12 | 30085 | 51396
3 | 11:25.22 | 6:55.20 | 51397 | 82541
4 | 18:20.42 | 5:36.53 | 82542 | 107794
5 | 23:57.20 | 3:49.55 | 107795 | 125024
6 | 27:47.00 | 7:09.50 | 125025 | 157249
7 | 34:56.50 | 2:51.65 | 157250 | 170139


Range status and errors

Selected range

Filename F:\Alexharvey\Derek And The Dominos - Layla And Other Assorted Love Songs (CD 2).wav

Peak level 93.3 %
Extraction speed 3.5 X
Range quality 99.9 %
Test CRC 7C255C51
Copy CRC 7C255C51
Copy OK

No errors occurred


AccurateRip summary

Track 1 accurately ripped (confidence 9) [475FCA30] (AR v2)
Track 2 accurately ripped (confidence 10) [2B0D69C2] (AR v2)
Track 3 accurately ripped (confidence 9) [9A690B46] (AR v2)
Track 4 accurately ripped (confidence 10) [DDDA37D2] (AR v2)
Track 5 accurately ripped (confidence 10) [BD81FD22] (AR v2)
Track 6 accurately ripped (confidence 10) [D7F038BB] (AR v2)
Track 7 accurately ripped (confidence 10) [FD96D0BE] (AR v2)

All tracks accurately ripped

End of status report

–– CUETools DB Plugin V2.1.6

[CTDB TOCID: f9P3o6Pi8ONE19lRV.zZpymR0No-] found
Submit result: f9P3o6Pi8ONE19lRV.zZpymR0No- has been confirmed
Track | CTDB Status
1 | ( 9/10) Accurately ripped
2 | ( 9/10) Accurately ripped
3 | ( 9/10) Accurately ripped
4 | ( 9/10) Accurately ripped
5 | ( 9/10) Accurately ripped
6 | ( 9/10) Accurately ripped
7 | ( 9/10) Accurately ripped


==== Log checksum 70A2DCF9801DE9D72D9ABAC27CA30B5E94E4B4FF8C189F9937CC704A138907D7 ====

foobar2000 1.2.6 / Dynamic Range Meter 1.1.1
log date: 2017-06-07 00:47:18

––––––––––––––––––––––––––––––––––––––––
Analyzed: Derek And The Dominos / Layla And Other Assorted Love Songs (CD 2)
––––––––––––––––––––––––––––––––––––––––

DR Peak RMS Duration Track
––––––––––––––––––––––––––––––––––––––––
DR10 -0.60 dB -13.07 dB 6:41 01-Tell The Truth
DR12 -0.60 dB -15.21 dB 4:44 02-Why Does Love Ggot To Be So Sad
DR10 -0.60 dB -12.45 dB 6:55 03-Have You Ever Loved A Woman
DR11 -0.60 dB -13.57 dB 5:37 04-Little Wing
DR12 -0.60 dB -14.65 dB 3:50 05-It's Too Late
DR11 -0.60 dB -14.73 dB 7:10 06-Layla
DR13 -7.25 dB -24.76 dB 2:52 07-Thorn Tree In The Garden
––––––––––––––––––––––––––––––––––––––––

Number of tracks: 7
Official DR value: DR11

Samplerate: 44100 Hz
Channels: 2
Bits per sample: 16
Bitrate: 827 kbps
Codec: FLAC
================================================================================

[CUETools log; Date: 07.06.2017 0:47:05; Version: 2.1.5]
Pregap length 00:00:37.
[CTDB TOCID: f9P3o6Pi8ONE19lRV.zZpymR0No-] found.
Track | CTDB Status
1 | (10/11) Accurately ripped
2 | (10/11) Accurately ripped
3 | (10/11) Accurately ripped
4 | (10/11) Accurately ripped
5 | (10/11) Accurately ripped
6 | (10/11) Accurately ripped
7 | (10/11) Accurately ripped
[AccurateRip ID: 000b0d2f-00418b89-5c08dc07] found.
Track [ CRC | V2 ] Status
01 [cc420ea2|475fca30] (00+09/11) Accurately ripped
02 [f3ea8059|2b0d69c2] (00+10/10) Accurately ripped
03 [863d0c1f|9a690b46] (00+09/09) Accurately ripped
04 [a41f9a82|ddda37d2] (00+10/10) Accurately ripped
05 [d34371aa|bd81fd22] (00+10/10) Accurately ripped
06 [44e6977f|d7f038bb] (00+10/10) Accurately ripped
07 [d6704de1|fd96d0be] (00+10/10) Accurately ripped
Offsetted by 107:
01 [5a1cc001] (00/11) No match (V2 was not tested)
02 [1a473faf] (00/10) No match (V2 was not tested)
03 [3991daa9] (00/09) No match (V2 was not tested)
04 [4c4161f1] (00/10) No match (V2 was not tested)
05 [4da4bcf0] (00/10) No match (V2 was not tested)
06 [3158d500] (00/10) No match (V2 was not tested)
07 [5e77d2c3] (00/10) No match (V2 was not tested)

Track Peak [ CRC32 ] [W/O NULL] [ LOG ]
– 93,3 [7C255C51] [0EBDB2A7] CRC32
01 93,3 [97A75052] [F6443EA8]
02 93,3 [774D72B4] [E2C280A8]
03 93,3 [7098F029] [32B228F6]
04 93,3 [76DE8894] [7C475886]
05 93,3 [DF114619] [5BAA3FBF]
06 93,3 [5DEE5A5D] [718788BF]
07 43,4 [E84A2B34] [F2996868]

Derek And The Dominos - Layla And Other Assorted Love Songs (1970) {1989, Japanese Edition}


See also:

Derek And The Dominos - Lay...astered, Japanese Reissue}

Derek And The Dominos - Lay...nniversary Deluxe Edition}

All thanks go to Alexharvey

>>> My Blog <<<

DOWNLOAD: