Subcategories

Destruction - Best Of (1992)

Posted By: v3122
Destruction - Best Of (1992)

Destruction - Best Of (1992)
EAC | Flac(Image) + Cue + Log & MP3 CBR 320Kbps
2CD | Steamhammer, SPV 084-76482 | ~ 927 or 315 Mb | Scans(jpg) -> 7.93 Mb
Thrash Metal

Destruction is the ultimate metal band. This band from Germany were responsible for a brand new sound that has influenced everyone in the death metal scene. The vocals are eerie and frightening and the whirlwind music very heavy and mesmerizing. This 2 cd set has all the best songs by Destruction and shows the diversity and all out extremity of a band that has since disbanded. If you haven't listened to Destruction this is must for fans of original Death Metal! There is only one Destruction!!!!

by customer, amazon
Destruction - Best Of (1992):

Destruction - Best Of (1992)

Tracklist CD1:

1. Intro
2. Total Desaster
3. Mad Butcher
4. Devil's Soldiers
5. Invincible Force
6. Death Trap
7. The Ritual
8. Tormentor
9. Black Death
10. Beyond Eternity
11. Release From Agony
12. Sign Of Fear
13. Incriminated
14. Our Oppression
15. Survive To Die

Converted to Image (CUETools 2.1.4)

Exact Audio Copy V0.99 prebeta 5 from 4. May 2009

EAC extraction logfile from 22. September 2009, 12:07

Destruction / Best Of Destruction - CD1

Used drive : PLEXTOR DVDR PX-800A Adapter: 0 ID: 0

Read mode : Secure
Utilize accurate stream : Yes
Defeat audio cache : Yes
Make use of C2 pointers : No

Read offset correction : 48
Overread into Lead-In and Lead-Out : No
Fill up missing offset samples with silence : Yes
Delete leading and trailing silent blocks : No
Null samples used in CRC calculations : Yes
Used interface : Installed external ASPI interface
Gap handling : Appended to previous track

Used output format : User Defined Encoder
Selected bitrate : 768 kBit/s
Quality : High
Add ID3 tag : No
Command line compressor : C:\Program Files\FLAC\flac.exe
Additional command line options : -6 -V -T "ARTIST=%a" -T "TITLE=%t" -T "ALBUM=%g" -T "DATE=%y" -T "TRACKNUMBER=%n" -T "GENRE=%m" -T "COMMENT=%e" %s -o %d


TOC of the extracted CD

Track | Start | Length | Start sector | End sector
––––––––––––––––––––––––––––-
1 | 0:00.00 | 1:15.22 | 0 | 5646
2 | 1:15.22 | 4:11.50 | 5647 | 24521
3 | 5:26.72 | 3:29.00 | 24522 | 40196
4 | 8:55.72 | 3:23.58 | 40197 | 55479
5 | 12:19.55 | 4:17.52 | 55480 | 74806
6 | 16:37.32 | 5:46.45 | 74807 | 100801
7 | 22:24.02 | 5:09.25 | 100802 | 124001
8 | 27:33.27 | 5:04.43 | 124002 | 146844
9 | 32:37.70 | 7:41.02 | 146845 | 181421
10 | 40:18.72 | 1:11.05 | 181422 | 186751
11 | 41:30.02 | 4:41.70 | 186752 | 207896
12 | 46:11.72 | 6:44.15 | 207897 | 238211
13 | 52:56.12 | 5:22.00 | 238212 | 262361
14 | 58:18.12 | 4:48.10 | 262362 | 283971
15 | 63:06.22 | 5:31.25 | 283972 | 308821


Track 1

Filename D:\upload\01 - Intro.wav

Pre-gap length 0:00:02.00

Peak level 70.2 %
Track quality 100.0 %
Test CRC 16D5968F
Copy CRC 16D5968F
Cannot be verified as accurate (confidence 3) [70761435], AccurateRip returned [7442CF12]
Copy OK

Track 2

Filename D:\upload\02 - Total Desaster.wav

Peak level 89.9 %
Track quality 99.9 %
Test CRC DD9B5034
Copy CRC DD9B5034
Cannot be verified as accurate (confidence 3) [E54D4B0D], AccurateRip returned [A2FC8DC9]
Copy OK

Track 3

Filename D:\upload\03 - Mad Butcher.wav

Pre-gap length 0:00:00.36

Peak level 86.9 %
Track quality 100.0 %
Test CRC 0035F8CF
Copy CRC 0035F8CF
Cannot be verified as accurate (confidence 3) [D35C1339], AccurateRip returned [CD9ABE69]
Copy OK

Track 4

Filename D:\upload\04 - Devil's Soldiers.wav

Pre-gap length 0:00:00.62

Peak level 88.9 %
Track quality 100.0 %
Test CRC A3AF8ABD
Copy CRC A3AF8ABD
Cannot be verified as accurate (confidence 3) [3DB3E9C4], AccurateRip returned [5DA0CE61]
Copy OK

Track 5

Filename D:\upload\05 - Invincible Force.wav

Pre-gap length 0:00:00.66

Peak level 98.6 %
Track quality 99.9 %
Test CRC DCE25CF4
Copy CRC DCE25CF4
Cannot be verified as accurate (confidence 3) [EC086BCA], AccurateRip returned [19A95534]
Copy OK

Track 6

Filename D:\upload\06 - Death Trap.wav

Pre-gap length 0:00:00.49

Peak level 94.1 %
Track quality 100.0 %
Test CRC 119AA7FD
Copy CRC 119AA7FD
Cannot be verified as accurate (confidence 3) [8F07AB4B], AccurateRip returned [F8E7EFB1]
Copy OK

Track 7

Filename D:\upload\07 - The Ritual.wav

Pre-gap length 0:00:00.40

Peak level 97.3 %
Track quality 100.0 %
Test CRC 228BEA13
Copy CRC 228BEA13
Cannot be verified as accurate (confidence 3) [9C8CD83A], AccurateRip returned [33F93908]
Copy OK

Track 8

Filename D:\upload\08 - Tormentor.wav

Pre-gap length 0:00:00.29

Peak level 91.7 %
Track quality 100.0 %
Test CRC 7E222B81
Copy CRC 7E222B81
Cannot be verified as accurate (confidence 3) [5CD1F406], AccurateRip returned [458AE3AC]
Copy OK

Track 9

Filename D:\upload\09 - Black Death.wav

Pre-gap length 0:00:00.40

Peak level 89.6 %
Track quality 100.0 %
Test CRC 1192F6F3
Copy CRC 1192F6F3
Cannot be verified as accurate (confidence 3) [98014395], AccurateRip returned [EDB23B9B]
Copy OK

Track 10

Filename D:\upload\10 - Beyond Eternity.wav

Pre-gap length 0:00:00.22

Peak level 62.4 %
Track quality 99.8 %
Test CRC 0A5A4AE6
Copy CRC 0A5A4AE6
Cannot be verified as accurate (confidence 3) [255738B8], AccurateRip returned [D96AA986]
Copy OK

Track 11

Filename D:\upload\11 - Release From Agony.wav

Peak level 82.2 %
Track quality 99.9 %
Test CRC D7EE4FFA
Copy CRC 1D368DF4
Cannot be verified as accurate (confidence 3) [1B0C2CAA], AccurateRip returned [71FB87B3]
Copy OK

Track 12

Filename D:\upload\12 - Sign Of Fear.wav

Pre-gap length 0:00:00.13

Peak level 83.3 %
Track quality 100.0 %
Test CRC 250DA352
Copy CRC 250DA352
Cannot be verified as accurate (confidence 3) [D3C89224], AccurateRip returned [C30C8B1D]
Copy OK

Track 13

Filename D:\upload\13 - Incriminated.wav

Pre-gap length 0:00:00.09

Peak level 78.9 %
Track quality 100.0 %
Test CRC 7596B137
Copy CRC 7596B137
Cannot be verified as accurate (confidence 3) [5FEB1443], AccurateRip returned [10580F9A]
Copy OK

Track 14

Filename D:\upload\14 - Our Oppression.wav

Pre-gap length 0:00:00.26

Peak level 82.0 %
Track quality 100.0 %
Test CRC 3663410A
Copy CRC 3663410A
Cannot be verified as accurate (confidence 3) [66F6B2FA], AccurateRip returned [A89F2780]
Copy OK

Track 15

Filename D:\upload\15 - Survive To Die.wav

Pre-gap length 0:00:00.16

Peak level 89.8 %
Track quality 100.0 %
Test CRC CF5C4487
Copy CRC CF5C4487
Cannot be verified as accurate (confidence 3) [1759919C], AccurateRip returned [F1B5822F]
Copy OK


No tracks could be verified as accurate
You may have a different pressing from the one(s) in the database

No errors occurred

End of status report


[CUETools log; Date: 19.04.2018 10:55:03; Version: 2.1.5]
[AccurateRip ID: 002234cd-0191afca-eb10150f] found.
Track [ CRC | V2 ] Status
01 [70761435|59952a9c] (02+00/20) Accurately ripped
02 [e54d4b0d|3d21e2b2] (02+00/20) Accurately ripped
03 [d35c1339|8f982816] (02+00/20) Accurately ripped
04 [3db3e9c4|ea8bae34] (02+00/20) Accurately ripped
05 [ec086bca|06ca49f5] (02+00/20) Accurately ripped
06 [8f07ab4b|ef9ab870] (02+00/20) Accurately ripped
07 [9c8cd83a|bf08a6da] (02+00/20) Accurately ripped
08 [5cd1f406|5d36c139] (02+00/19) Accurately ripped
09 [98014395|8e0d1389] (02+00/20) Accurately ripped
10 [255738b8|1fc03924] (02+00/19) Accurately ripped
11 [1b0c2caa|e5041b2f] (00+00/18) No match
12 [d3c89224|4c9c7690] (00+00/18) No match
13 [5feb1443|80a61d2c] (02+00/20) Accurately ripped
14 [66f6b2fa|e0f7793b] (02+00/20) Accurately ripped
15 [1759919c|67b0cbc9] (02+00/19) Accurately ripped
Offsetted by -6:
01 [803597f7] (00/20) No match
02 [35145dbc] (00/20) No match
03 [6356e7d9] (00/20) No match
04 [3a585ada] (00/20) No match
05 [d30f0896] (00/20) No match
06 [c86a97df] (00/20) No match
07 [be7f967e] (00/20) No match
08 [12f45e1a] (00/19) No match
09 [401c12e9] (00/20) No match
10 [896cb88a] (00/19) No match
11 [73b90038] (00/18) No match (V2 was not tested)
12 [e243e326] (00/18) No match (V2 was not tested)
13 [035e6485] (00/20) No match
14 [e1f5914e] (00/20) No match
15 [dcf74126] (00/19) No match
Offsetted by 661:
01 [131107f0] (00/20) No match
02 [b192c19a] (00/20) No match
03 [5d959309] (00/20) No match
04 [5a453f77] (00/20) No match
05 [00aff200] (00/20) No match
06 [324adc45] (00/20) No match
07 [55ebf74c] (00/20) No match
08 [fbad4dc0] (00/19) No match
09 [95cd0aef] (00/20) No match
10 [a6456483] (00/19) No match
11 [71fb87b3] (07/18) Accurately ripped
12 [c30c8b1d] (07/18) Accurately ripped
13 [b3cb5fdc] (00/20) No match
14 [239e05d4] (00/20) No match
15 [b75331b9] (00/19) No match
Offsetted by 667:
01 [7442cf12] (07/20) Accurately ripped
02 [a2fc8dc9] (07/20) Accurately ripped
03 [cd9abe69] (07/20) Accurately ripped
04 [5da0ce61] (07/20) Accurately ripped
05 [19a95534] (07/20) Accurately ripped
06 [f8e7efb1] (07/20) Accurately ripped
07 [33f93908] (07/20) Accurately ripped
08 [458ae3ac] (06/19) Accurately ripped
09 [edb23b9b] (07/20) Accurately ripped
10 [e825f387] (00/19) No match (V2 was not tested)
11 [d1de9b9f] (00/18) No match
12 [b4913a1b] (00/18) No match
13 [10580f9a] (07/20) Accurately ripped
14 [a89f2780] (07/20) Accurately ripped
15 [f1b5822f] (07/19) Accurately ripped

Track Peak [ CRC32 ] [W/O NULL] [ LOG ]
– 98,6 [8E005A7F] [AF7969D3]
01 70,2 [16D5968F] [E18CFF0C] CRC32
02 89,9 [DD9B5034] [5768BE63] CRC32
03 86,9 [0035F8CF] [4BE3B8E0] CRC32
04 88,9 [A3AF8ABD] [2BF2E560] CRC32
05 98,6 [DCE25CF4] [40FD2D0C] CRC32
06 94,1 [119AA7FD] [8AB64F9B] CRC32
07 97,3 [228BEA13] [7DAA8C9E] CRC32
08 91,7 [7E222B81] [1B4FD407] CRC32
09 89,6 [1192F6F3] [D72BACFC] CRC32
10 62,4 [0A5A4AE6] [FF2F11DF] CRC32
11 82,2 [1D368DF4] [6EE04CD7] CRC32
12 83,3 [250DA352] [A9531342] CRC32
13 78,9 [7596B137] [B733C277] CRC32
14 82,0 [3663410A] [8644E01C] CRC32
15 89,8 [CF5C4487] [DE7F7F26] CRC32


Destruction - Best Of (1992)

Tracklist CD2:

1. Confound Games
2. United By Hatred
3. Upcoming Devastation
4. Confused Mind
5. Curse The Gods (Live)
6. Unconscious Ruins (Live)
7. Thrash Attack (Live)
8. Reject Emotions (Live)
9. Mad Butcher (Live)
10. Pink Panther / Life Without Sense (Live)
11. In The Mood / Release From Agony (Live)
12. Bestial Invasion (Live)

Converted to Image (CUETools 2.1.4)

Exact Audio Copy V0.99 prebeta 5 from 4. May 2009

EAC extraction logfile from 22. September 2009, 12:49

Destruction / Best Of Destruction - CD2

Used drive : PLEXTOR DVDR PX-800A Adapter: 0 ID: 0

Read mode : Secure
Utilize accurate stream : Yes
Defeat audio cache : Yes
Make use of C2 pointers : No

Read offset correction : 48
Overread into Lead-In and Lead-Out : No
Fill up missing offset samples with silence : Yes
Delete leading and trailing silent blocks : No
Null samples used in CRC calculations : Yes
Used interface : Installed external ASPI interface
Gap handling : Appended to previous track

Used output format : User Defined Encoder
Selected bitrate : 768 kBit/s
Quality : High
Add ID3 tag : No
Command line compressor : C:\Program Files\FLAC\flac.exe
Additional command line options : -6 -V -T "ARTIST=%a" -T "TITLE=%t" -T "ALBUM=%g" -T "DATE=%y" -T "TRACKNUMBER=%n" -T "GENRE=%m" -T "COMMENT=%e" %s -o %d


TOC of the extracted CD

Track | Start | Length | Start sector | End sector
––––––––––––––––––––––––––––-
1 | 0:00.00 | 4:27.05 | 0 | 20029
2 | 4:27.05 | 4:59.50 | 20030 | 42504
3 | 9:26.55 | 4:03.70 | 42505 | 60799
4 | 13:30.50 | 6:04.10 | 60800 | 88109
5 | 19:34.60 | 5:46.07 | 88110 | 114066
6 | 25:20.67 | 4:40.33 | 114067 | 135099
7 | 30:01.25 | 3:01.72 | 135100 | 148746
8 | 33:03.22 | 6:23.58 | 148747 | 177529
9 | 39:27.05 | 4:32.55 | 177530 | 197984
10 | 43:59.60 | 7:07.17 | 197985 | 230026
11 | 51:07.02 | 5:46.55 | 230027 | 256031
12 | 56:53.57 | 5:26.65 | 256032 | 280546


Track 1

Filename D:\upload\01 - Confound Games.wav

Pre-gap length 0:00:02.00

Peak level 80.8 %
Track quality 100.0 %
Test CRC 70BB2C1B
Copy CRC 70BB2C1B
Track not present in AccurateRip database
Copy OK

Track 2

Filename D:\upload\02 - United By Hatred.wav

Pre-gap length 0:00:00.50

Peak level 83.8 %
Track quality 100.0 %
Test CRC 15819034
Copy CRC 15819034
Cannot be verified as accurate (confidence 2) [6CF56811], AccurateRip returned [46598ACD]
Copy OK

Track 3

Filename D:\upload\03 - Upcoming Devastation.wav

Pre-gap length 0:00:00.42

Peak level 80.4 %
Track quality 100.0 %
Test CRC CD415587
Copy CRC CD415587
Cannot be verified as accurate (confidence 2) [AE86CEFF], AccurateRip returned [8ACDFFFD]
Copy OK

Track 4

Filename D:\upload\04 - Confused Mind.wav

Pre-gap length 0:00:00.06

Peak level 82.3 %
Track quality 100.0 %
Test CRC 1DC79DAD
Copy CRC 1DC79DAD
Cannot be verified as accurate (confidence 2) [D353A183], AccurateRip returned [28963E1C]
Copy OK

Track 5

Filename D:\upload\05 - Curse The Gods.wav

Pre-gap length 0:00:00.60

Peak level 76.6 %
Track quality 99.2 %
Test CRC F542A64A
Copy CRC F542A64A
Cannot be verified as accurate (confidence 2) [AF492BA9], AccurateRip returned [10A2C312]
Copy OK

Track 6

Filename D:\upload\06 - Unconscious Ruins.wav

Peak level 71.7 %
Track quality 100.0 %
Test CRC FA6EC78B
Copy CRC FA6EC78B
Cannot be verified as accurate (confidence 2) [CD00D3C7], AccurateRip returned [7B8DA6B8]
Copy OK

Track 7

Filename D:\upload\07 - Thrash Attack.wav

Peak level 71.1 %
Track quality 99.9 %
Test CRC B89AF9B6
Copy CRC B89AF9B6
Cannot be verified as accurate (confidence 2) [E15E4442], AccurateRip returned [188372C2]
Copy OK

Track 8

Filename D:\upload\08 - Reject Emotions.wav

Peak level 74.7 %
Track quality 100.0 %
Test CRC BD0CA201
Copy CRC BD0CA201
Cannot be verified as accurate (confidence 2) [51210B99], AccurateRip returned [00D0E6DE]
Copy OK

Track 9

Filename D:\upload\09 - Mad Butcher.wav

Peak level 74.4 %
Track quality 100.0 %
Test CRC 6274AC11
Copy CRC 6274AC11
Cannot be verified as accurate (confidence 2) [6D5C9AAD], AccurateRip returned [D6F6C153]
Copy OK

Track 10

Filename D:\upload\10 - Pink Panther~Life-Without Sense.wav

Peak level 72.9 %
Track quality 100.0 %
Test CRC 0DE127A3
Copy CRC 0DE127A3
Cannot be verified as accurate (confidence 2) [504DF534], AccurateRip returned [210FD333]
Copy OK

Track 11

Filename D:\upload\11 - In The Mood~Release From Agony.wav

Peak level 74.4 %
Track quality 100.0 %
Test CRC 2E9B5C65
Copy CRC 2E9B5C65
Cannot be verified as accurate (confidence 2) [93032E68], AccurateRip returned [EBEE0801]
Copy OK

Track 12

Filename D:\upload\12 - Bestial Invasion.wav

Peak level 73.9 %
Track quality 100.0 %
Test CRC 2E70D70B
Copy CRC 2E70D70B
Cannot be verified as accurate (confidence 2) [235E099B], AccurateRip returned [62E09D4C]
Copy OK


11 track(s) could not be verified as accurate
1 track(s) not present in the AccurateRip database

No tracks could be verified as accurate
You may have a different pressing from the one(s) in the database

No errors occurred

End of status report


[CUETools log; Date: 19.04.2018 10:58:19; Version: 2.1.5]
[AccurateRip ID: 001ab9b8-00fbc080-ad0e9c0c] found.
Track [ CRC | V2 ] Status
01 [15fde5aa|5f4f00c9] (02+03/21) Accurately ripped
02 [6cf56811|fd3be053] (02+03/22) Accurately ripped
03 [ae86ceff|8d1572ee] (02+03/22) Accurately ripped
04 [d353a183|bed05b46] (02+03/20) Accurately ripped
05 [af492ba9|d63f1da2] (02+03/20) Accurately ripped
06 [cd00d3c7|d475b186] (02+03/21) Accurately ripped
07 [e15e4442|af84a236] (02+03/21) Accurately ripped
08 [51210b99|3cedf03d] (02+03/20) Accurately ripped
09 [6d5c9aad|083f4aa2] (02+03/20) Accurately ripped
10 [504df534|53e0ecbb] (02+03/20) Accurately ripped
11 [93032e68|5758c438] (02+03/20) Accurately ripped
12 [235e099b|ee76c6e8] (02+03/20) Accurately ripped
Offsetted by -197:
01 [acaca25e] (03/21) Accurately ripped
02 [91b1734d] (03/22) Accurately ripped
03 [e09c003d] (03/22) Accurately ripped
04 [f665ce8c] (02/20) Accurately ripped
05 [b4759b71] (03/20) Accurately ripped
06 [94f8fab5] (03/21) Accurately ripped
07 [5aacdfbd] (03/21) Accurately ripped
08 [9ff495f4] (03/20) Accurately ripped
09 [8e65b51a] (03/20) Accurately ripped
10 [09f75f3c] (03/20) Accurately ripped
11 [2e0d0a9b] (02/20) Accurately ripped
12 [ee8dc6fd] (02/20) Accurately ripped
Offsetted by 667:
01 [6d9448de] (03/21) Accurately ripped
02 [46598acd] (04/22) Accurately ripped
03 [8acdfffd] (04/22) Accurately ripped
04 [28963e1c] (03/20) Accurately ripped
05 [10a2c312] (03/20) Accurately ripped
06 [7b8da6b8] (04/21) Accurately ripped
07 [188372c2] (04/21) Accurately ripped
08 [00d0e6de] (04/20) Accurately ripped
09 [d6f6c153] (04/20) Accurately ripped
10 [210fd333] (04/20) Accurately ripped
11 [ebee0801] (04/20) Accurately ripped
12 [62e09d4c] (04/20) Accurately ripped

Track Peak [ CRC32 ] [W/O NULL] [ LOG ]
– 83,8 [1794FAC5] [B02B8BDD]
01 80,8 [70BB2C1B] [659DB594] CRC32
02 83,8 [15819034] [ACFE7E14] CRC32
03 80,4 [CD415587] [9B9BE503] CRC32
04 82,3 [1DC79DAD] [2962EFA2] CRC32
05 76,6 [F542A64A] [EB95F878] CRC32
06 71,7 [FA6EC78B] [FA4F4D27] CRC32
07 71,1 [B89AF9B6] [6D742E99] CRC32
08 74,7 [BD0CA201] [8D16F964] CRC32
09 74,4 [6274AC11] [6A00D7FE] CRC32
10 72,9 [0DE127A3] [956C58C3] CRC32
11 74,4 [2E9B5C65] [FF193CEA] CRC32
12 73,8 [2E70D70B] [61761227] CRC32


Destruction - Best Of (1992)

All thanks go to the original releaser

Destruction or Destruction in my Blog

Download Destruction - Best Of (1992):