Subcategories

Detective - It Takes One To Know One (1977) {2003, Reissue}

Posted By: popsakov
Detective - It Takes One To Know One (1977) {2003, Reissue}

Detective - It Takes One To Know One (1977) {2003, Reissue}
EAC Rip | FLAC (Img) + Cue + Log ~ 327 Mb | MP3 CBR320 ~ 106 Mb
Scans Included (JPG, 300 dpi) | RAR 5% Recovery
Hard Rock | Wounded Bird Records #WOU 8504

Detective wasn't without its detractors who dismissed the short-lived band as a poor man's Led Zeppelin. But Detective had more to offer than that. To be sure, Detective was heavily influenced by Zeppelin, but it wasn't a knee-jerk Zeppelin clone – and its bluesy brand of hard rock also owed a lot to Bad Company and Free and Pretty Things. Released in 1977, It Takes One to Know One was the second of Detective's two studio albums. This LP is uneven; a few of the tunes are pedestrian and forgettable (especially the sappy MOR numbers "Warm Love" and "Something Beautiful"). But when Detective hits its mark – and it often does – the listener is happy to have this record in his/her collection. The album's best songs (which include "Dynamite," "Competition," and "Tear Jerker") pack an invigorating hard rock punch. Equally memorable is "Are You Talkin' to Me?," which was obviously inspired by Robert De Niro's famous line in the film Taxi Driver. That Martin Scorsese masterpiece came out in 1976, and Detective's 1977 song is an example of how De Niro's line quickly became a part of popular culture. Imperfections and all, It Takes One to Know One is worth having in your collection if you have a taste for bluesy, riff-oriented hard rock.
~ Alex Henderson, All Music
Detective - It Takes One To Know One (1977) {2003, Reissue}


***************

Detective - It Takes One To Know One (1977) {2003, Reissue}

Detective - It Takes One To Know One (1977) {2003, Reissue}

Track List:

01. Help Me Up [4:19]
02. Competition [4:42]
03. Are You Talkin To Me [4:37]
04. Dynamite [5:29]
05. Something Beautiful [4:24]
06. Warm Love [5:26]
07. Betcha Won't Dance [4:27]
08. Fever [4:43]
09. Tear Jerker [4:31]

Personnel:
Tony Kaye - keyboards
Michael Des Barres – lead vocals
Jon Hyde – drums, percussion, vocals
Michael Monarch - guitars
Bobby Pickett – bass guitar, vocals

Exact Audio Copy V0.99 prebeta 1 from 25. May 2007

Отчёт EAC об извлечении, выполненном 3. апреля 2009, 19:40

Detective / It Takes One To Know One

Дисковод: Optiarc DVD RW AD-7203S Adapter: 3 ID: 1

Режим чтения : Достоверность
Использование точного потока : Да
Отключение кэша аудио : Да
Использование указателей C2 : Нет

Коррекция смещения при чтении : 48
Способность читать области Lead-in и Lead-out : Нет
Заполнение пропущенных сэмплов тишиной : Да
Удаление блоков с тишиной в начале и конце : Нет
Интерфейс : Встроенный Win32-интерфейс для Win NT/2000

Выходной формат : Внутренние WAV-операции
Формат сэмплов : 44.100 Гц; 16 бит; стерео


TOC извлечённого CD

Трек | Старт | Длительность | Начальный сектор | Конечный сектор
––––––––––––––––––––––––––––––––––-
1 | 0:00.00 | 4:18.66 | 0 | 19415
2 | 4:18.66 | 4:42.31 | 19416 | 40596
3 | 9:01.22 | 4:36.69 | 40597 | 61365
4 | 13:38.16 | 5:29.11 | 61366 | 86051
5 | 19:07.27 | 4:23.60 | 86052 | 105836
6 | 23:31.12 | 5:26.19 | 105837 | 130305
7 | 28:57.31 | 4:26.52 | 130306 | 150307
8 | 33:24.08 | 4:43.34 | 150308 | 171566
9 | 38:07.42 | 4:30.54 | 171567 | 191870


Характеристики диапазона извлечения и сообщения об ошибках

Выбранный диапазон

Имя файла D:\DOWNLOAD LOSSLESS strong dc++\Detective - It Takes One To Know One.wav

Пиковый уровень 98.2 %
Качество диапазона 100.0 %
CRC копии C5F7F76D
Копирование… OK

Ошибок не произошло

Конец отчёта

foobar2000 1.2.6 / Dynamic Range Meter 1.1.1
log date: 2017-09-10 14:18:07

––––––––––––––––––––––––––––––––––––––––
Analyzed: Detective / It Takes One To Know One
––––––––––––––––––––––––––––––––––––––––

DR Peak RMS Duration Track
––––––––––––––––––––––––––––––––––––––––
DR9 -0.18 dB -10.08 dB 4:19 01-Help Me Up
DR9 -0.37 dB -11.21 dB 4:42 02-Competition
DR8 -0.18 dB -9.76 dB 4:37 03-Are You Talkin To Me
DR9 -0.27 dB -10.35 dB 5:29 04-Dynamite
DR10 -0.27 dB -12.27 dB 4:24 05-Something Beautiful
DR9 -0.19 dB -11.25 dB 5:26 06-Warm Love
DR8 -0.22 dB -9.72 dB 4:27 07-Betcha Won't Dance
DR8 -0.18 dB -10.01 dB 4:43 08-Fever
DR9 -0.15 dB -10.25 dB 4:31 09-Tear Jerker
––––––––––––––––––––––––––––––––––––––––

Number of tracks: 9
Official DR value: DR9

Samplerate: 44100 Hz
Channels: 2
Bits per sample: 16
Bitrate: 1008 kbps
Codec: FLAC
================================================================================

[CUETools log; Date: 10.09.2017 14:21:05; Version: 2.1.5]
[CTDB TOCID: 3ZT_VnvQ61OMWrxEeDOYAI48PQw-] disk not present in database.
[AccurateRip ID: 000e9b88-006b8e55-6909fe09] disk not present in database.

Track Peak [ CRC32 ] [W/O NULL] [ LOG ]
– 98,2 [C5F7F76D] [76DF746C] CRC32
01 97,9 [13FDA71E] [82179C3A]
02 95,8 [794AE70C] [95E105B5]
03 97,9 [913C1AE4] [97E47864]
04 96,9 [7A7AD01C] [F59F4648]
05 96,8 [1CB32726] [39C5C216]
06 97,8 [B393A0F7] [19924B15]
07 97,5 [8F2129A1] [FB47F500]
08 97,9 [10941EB3] [7CE7CA7C]
09 98,2 [2F71CE45] [9C5A31B1]

Detective - It Takes One To Know One (1977) {2003, Reissue}

All thanks go to saloharus

>>> My Blog <<<

Download from icerbox.com: