Subcategories
Tags
Language
Tags

Deutsche Harmonia Mundi - 100 Great Recordings, Part 4 (2017)

Posted By: ArlegZ
Deutsche Harmonia Mundi - 100 Great Recordings, Part 4 (2017)

Deutsche Harmonia Mundi - 100 Great Recordings, Part 4 (2017)
EAC | FLAC | Image (Cue & Log) ~ 6,72 Gb | Scans included
Classical | Label: Deutsche Harmonia Mundi | # 19075800702 | Recorded: 1960-2013

Since it's founding in Freiburg in 1958, Deutsche Harmonia Mundi has been one of the most important and ambitious labels for period performances. Over decades, globally-acclaimed recordings were created with outstanding musicians. The limited edition "Deutsche Harmonia Mundi: 100 Great Recordings" contains 100 outstanding DHM recordings with some of the most important and best artists in their field: Nuria Rial, Dorothee Mields, Al Ayre Espanol, Hille Perl, Concentus Musicus Wien, Nikolaus Harnoncourt, the Freiburger Barockorchester, Skip Sempé, Capriccio Stravagante, La Petite Bande, Gustav Leonhardt, Andrew Lawrence-King, Frieder Bernius, the Balthasar-Neumann-Chor, Thomas Hengelbrock and many others.

Contents:
CD 76: Telemann - Die Tageszeiten
Freiburger Vokalensemble · Collegium Musicum · Wolfgang Schäfer
CD 77-78: Torrejón y Velasco - La púrpura de la rosa
The Harp Consort · Lawrence-King
CD 79: Joseph de Torres - Solo Cantatas
Marta Almajano · Al Ayre Español · Eduardo López Banzo
CD 80-81: Lorenzo Gaetano Zavateri - Concerti
Freiburger Barockorchester · Gottfried von der Goltz
CD 82: Jan Dismas Zelenka · Johann Georg Pisendel - Concerti
Freiburger Barockorchester · Gottfried von der Goltz
CD 83: Jan Dismas Zelenka - Lamentationes Jeremiae Prophetae
Schola Cantorum Basiliensis · René Jacobs
CD 84: English Harpsichord Musoc: Blow · Croft · Purcell
Tracey
CD 85: Festa Teatrale: Carnival in Venice & Florence
Balthasar-Neumann-Chor & -Ensemble · Hengelbrock
CD 86: His Majesty's Harper: Dowland · Byrd · MacDermott
Andrew Lawrence-King
CD 87: Mas no puede ser
Al Ayre Español · Eduardo López Banzo
CD 88: Mediterraneum
Oni Wytars
CD 89: Music at the court of Louis XIV
Le Trio Royal
CD 90: Music at the Salzburg court 1587–1612
Salzburger Bachchor · Innsbrucker Bläserkreis · Arman
CD 91: Musik in Sanssouci - CPE Bach · Quantz · Friedrich II · Benda
Hans-Martin Linde · Johannes Koch · Hugo Ruf
CD 92: Music of the Tudor - Taverner · Parsley · Sheppard
Pro Cantione Antiqua, London · Bruno Turner
CD 93: Musique à Versailles - Marais · Anglebert · Forqueray
Sigiswald & Wieland Kuijken · Gustav Leonhardt
CD 94: Quando muere el sol
Al Ayre Español · Eduardo López Banzo
CD 95: Sappho and her time
Ensemble Melpomen
CD 96: Tinto: Murcia · Y Coll · Corbetta · Kapsberger
Los Otros
CD 97: Viaggio Italiano
Christoph Dangel
CD 98-99: Renaissance Christmas Music: Altdeutsche Weihnacht
Tölzer Knabenchor singt zur Weihnacht
CD 100: Johann Schelle - Actus Musicus auf Weyh-Nachten
La Capella Ducale · Musica Fiata · Roland Wilson


CD 76: Telemann - Die Tageszeiten
01. Sinfonia
02. Aria: Der Morgen kommt
03. Recitative: Der ganze Himmel schwimmt in Glanz
04. Aria: Allmächt'ger, groß in Sonnenglanz
05. Chorus: Willkommen, holdseliger Morgen
06. Aria: Der Mittag, begleitet von fächelnden Stunden
07. Recitative: Empfange mich, erwürd'ger Eichenwald
08. Aria: Laß mich die süße Wollust fühlen
09. Chorus: Auf, folget dem feurigen Wagen der sonne
10. Aria: Senke dich von Purpurwolken
11. Recitative: Der Wald steht dunkelgrün
12. AriaL Komm, holder Schlaff
13. Chorus: Vom Aufgang bis zum Niedergang
14. Aria: O Nacht! und du geweihte Stille
15. Recitative: Sie kommt; ihr heiles Sternenkleid
16. Aria: Wie wird des Grabes Nacht entweichen
17. Chorus: Der Herr ist Gott, ein Gott der Ehren
CD 77-78: Torrejón y Velasco - La púrpura de la rosa
01. Chinfonia
02. Entrada de clarines
03. El coro de las Musas
04. !Viva, Viva!
05. Baile
06. Pasacalles
07. Danza
08. Venus & las Ninfas
09. Yo, Adonis
10. ¿Tu eres Venus?
11. Amor tirano
12. La maldición
13. Venus & Marte
14. !Arma, arma!
15. Chato & Celfa
16. !Guarda la fiera!
17. Adonis descansa
18. Venus en los montes
19. Los sentimientos de Venus
20. Adonis durmiendo
21. Amor
22. Fantasmas
23. Venus & Adonis
24. La hermosura de Venus
25. Todo es Amor
26. El jardín de Venus
27. Baile del villano
CD 78:
01. Los soldados
02. Amor
03. Enigmas
04. ¿Como escapar?
05. La gruta del Desengaño
06. En tono triste
07. Temor, Sospecha, Envidia & Ira
08. El Desegaño
09. El Desegaño & Marte
10. El cristal
11. Venus y Adonis
12. Los dos coros de Ninfas
13. Xácara
14. Marte en los montes
15. Adonis y el jabalí
16. Dragón, Chato & Celfa
17. La muerte de Adonis
18. La púrpura y las rosas
19. El lamento de Venus
20. La venganza de Marte
21. ¡Ay infelice!
22. La fuerza del dolor
23. Triste
24. La Música de dos orbes
25. ¿Al villano que le dan?
CD 79: Joseph de Torres - Solo Cantatas
Joseph de Torres (ca. 1670-1738)
01. Afectos amantes: Estrivillo "Afectos amantes"
02. Afectos amantes: Rezitado "Ese candido"
03. Afectos amantes: Area "La Solfa mia quiso"
04. Afectos amantes: Rezitado "Su maxima Divina"
05. Afectos amantes: Area "Cisne fue para espirar"
06. Afectos amantes: Rezitado "Este si que es Orfeo"
07. Afectos amantes: Coplas. Alegre "Al abismo"
08. Divino hijo de Adán: Area. Grave "Divino hijo de Adan"
09. Divino hijo de Adán: Rezitado "Que es esto"
10. Divino hijo de Adán: Alegre "Volved, volbed bien mio" / Rezitado "A esso vengo"
11. Divino hijo de Adán: Area "A eso vengo"
12. Divino hijo de Adán: Rezitado "A esto vaja"
13. Divino hijo de Adán: Area. Alegre "Que viva inmortal!"
14. Divino hijo de Adán: Grave "O soverano amor"
Francisco José de Castro (2nd hal 18h c.)
15. Sonate Prima: Preludio. Adagio
16. Sonate Prima: Allemanda. Allegro
17. Sonate Prima: Corrente. Allegro
18. Sonate Prima: Giga. Allegro
19. Sonate Prima: Minuet
Joseph de Torres
20. O, quien pudiera alcanzar: Area "O, quien pudiera alcanzar"
21. O, quien pudiera alcanzar: Recitado "O, humano corazon"
22. O, quien pudiera alcanzar: Area "Si amando enternezido"
23. O, quien pudiera alcanzar: Despazio "Aven, fieras"
24. O, quien pudiera alcanzar: Fuga "Y asi viendo"
25. O, quien pudiera alcanzar: Rezitado "Mas contra la fatiga"
26. O, quien pudiera alcanzar: Area "Yo espero, mi bien"
27. O, quien pudiera alcanzar: Grave "O, immenso Adonay!"
28. Bosques umbrosos: Estrvillo "Bosques umbrosos"
29. Bosques umbrosos: Rezitado "Y pues este tormento"
30. Bosques umbrosos: Area "Acabe mi amor"
31. Bosques umbrosos: Seguidillas "Pero qué digo"
32. Bosques umbrosos: Grave "Muere corazon"
CD 80-81: Zavateri - Concertos
Lorenzo Gaetano Zavateri (1690-1764)
Concerto primo Introducione in G major for strings and b.c.
01. Largo Spico - Allegro Assai - Allegro
Concerto secondo in D major for violino obligato, strings and b.c.
02. Allegro
03. Adagio
04. Spirituoso
Concerto terzo in C major for strings and b.c.
05. Allegro
06. Andante
07. Allegro assai
Concerto quarto in C minor for violino obligato, strings and b.c.
08. Allegro
09. Andante ma Largetto
10. Allegro
Concerto quinto in E major for strings and b.c.
11. Largo - Allegro ma Aperto
12. Andante e Spico - Allegro
Concerto sesto in A major for violino obligato, strings and b.c.
13. Allegro
14. Adagio
15. Vivace
CD 81:
Concerto settimo Teatrale in B flat major for strings and b.c.
01. Vivace
02. Andante
03. Allegro
Concerto ottavo in E flat major for violino obligato, strings and b.c.
04. Allegro
05. Adagio
06. Allegro
Concerto nono Teatrale in F major for strings and b.c.
07. Alleggro a Spico
08. Largetto alla francese
09. Presto
Concerto decimo a Pastorale in D major for 2 violini obligati, strings and b.c.
10. Grave - Allegro
11. Largo - Pastorale
Concerto undecimo in G minor for strings and b.c.
12. Spirituoso
13. Andantino - Allegro
Concerto duodecimo a Tempesta di Mare in G major for violino obligato and b.c.
14. Allegro
15. Adagio
16. Allegro
CD 82: Zelenka · Pisendel - Concertos
Jan Dismas Zelenka (1679-1745)
Hipocondrie à 7 in A major, ZWV 187
01. Movement 1: Allegro
Johann Georg Pisendel (1687-1755)
Concerto in D major
02. Vivace
03. Andante
04. Andante
Jan Dismas Zelenka
Concerto a 8 in G major, ZWV 186
05. Allegro
06. Largo
07. Allegro
Johann Georg Pisendel
Sonata in C minor
08. Largo
09. Allegro
Jan Dismas Zelenka
Sinfonia a 8 in A minor, ZWV 189
10. Movement I
11. Andante
12. Capriccio: Tempo di gavotta
13. Aria da Capriccio
14. Menuet I & II
CD 83: Zelenka - Lamentationes Jeremiae Prophetae
01. Lamentatio I C-Moll
02. Lamentatio II F-Dur
03. Lamentatio I B-Dur
04. Lamentatio II G-Moll
05. Lamentatio I A-Dur
06. Lamentatio II F-Dur
CD 84: English Harpsichord Musoc: Blow · Croft · Purcell
John Blow (1649-1708)
01. Praeludium In G
02. Ground In G
03. Ground - Round - Minuet
04. Almand - Corant - Saraband - Jigg
05. Praeludium - Almand - Saraband - Ayre
06. Chaconne In F
William Croft (1678-1727)
07. Prelude - Almand - Corant - Sarabanda - Air - Ground - Minuet
Henry Purcell (1659-1695)
08. Overture - Air I - Air II - Air III - Trumpet Tune
William Croft
09. Almand - Corant - Saraband - Ground
CD 85: Festa Teatrale: Carnival in Venice & Florence
Pietro Antonio Giramo (b.1619-af.1630)
01. Festa, riso, gioco, e gioia
Giovanni Legrenzi (1626-1690)
02. Lumi, potet piangere
Claudio Monteverdi (1567-1643)
03. Questi vaghi concenti
Francesco Lambardi (c.1587-1642)
04. Canto d’Amore
Diego Ortiz (c.1510-c.1570)
05. Recercada
Claudio Monteverdi
06. Vorrei baciarti, o Filii
Orazio Vecchi (1550-1605)
07. Mascherata della Malinconia & Allegrezza
Claudio Monteverdi
08. Damigella tutta bella - O Rosetta, che rosetta
Salamon Rossi (1570-c.1628)
09. Sonata a 2 dialogo
Claudio Monteverdi
10. A quest’olmo
Tarquinio Merula (1594/95-1665)
11. Ciacona
Orazio Vecchi
12. Sia maledetto Amore..
Giovanni Giacomo Gastoldi (c.1550-1609)
13. L’innamorato - Il bell’humore - Amor vittorioso
Pietro Antonio Giramo (b.1619-af.1630)
14. Festa, riso, gioco, e gioia
CD 86: His Majesty's Harper: Dowland · Byrd · MacDermott
John Dowland (1563-1626)
01. A Fancy
02. My Lady Hunsdons Puffe
William Byrd (1543-1623)
03. Alman
John Dowland
04. Frogg Galliard
Anonymus (1599)
05. Scott's Lament
John Dowland
06. Pavanna Lacrima
07. Suzanna Galliard
William Byrd/John Dowland
08. Rowland
John Dowland
09. Can Shee Excuse
10. Robin
William Byrd
11. Praeludium to ye Fancie
12. Fantasia
13. Coranto
14. A Gigg
John Dowland
15. Tarletons Jigge
16. Mrs Winters Jumpp
17. Tarletones Riserrectione
Connack MacDermott (d.1618)
18. Cormacke
19. Allmane
20. Mr. Corrnake Allman
21. Schoc.a.torum Cormake
Jean le Flelle (fl.1629-1642)
22. The Queens Maske
John Dowland
23. Fine Knacks For Ladies
24. Awake, Sweet Love, Thou Art Returnd
25. Go Christall Teares
26. My Thoughts Are Wingd With Hopes
27. Semper Dowland Semper Dolens
28. Farwell
29. My Dear Adieu, My Sweet Love Farewell
CD 87: Barroco Español Vol. 1 - Mas no puede ser
01. Anonymous - Canción a dos tiples
02. Antonio de Literes (1673-1747) - Ah del rustico pastor
03. Cristobal Galan (ca.1630-1684) - Al espejo que retrata
04. Cristobal Galan - Humano ardor
05. Jose de Torres (ca. 1670-1738) - Más no puede ser
06. Jose de Torres - Al clamor
07. Anonymous - Pasacalles I-II
08. Francisco Valls (1665-1747) - En un noble, sagrado firmamento
09. Juan Frances de Iribarren (1698-1767) - Quién nos dirá de una flor
10. Juan Frances de Iribarren - Viendo que Jil, hizo raya
CD 88: Mediterraneum
01. Tre Fontane (Anonymous, Italy, 14th Century)
02. Oi Yano, Yano (Traditional Trace)
03. Jalla Mân (Traditional Arab, "Andalusian School")
04. Firassu In Si B
05. Quannu Passu (Traditional Sicily, Corpus Farava 441)
06. Son Tre Corone (Anonymous, Italy, Toscana)
07. Saltarello (Anonymous, Italy, 14th Century)
08. Laudemus Virginem / Bektashi Nefes (Libre Vermell De Montserrat, 14th Century, Spain)
09. Stella Splendens (Libre Vermell De Montserrat, 14th Century, Spain)
10. Isabella (Anonymous, Italy, 14th Century)
11. Osman Paša (Traditional Ottoman)
12. Mey Balaban Taksim
13. Mevlana (Traditional Sulfi Hymn)
14. Nani, Nani, Nani (Sephardic Lullaby, Turkey / Greece)
15. Non Sofre Santa Maria (13th Century, Spain)
CD 89: Music at the court of Louis XIV
Marin Marais (1656-1728)
Sonate à la Maresienne in C major
01. I. Un Peu Grave
02. II. Légerement
03. III. Un Peu Gay
04. IV. Sarabande
05. V. Vivement
06. VI. Gravement
07. VII. Gigue
08. Ballet En Rondeau In D Minor
Robert de Visée (c.1650-1720)
09. Tombeau Du Vieux Gallot
10. La Montfermell Rondeau
11. Gigue
Jacques Morel (c.1700-1740)
12. Chaconne In G Major
Jacques Hotteterre (1674-1763)
13. Air Et Double-tendrement
14. Prélude In G Minor, Op. 8 No. 2
Robert de Visée
15. Les Silvains De Mr Couperin
Marin Marais
16. Tombeau Pour Mr De Ste Colombe
Michel Blavet (1700-1768)
Sonata in G minor, Op.2 No.3
17. I. Adagio
18. II. Allegro Ma Non Presto
19. III. Gavotte I-II
20. VI. Allegro
21. V. Giga
CD 90: Music at the Salzburg court 1587–1612
Leone Leoni (c.1560-1627)
01. Angelus Domini
Orazio Vecchi (1550-1605)
02. Pange Lingua
Agostino Agazzari (1578-1640)
03. Super Flumina Babylonis
Johann Stadlmayr (c.1575-1648)
04. Magnificat Quarti Toni a 8
Leone Leoni
05. Vide Domine
Orazio Vecchi
06. Salvete Flores
Leone Leoni
07. Nigra sum
Tiburtio Massaini (b.1550-af.1609)
08. Sicut Cedrus - In Plateis
Johann Stadlmayr
09. Magnificat primi toni a 8
CD 91: Musik in Sanssouci - CPE Bach · Quantz · Friedrich II · Benda
Friedrich der Große (1712-1786)
Sonata in E minor
01. I. Grave
02. II. Allegro assai
03. III. Presto
Carl Philipp Emanuel Bach (1714-1788)
Sonata in D major
04. I. Allegro un poco
05. II. Largo
06. III. Allegro
Georg Benda (1722-1795)
Sonata in G major
07. I. Allegro moderato
08. II. Andantino
09. III. Allegro
Johann Joachim Quantz (1697-1773)
Sonata in A minor
10. I. Adagio
11. II. Presto
12. III. Gigue
CD 92: Music of the Tudor - Taverner · Parsley · Sheppard
Anonym
01. Kyrie "Orbis Factor" (cum Veribus)
John Taverner (c.149-1545)
02. I. Gloria
03. II. Credo
04. III. Sanctus und Benedictus
05. IV. Agnus Dei
Osbert Parsley (1511-1585)
06. Lamentationes for 5 voices
John Sheppard (c.1520-c.1563)
"Playnsong Mass for a Meane"
07. I. Kyrie
08. II. Gloria
09. III. Credo
10. IV. Sanctus Und Benedictus
11. V. Agnus Dei
CD 93: Musique à Versailles - Marais · Anglebert · Forqueray
Marin Marais (1656-1728)
01. La Sonnerie de Sainte Genevieve
Jean Henry a'Anglebert (1629-1691)
02. Prélude in D minor
Marin Marais
03. Tombeau pour Mr. de Sainte-Colombe
Antoine Forqueray (1672-1745)
Suite V in C minor
04. La Rameau
05. La Guignon
06. La Léon
07. La Boisson
08. La Montigni
09. La Sylva
10. Jupiter
CD 94: Barroco Español Vol. 3 - Quando muere el sol
01. Miserere mei Deus - Amplius lavame
02. Quoniam iniquitatem - Tibi soli peccavi
03. Ecce enim in iniquitatibus - Ecce enim veritatem - Asperges me
04. Auditui meo - Averte faciem tuam - Cor mundum crea
05. Redde mihi-Docebo - Libera me
06. Domine labia mea aperies - Quoniam si voluisses - Sacrificium Deo - Benigne fac Domine - Tunc acceptabis
07. Juan De Navas - Tono de Miserere: "Si mis hierros os tienen pendiente"
08. Lamentación segunda, del Jueves Santo
09. Sebastián Durón - Tono a la Pasión de Christo: "Quando muere el Sol"
10. Sebastián Durón - Lamentación segunda, del Viernes Santo
CD 95: Sappho and her time
01. Téttix
02. Psaphródita
03. Bíos
04. Kýthera
05. Naí
06. Kleis
07. Pýr
08. Phýlla
09. Manía
10. O Tékos
11. Kálamos
12. Lýkos
13. Órigmos
14. Melíttta
15. Makróteros
16. Théognis
17. Diálogos II
18. Dóra
19. Kroúsis
20. Ónar
21. Pollá
CD 96: Tinto: Murcia · Y Coll · Corbetta · Kapsberger
Santiago de Murcia (1685?-1732?)
01. Cumbees
Antonio Martín Y Coll (?-ca.1734)
02. Diferencias Sobre Las Folias
Francesco Corbetta (1615-1681)
03. Sinfonia
Angelo Notari (1566-1663)
04. Passeggiata
Francesco Corbetta
05. Prélude
06. Allemande
07. Sarabande
08. Passecaiglia
09. Menuet
Santiago de Murcia
10. La Jota
Girolamo Kapsberger (1580-1651)
11. Arpeggiata
12. Toccata
13. Volte
14. Ballo
15. Gagliarda
16. Corrente
17. Capona
18. Kapsberger
19. Canarios
20. Colascione
21. Villa di Spagna
Bartolomeo de Selma Y Salaverde (?-c.1640)
22. Susane ung jour
Santiago de Murcia
23. Xacaras
CD 97: Viaggio Italiano
Giovanni Benedetto Platti (1697?-1763)
Sonata in E major (WD 698,6)
01. I. Adagio
02. II. Allegro
03. III. Siciliana
04. IV. Allegro
Ermengildo Abbate del Cinque (1690?-1773)
Sonata in E minor (WD 533)
05. I. Largo
06. II. Allegro
07. III. Largo Risoluto
08. IV. Spiritoso
Gennaro Romanelli (first halt of the 18th cent.)
Sonata in A major (WD 735)
09. I. Largo
10. II. Allegro
11. III. Largo
12. IV. Allegro
Antonio Vivaldi (1678-1741)
Sonata in A minor, RV 44 (WD 532)
13. I. Adagio
14. II. Andante molto
15. III. Largo
16. IV. Giga
Giuseppe Antonio Paganelli (1710-1764)
Sonata in A minor (WD 897,8)
17. I. Largo
18. II. Allegro
19. III. Adagio
20. IV. Giga
Gerolamo Bassani (first halt of the 18th cent.)
Sonata in F major (WD 422)
21. I. Adagio
22. II. Allegro
23. III. Largo
24. IV. Allegro
Ermengildo Abbate del Cinque
Sonata in C minor (WD 534)
25. I. Larghetto
26. II. Vivace
27. III. Largo e Sostenuto
28. IV. Risoluto
Giovanni Benedetto Platti
Trio in B-flat major (WD 688)
29. I. Largo
30. II. Allegro
31. III. Grave
32. IV. Allegro
CD 98-99: Renaissance Christmas Music: Altdeutsche Weihnacht
Johannes Eccard (1553-1611)
01. Übers Gebirg Maria geht
Johann Walter (1496-1570)
02. Gelobet seist du, Jesu Christ
Andreas Reussner (c.1660)
03. Uns ist ein Kindlein heut geborn
Adam Gumpelzhaimer (1559-1625)
04. Vom Himmel hoch da komm ich her
Arnolt Schlick (c1455-c1525)
05. Maria zart
Michael Praetorius (1571-1621)
06. In dulci jubilo
Bartholomaus Gesius (c 1560-1613)
07. Christum wir sollen loben schon
08. Ein Kind geborn zu Bethlehem
Michael PRAETORIUS
09. Es ist ein Ros entsprungen
CD 99:
Erhard Bodenschatz (1576-1636)
01. Joseph, lieber Joseph mein
Orlando di Lasso (1532-1594)
02. Angelus ad pastores ait
03. Resonet in laudibus
Jacob Handl (Gallus) (1550-1591)
04. Omnes de saba venient
Johannes Eccard (1553-1611)
05. Ich steh an diener Krippe hier
Samuel Scheidt (1587-1654)
06. O jesulein zart
Alpine Christmas Carols
07. Jetz fangen wir sum Singen an (Salzburg)
08. Felsenharte Bethlehemiten (Munich)
09. Auf, auf! Ihr Hirten in dem Feld
10. Das allerschönst Kindl (Chiemgau)
11. Das himmlische Tor (Tirol)
12. Still, o Himmel! (Chiemgau)
13. Dort oben am Berge, da wehet der Wind
14. Wir wollen dankbar sein (Salzburg)
CD 100: Johann Schelle - Actus Musicus auf Weyh-Nachten
01. Vom Himmel kam der Engel Schar
02. Nun komm der Heiden Heiland
03. Uns ist ein Kind geboren
04. Ach mein herzliebes Jesulein
05. Machet die Tore weit
Actus Musicus auf Weyh-Nachten
06. Prima Pars
07. Secunda Pars
08. Tertia Pars



Exact Audio Copy V1.5 from 20. February 2020

EAC extraction logfile from 29. October 2020, 1:37

Mechthild Bach, Mechthild Georg, Hans Peter Blochwitz, Johannes Mannov / DHM - 100 Great Recordings (CD76) Telemann - Die Tageszeiten

Used drive : ATAPI iHAS124 F Adapter: 1 ID: 0

Read mode : Secure
Utilize accurate stream : Yes
Defeat audio cache : Yes
Make use of C2 pointers : No

Read offset correction : 6
Overread into Lead-In and Lead-Out : No
Fill up missing offset samples with silence : Yes
Delete leading and trailing silent blocks : No
Null samples used in CRC calculations : Yes
Used interface : Native Win32 interface for Win NT & 2000

Used output format : User Defined Encoder
Selected bitrate : 1024 kBit/s
Quality : High
Add ID3 tag : No
Command line compressor : C:\Program Files (x86)\Exact Audio Copy\FLAC\FLAC.EXE
Additional command line options : -6 -V -T "ARTIST=%artist%" -T "TITLE=%title%" -T "ALBUM=%albumtitle%" -T "DATE=%year%" -T "TRACKNUMBER=%tracknr%" -T "GENRE=%genre%" -T "COMMENT=%comment%" -T "BAND=%albuminterpret%" -T "ALBUMARTIST=%albuminterpret%" -T "COMPOSER=%composer%" %haslyrics%–tag-from-file=LYRICS="%lyricsfile%"%haslyrics% -T "DISCNUMBER=%cdnumber%" -T "TOTALDISCS=%totalcds%" -T "TOTALTRACKS=%numtracks%" %hascover%–picture="%coverfile%"%hascover% %source% -o %dest%


TOC of the extracted CD

Track | Start | Length | Start sector | End sector
––––––––––––––––––––––––––––-
1 | 0:00.38 | 7:13.27 | 38 | 32539
2 | 7:13.65 | 2:55.43 | 32540 | 45707
3 | 10:09.33 | 1:39.65 | 45708 | 53197
4 | 11:49.23 | 2:51.25 | 53198 | 66047
5 | 14:40.48 | 1:22.07 | 66048 | 72204
6 | 16:02.55 | 5:04.53 | 72205 | 95057
7 | 21:07.33 | 1:54.27 | 95058 | 103634
8 | 23:01.60 | 3:38.18 | 103635 | 120002
9 | 26:40.03 | 1:18.27 | 120003 | 125879
10 | 27:58.30 | 5:32.50 | 125880 | 150829
11 | 33:31.05 | 1:01.33 | 150830 | 155437
12 | 34:32.38 | 5:16.42 | 155438 | 179179
13 | 39:49.05 | 1:20.68 | 179180 | 185247
14 | 41:09.73 | 5:35.47 | 185248 | 210419
15 | 46:45.45 | 2:06.43 | 210420 | 219912
16 | 48:52.13 | 3:17.55 | 219913 | 234742
17 | 52:09.68 | 1:36.45 | 234743 | 241987


Range status and errors

Selected range

Filename C:\EACRip\DHM - 100 GREAT RECORDINGS (100CDs, DHM) (2017)\CD-076 - Telemann - Die Tageszeiten\DHM - 100 Great Recordings (CD76) Telemann - Die Tageszeiten - Collegium Musicum Freiburg.wav

Peak level 92.6 %
Extraction speed 8.0 X
Range quality 100.0 %
Test CRC C54C342D
Copy CRC C54C342D
Copy OK

No errors occurred


AccurateRip summary

Track 1 accurately ripped (confidence 14) [96B2143C] (AR v2)
Track 2 accurately ripped (confidence 14) [08C324C6] (AR v2)
Track 3 accurately ripped (confidence 14) [20C878B9] (AR v2)
Track 4 accurately ripped (confidence 14) [C0C72B5A] (AR v2)
Track 5 accurately ripped (confidence 14) [2D127434] (AR v2)
Track 6 accurately ripped (confidence 14) [6A44C27B] (AR v2)
Track 7 accurately ripped (confidence 14) [67F091A5] (AR v2)
Track 8 accurately ripped (confidence 14) [DF30D690] (AR v2)
Track 9 accurately ripped (confidence 14) [A08DFD30] (AR v2)
Track 10 accurately ripped (confidence 14) [8D949C8F] (AR v2)
Track 11 accurately ripped (confidence 14) [0A125294] (AR v2)
Track 12 accurately ripped (confidence 14) [156888D7] (AR v2)
Track 13 accurately ripped (confidence 14) [002BE234] (AR v2)
Track 14 accurately ripped (confidence 14) [286F0571] (AR v2)
Track 15 accurately ripped (confidence 14) [946DB66F] (AR v2)
Track 16 accurately ripped (confidence 14) [B0096FDA] (AR v2)
Track 17 accurately ripped (confidence 14) [5118BD0F] (AR v2)

All tracks accurately ripped

End of status report

–– CUETools DB Plugin V2.1.6

[CTDB TOCID: KW8jwVBbliWXDZdfinlCzJFel5I-] found
Submit result: KW8jwVBbliWXDZdfinlCzJFel5I- has been confirmed, KW8jwVBbliWXDZdfinlCzJFel5I- has been confirmed
Track | CTDB Status
1 | (195/197) Accurately ripped
2 | (195/197) Accurately ripped
3 | (195/197) Accurately ripped
4 | (196/197) Accurately ripped
5 | (195/197) Accurately ripped
6 | (194/197) Accurately ripped
7 | (195/197) Accurately ripped
8 | (194/197) Accurately ripped
9 | (195/197) Accurately ripped
10 | (194/197) Accurately ripped
11 | (194/197) Accurately ripped
12 | (193/197) Accurately ripped
13 | (193/197) Accurately ripped
14 | (193/197) Accurately ripped
15 | (193/197) Accurately ripped
16 | (193/197) Accurately ripped
17 | (193/197) Accurately ripped


==== Log checksum CBE843FF9E5CF7BBCF97D895A1457E149AE51CF2AA4543EBC2D3C38F2D093095 ====


Exact Audio Copy V1.5 from 20. February 2020

EAC extraction logfile from 29. October 2020, 2:16

Andrew Lawrence-King / DHM - 100 Great Recordings (CD77) La púrpura de rosa (1)

Used drive : ATAPI iHAS124 F Adapter: 1 ID: 0

Read mode : Secure
Utilize accurate stream : Yes
Defeat audio cache : Yes
Make use of C2 pointers : No

Read offset correction : 6
Overread into Lead-In and Lead-Out : No
Fill up missing offset samples with silence : Yes
Delete leading and trailing silent blocks : No
Null samples used in CRC calculations : Yes
Used interface : Native Win32 interface for Win NT & 2000

Used output format : User Defined Encoder
Selected bitrate : 1024 kBit/s
Quality : High
Add ID3 tag : No
Command line compressor : C:\Program Files (x86)\Exact Audio Copy\FLAC\FLAC.EXE
Additional command line options : -6 -V -T "ARTIST=%artist%" -T "TITLE=%title%" -T "ALBUM=%albumtitle%" -T "DATE=%year%" -T "TRACKNUMBER=%tracknr%" -T "GENRE=%genre%" -T "COMMENT=%comment%" -T "BAND=%albuminterpret%" -T "ALBUMARTIST=%albuminterpret%" -T "COMPOSER=%composer%" %haslyrics%–tag-from-file=LYRICS="%lyricsfile%"%haslyrics% -T "DISCNUMBER=%cdnumber%" -T "TOTALDISCS=%totalcds%" -T "TOTALTRACKS=%numtracks%" %hascover%–picture="%coverfile%"%hascover% %source% -o %dest%


TOC of the extracted CD

Track | Start | Length | Start sector | End sector
––––––––––––––––––––––––––––-
1 | 0:00.00 | 3:42.20 | 0 | 16669
2 | 3:42.20 | 1:13.26 | 16670 | 22170
3 | 4:55.46 | 6:09.61 | 22171 | 49906
4 | 11:05.32 | 2:23.33 | 49907 | 60664
5 | 13:28.65 | 2:53.19 | 60665 | 73658
6 | 16:22.09 | 3:20.35 | 73659 | 88693
7 | 19:42.44 | 1:51.70 | 88694 | 97088
8 | 21:34.39 | 1:56.08 | 97089 | 105796
9 | 23:30.47 | 1:31.26 | 105797 | 112647
10 | 25:01.73 | 1:15.25 | 112648 | 118297
11 | 26:17.23 | 1:42.72 | 118298 | 126019
12 | 28:00.20 | 2:31.53 | 126020 | 137397
13 | 30:31.73 | 6:15.50 | 137398 | 165572
14 | 36:47.48 | 3:11.67 | 165573 | 179964
15 | 39:59.40 | 3:28.69 | 179965 | 195633
16 | 43:28.34 | 1:14.51 | 195634 | 201234
17 | 44:43.10 | 1:39.65 | 201235 | 208724
18 | 46:23.00 | 1:47.15 | 208725 | 216764
19 | 48:10.15 | 0:56.28 | 216765 | 220992
20 | 49:06.43 | 2:38.43 | 220993 | 232885
21 | 51:45.11 | 2:38.27 | 232886 | 244762
22 | 54:23.38 | 1:55.15 | 244763 | 253402
23 | 56:18.53 | 1:27.66 | 253403 | 259993
24 | 57:46.44 | 1:50.48 | 259994 | 268291
25 | 59:37.17 | 1:17.37 | 268292 | 274103
26 | 60:54.54 | 1:32.17 | 274104 | 281020
27 | 62:26.71 | 3:34.63 | 281021 | 297133


Range status and errors

Selected range

Filename C:\EACRip\DHM - 100 GREAT RECORDINGS (100CDs, DHM) (2017)\CD-077 - La purpura de la rosa (1)\DHM - 100 Great Recordings (CD77) La purpura de rosa (1) - Andrew Lawrence-King.wav

Peak level 96.7 %
Extraction speed 8.5 X
Range quality 99.9 %
Test CRC 68744CA9
Copy CRC 68744CA9
Copy OK

No errors occurred


AccurateRip summary

Track 1 accurately ripped (confidence 12) [8D446BFC] (AR v2)
Track 2 accurately ripped (confidence 12) [8168C2C8] (AR v2)
Track 3 accurately ripped (confidence 12) [699DCBEB] (AR v2)
Track 4 accurately ripped (confidence 12) [463C6A19] (AR v2)
Track 5 accurately ripped (confidence 12) [A4460334] (AR v2)
Track 6 accurately ripped (confidence 12) [B6C2B163] (AR v2)
Track 7 accurately ripped (confidence 12) [2EB4A53D] (AR v2)
Track 8 accurately ripped (confidence 12) [B5FECCA3] (AR v2)
Track 9 accurately ripped (confidence 12) [E1598031] (AR v2)
Track 10 accurately ripped (confidence 12) [3AD1FF46] (AR v2)
Track 11 accurately ripped (confidence 12) [E4A43A9D] (AR v2)
Track 12 accurately ripped (confidence 12) [994CBC07] (AR v2)
Track 13 accurately ripped (confidence 12) [D0217C0D] (AR v2)
Track 14 accurately ripped (confidence 12) [BE156C15] (AR v2)
Track 15 accurately ripped (confidence 12) [08B113F6] (AR v2)
Track 16 accurately ripped (confidence 12) [DE557023] (AR v2)
Track 17 accurately ripped (confidence 12) [FF0C8821] (AR v2)
Track 18 accurately ripped (confidence 12) [BB21221D] (AR v2)
Track 19 accurately ripped (confidence 12) [ACE7FABE] (AR v2)
Track 20 accurately ripped (confidence 12) [1A2D4908] (AR v2)
Track 21 accurately ripped (confidence 12) [25FC5CE5] (AR v2)
Track 22 accurately ripped (confidence 12) [9F43B961] (AR v2)
Track 23 accurately ripped (confidence 12) [298D2032] (AR v2)
Track 24 accurately ripped (confidence 12) [7F1827D0] (AR v2)
Track 25 accurately ripped (confidence 12) [C0D6E370] (AR v2)
Track 26 accurately ripped (confidence 12) [5AC1A713] (AR v2)
Track 27 accurately ripped (confidence 12) [6B2A914F] (AR v2)

All tracks accurately ripped

End of status report

–– CUETools DB Plugin V2.1.6

[CTDB TOCID: Y6moW__nsvnQACbjidArc55neNA-] found
Submit result: Y6moW__nsvnQACbjidArc55neNA- has been confirmed
Track | CTDB Status
1 | (64/64) Accurately ripped
2 | (64/64) Accurately ripped
3 | (64/64) Accurately ripped
4 | (64/64) Accurately ripped
5 | (64/64) Accurately ripped
6 | (64/64) Accurately ripped
7 | (64/64) Accurately ripped
8 | (64/64) Accurately ripped
9 | (64/64) Accurately ripped
10 | (64/64) Accurately ripped
11 | (64/64) Accurately ripped
12 | (64/64) Accurately ripped
13 | (64/64) Accurately ripped
14 | (64/64) Accurately ripped
15 | (64/64) Accurately ripped
16 | (64/64) Accurately ripped
17 | (64/64) Accurately ripped
18 | (64/64) Accurately ripped
19 | (64/64) Accurately ripped
20 | (64/64) Accurately ripped
21 | (64/64) Accurately ripped
22 | (64/64) Accurately ripped
23 | (64/64) Accurately ripped
24 | (64/64) Accurately ripped
25 | (64/64) Accurately ripped
26 | (64/64) Accurately ripped
27 | (64/64) Accurately ripped


==== Log checksum 40A434587281B033DDDC6B14FA1C6907B10336FBE89A15571753853BFACEE742 ====


Exact Audio Copy V1.5 from 20. February 2020

EAC extraction logfile from 29. October 2020, 13:56

Andrew Lawrence-King / DHM - 100 Great Recordings (CD78) La púrpura de rosa (2)

Used drive : ATAPI iHAS124 F Adapter: 1 ID: 0

Read mode : Secure
Utilize accurate stream : Yes
Defeat audio cache : Yes
Make use of C2 pointers : No

Read offset correction : 6
Overread into Lead-In and Lead-Out : No
Fill up missing offset samples with silence : Yes
Delete leading and trailing silent blocks : No
Null samples used in CRC calculations : Yes
Used interface : Native Win32 interface for Win NT & 2000

Used output format : User Defined Encoder
Selected bitrate : 1024 kBit/s
Quality : High
Add ID3 tag : No
Command line compressor : C:\Program Files (x86)\Exact Audio Copy\FLAC\FLAC.EXE
Additional command line options : -6 -V -T "ARTIST=%artist%" -T "TITLE=%title%" -T "ALBUM=%albumtitle%" -T "DATE=%year%" -T "TRACKNUMBER=%tracknr%" -T "GENRE=%genre%" -T "COMMENT=%comment%" -T "BAND=%albuminterpret%" -T "ALBUMARTIST=%albuminterpret%" -T "COMPOSER=%composer%" %haslyrics%–tag-from-file=LYRICS="%lyricsfile%"%haslyrics% -T "DISCNUMBER=%cdnumber%" -T "TOTALDISCS=%totalcds%" -T "TOTALTRACKS=%numtracks%" %hascover%–picture="%coverfile%"%hascover% %source% -o %dest%


TOC of the extracted CD

Track | Start | Length | Start sector | End sector
––––––––––––––––––––––––––––-
1 | 0:00.00 | 2:52.28 | 0 | 12927
2 | 2:52.28 | 0:56.33 | 12928 | 17160
3 | 3:48.61 | 2:05.32 | 17161 | 26567
4 | 5:54.18 | 2:37.55 | 26568 | 38397
5 | 8:31.73 | 2:10.66 | 38398 | 48213
6 | 10:42.64 | 4:43.19 | 48214 | 69457
7 | 15:26.08 | 3:28.19 | 69458 | 85076
8 | 18:54.27 | 1:37.74 | 85077 | 92425
9 | 20:32.26 | 3:30.31 | 92426 | 108206
10 | 24:02.57 | 2:51.20 | 108207 | 121051
11 | 26:54.02 | 1:49.70 | 121052 | 129296
12 | 28:43.72 | 6:46.17 | 129297 | 159763
13 | 35:30.14 | 9:53.51 | 159764 | 204289
14 | 45:23.65 | 2:20.31 | 204290 | 214820
15 | 47:44.21 | 2:16.29 | 214821 | 225049
16 | 50:00.50 | 2:27.41 | 225050 | 236115
17 | 52:28.16 | 1:13.46 | 236116 | 241636
18 | 53:41.62 | 3:17.01 | 241637 | 256412
19 | 56:58.63 | 0:53.27 | 256413 | 260414
20 | 57:52.15 | 1:20.21 | 260415 | 266435
21 | 59:12.36 | 1:52.71 | 266436 | 274906
22 | 61:05.32 | 0:31.68 | 274907 | 277299
23 | 61:37.25 | 0:51.17 | 277300 | 281141
24 | 62:28.42 | 3:55.30 | 281142 | 298796
25 | 66:23.72 | 4:21.71 | 298797 | 318442


Range status and errors

Selected range

Filename C:\EACRip\DHM - 100 GREAT RECORDINGS (100CDs, DHM) (2017)\CD-078 - La purpura de la rosa (2)\DHM - 100 Great Recordings (CD78) La purpura de rosa (2) - Andrew Lawrence-King.wav

Peak level 98.8 %
Extraction speed 9.0 X
Range quality 100.0 %
Test CRC ABA5B8BF
Copy CRC ABA5B8BF
Copy OK

No errors occurred


AccurateRip summary

Track 1 accurately ripped (confidence 11) [B3D65752] (AR v2)
Track 2 accurately ripped (confidence 11) [25EE6227] (AR v2)
Track 3 accurately ripped (confidence 11) [AA469527] (AR v2)
Track 4 accurately ripped (confidence 11) [724754D9] (AR v2)
Track 5 accurately ripped (confidence 11) [8D8045F6] (AR v2)
Track 6 accurately ripped (confidence 11) [AEFCA28A] (AR v2)
Track 7 accurately ripped (confidence 11) [842AD96F] (AR v2)
Track 8 accurately ripped (confidence 11) [72DA597D] (AR v2)
Track 9 accurately ripped (confidence 11) [F9E58170] (AR v2)
Track 10 accurately ripped (confidence 11) [368AD5EF] (AR v2)
Track 11 accurately ripped (confidence 11) [705B6527] (AR v2)
Track 12 accurately ripped (confidence 11) [6AE71313] (AR v2)
Track 13 accurately ripped (confidence 11) [EBC240B4] (AR v2)
Track 14 accurately ripped (confidence 11) [AF34EEBE] (AR v2)
Track 15 accurately ripped (confidence 11) [F33066FB] (AR v2)
Track 16 accurately ripped (confidence 11) [A058B25A] (AR v2)
Track 17 accurately ripped (confidence 11) [C159CE20] (AR v2)
Track 18 accurately ripped (confidence 11) [E841CB6B] (AR v2)
Track 19 accurately ripped (confidence 11) [A0DF2CAC] (AR v2)
Track 20 accurately ripped (confidence 11) [CABCCB25] (AR v2)
Track 21 accurately ripped (confidence 11) [51CBEAD9] (AR v2)
Track 22 accurately ripped (confidence 11) [6620067D] (AR v2)
Track 23 accurately ripped (confidence 11) [9F9B52B3] (AR v2)
Track 24 accurately ripped (confidence 11) [C92C4F9A] (AR v2)
Track 25 accurately ripped (confidence 11) [23DC757E] (AR v2)

All tracks accurately ripped

End of status report

–– CUETools DB Plugin V2.1.6

[CTDB TOCID: FCS1dYxCBN..0ENq1wxLvCPCdlk-] found
Submit result: FCS1dYxCBN..0ENq1wxLvCPCdlk- has been confirmed
Track | CTDB Status
1 | (62/62) Accurately ripped
2 | (62/62) Accurately ripped
3 | (62/62) Accurately ripped
4 | (62/62) Accurately ripped
5 | (62/62) Accurately ripped
6 | (62/62) Accurately ripped
7 | (62/62) Accurately ripped
8 | (62/62) Accurately ripped
9 | (62/62) Accurately ripped
10 | (62/62) Accurately ripped
11 | (62/62) Accurately ripped
12 | (62/62) Accurately ripped
13 | (61/62) Accurately ripped
14 | (61/62) Accurately ripped
15 | (61/62) Accurately ripped
16 | (61/62) Accurately ripped
17 | (61/62) Accurately ripped
18 | (61/62) Accurately ripped
19 | (61/62) Accurately ripped
20 | (61/62) Accurately ripped
21 | (61/62) Accurately ripped
22 | (61/62) Accurately ripped
23 | (61/62) Accurately ripped
24 | (61/62) Accurately ripped
25 | (61/62) Accurately ripped


==== Log checksum 379D7E82FABBE758EC365C18D057783E4C06BA3802ED7A16BC905335824D9EB9 ====


Exact Audio Copy V1.5 from 20. February 2020

EAC extraction logfile from 29. October 2020, 19:52

Marta Almajano / DHM - 100 Great Recordings (CD79) Joseph de Torres - Solo Cantatas

Used drive : ATAPI iHAS124 F Adapter: 1 ID: 0

Read mode : Secure
Utilize accurate stream : Yes
Defeat audio cache : Yes
Make use of C2 pointers : No

Read offset correction : 6
Overread into Lead-In and Lead-Out : No
Fill up missing offset samples with silence : Yes
Delete leading and trailing silent blocks : No
Null samples used in CRC calculations : Yes
Used interface : Native Win32 interface for Win NT & 2000

Used output format : User Defined Encoder
Selected bitrate : 1024 kBit/s
Quality : High
Add ID3 tag : No
Command line compressor : C:\Program Files (x86)\Exact Audio Copy\FLAC\FLAC.EXE
Additional command line options : -6 -V -T "ARTIST=%artist%" -T "TITLE=%title%" -T "ALBUM=%albumtitle%" -T "DATE=%year%" -T "TRACKNUMBER=%tracknr%" -T "GENRE=%genre%" -T "COMMENT=%comment%" -T "BAND=%albuminterpret%" -T "ALBUMARTIST=%albuminterpret%" -T "COMPOSER=%composer%" %haslyrics%–tag-from-file=LYRICS="%lyricsfile%"%haslyrics% -T "DISCNUMBER=%cdnumber%" -T "TOTALDISCS=%totalcds%" -T "TOTALTRACKS=%numtracks%" %hascover%–picture="%coverfile%"%hascover% %source% -o %dest%


TOC of the extracted CD

Track | Start | Length | Start sector | End sector
––––––––––––––––––––––––––––-
1 | 0:00.00 | 2:17.25 | 0 | 10299
2 | 2:17.25 | 0:22.70 | 10300 | 12019
3 | 2:40.20 | 2:22.27 | 12020 | 22696
4 | 5:02.47 | 0:40.25 | 22697 | 25721
5 | 5:42.72 | 5:19.30 | 25722 | 49676
6 | 11:02.27 | 0:15.15 | 49677 | 50816
7 | 11:17.42 | 1:35.48 | 50817 | 57989
8 | 12:53.15 | 3:52.45 | 57990 | 75434
9 | 16:45.60 | 0:43.17 | 75435 | 78676
10 | 17:29.02 | 1:04.15 | 78677 | 83491
11 | 18:33.17 | 3:17.10 | 83492 | 98276
12 | 21:50.27 | 0:17.38 | 98277 | 99589
13 | 22:07.65 | 1:49.67 | 99590 | 107831
14 | 23:57.57 | 1:17.15 | 107832 | 113621
15 | 25:14.72 | 1:52.45 | 113622 | 122066
16 | 27:07.42 | 1:34.35 | 122067 | 129151
17 | 28:42.02 | 1:20.08 | 129152 | 135159
18 | 30:02.10 | 1:04.30 | 135160 | 139989
19 | 31:06.40 | 0:55.07 | 139990 | 144121
20 | 32:01.47 | 3:09.00 | 144122 | 158296
21 | 35:10.47 | 0:27.23 | 158297 | 160344
22 | 35:37.70 | 2:23.02 | 160345 | 171071
23 | 38:00.72 | 2:24.30 | 171072 | 181901
24 | 40:25.27 | 1:15.23 | 181902 | 187549
25 | 41:40.50 | 0:19.65 | 187550 | 189039
26 | 42:00.40 | 2:35.40 | 189040 | 200704
27 | 44:36.05 | 1:44.30 | 200705 | 208534
28 | 46:20.35 | 2:46.45 | 208535 | 221029
29 | 49:07.05 | 1:05.62 | 221030 | 225966
30 | 50:12.67 | 3:11.68 | 225967 | 240359
31 | 53:24.60 | 0:54.50 | 240360 | 244459
32 | 54:19.35 | 2:03.00 | 244460 | 253684


Range status and errors

Selected range

Filename C:\EACRip\DHM - 100 GREAT RECORDINGS (100CDs, DHM) (2017)\CD-079 - Jose de Torres - Cantatas\DHM - 100 Great Recordings (CD79) Joseph de Torres - Solo Cantatas - Eduardo Lopez Banzo.wav

Peak level 98.1 %
Extraction speed 8.1 X
Range quality 100.0 %
Test CRC EAE4AA7B
Copy CRC EAE4AA7B
Copy OK

No errors occurred


AccurateRip summary

Track 1 accurately ripped (confidence 13) [BCB89F7B] (AR v2)
Track 2 accurately ripped (confidence 13) [8DAF89AF] (AR v2)
Track 3 accurately ripped (confidence 13) [A2A551C7] (AR v2)
Track 4 accurately ripped (confidence 13) [779EA026] (AR v2)
Track 5 accurately ripped (confidence 13) [1335E639] (AR v2)
Track 6 accurately ripped (confidence 13) [5AB45816] (AR v2)
Track 7 accurately ripped (confidence 13) [6EE6CD84] (AR v2)
Track 8 accurately ripped (confidence 13) [D1163B27] (AR v2)
Track 9 accurately ripped (confidence 13) [EC6F32F3] (AR v2)
Track 10 accurately ripped (confidence 13) [099DD878] (AR v2)
Track 11 accurately ripped (confidence 13) [B3AF34CE] (AR v2)
Track 12 accurately ripped (confidence 13) [5C3FE398] (AR v2)
Track 13 accurately ripped (confidence 13) [100AC14B] (AR v2)
Track 14 accurately ripped (confidence 13) [B87005F0] (AR v2)
Track 15 accurately ripped (confidence 13) [B000B21F] (AR v2)
Track 16 accurately ripped (confidence 13) [1F8984DD] (AR v2)
Track 17 accurately ripped (confidence 13) [EB19BBD6] (AR v2)
Track 18 accurately ripped (confidence 13) [68DB7AE1] (AR v2)
Track 19 accurately ripped (confidence 13) [79A8E2B3] (AR v2)
Track 20 accurately ripped (confidence 13) [C465EC70] (AR v2)
Track 21 accurately ripped (confidence 13) [45C453EE] (AR v2)
Track 22 accurately ripped (confidence 13) [D9894429] (AR v2)
Track 23 accurately ripped (confidence 13) [80474B36] (AR v2)
Track 24 accurately ripped (confidence 13) [B7A1C3C5] (AR v2)
Track 25 accurately ripped (confidence 13) [1A0B0EF2] (AR v2)
Track 26 accurately ripped (confidence 13) [A61BEEE2] (AR v2)
Track 27 accurately ripped (confidence 13) [D1B60334] (AR v2)
Track 28 accurately ripped (confidence 13) [781C7035] (AR v2)
Track 29 accurately ripped (confidence 13) [5750FA85] (AR v2)
Track 30 accurately ripped (confidence 13) [3613CE75] (AR v2)
Track 31 accurately ripped (confidence 13) [20020930] (AR v2)
Track 32 accurately ripped (confidence 13) [04140B21] (AR v2)

All tracks accurately ripped

End of status report

–– CUETools DB Plugin V2.1.6

[CTDB TOCID: aq3yyKDbtqryAHqHprcknTHTqms-] found
Submit result: aq3yyKDbtqryAHqHprcknTHTqms- has been confirmed
Track | CTDB Status
1 | (55/55) Accurately ripped
2 | (55/55) Accurately ripped
3 | (55/55) Accurately ripped
4 | (55/55) Accurately ripped
5 | (55/55) Accurately ripped
6 | (55/55) Accurately ripped
7 | (55/55) Accurately ripped
8 | (55/55) Accurately ripped
9 | (55/55) Accurately ripped
10 | (55/55) Accurately ripped
11 | (55/55) Accurately ripped
12 | (55/55) Accurately ripped
13 | (55/55) Accurately ripped
14 | (55/55) Accurately ripped
15 | (55/55) Accurately ripped
16 | (55/55) Accurately ripped
17 | (55/55) Accurately ripped
18 | (55/55) Accurately ripped
19 | (55/55) Accurately ripped
20 | (55/55) Accurately ripped
21 | (55/55) Accurately ripped
22 | (55/55) Accurately ripped
23 | (55/55) Accurately ripped
24 | (55/55) Accurately ripped
25 | (55/55) Accurately ripped
26 | (55/55) Accurately ripped
27 | (55/55) Accurately ripped
28 | (55/55) Accurately ripped
29 | (55/55) Accurately ripped
30 | (55/55) Accurately ripped
31 | (55/55) Accurately ripped
32 | (55/55) Accurately ripped


==== Log checksum 509E4D10FDBE6B39038011CE2940F9F012CD6239EA985AEACB4B1DDBB3329A5E ====


Exact Audio Copy V1.5 from 20. February 2020

EAC extraction logfile from 29. October 2020, 20:30

Gottfried von der Goltz / DHM - 100 Great Recordings (CD80) Zavateri - Concerti (1)

Used drive : ATAPI iHAS124 F Adapter: 1 ID: 0

Read mode : Secure
Utilize accurate stream : Yes
Defeat audio cache : Yes
Make use of C2 pointers : No

Read offset correction : 6
Overread into Lead-In and Lead-Out : No
Fill up missing offset samples with silence : Yes
Delete leading and trailing silent blocks : No
Null samples used in CRC calculations : Yes
Used interface : Native Win32 interface for Win NT & 2000

Used output format : User Defined Encoder
Selected bitrate : 1024 kBit/s
Quality : High
Add ID3 tag : No
Command line compressor : C:\Program Files (x86)\Exact Audio Copy\FLAC\FLAC.EXE
Additional command line options : -6 -V -T "ARTIST=%artist%" -T "TITLE=%title%" -T "ALBUM=%albumtitle%" -T "DATE=%year%" -T "TRACKNUMBER=%tracknr%" -T "GENRE=%genre%" -T "COMMENT=%comment%" -T "BAND=%albuminterpret%" -T "ALBUMARTIST=%albuminterpret%" -T "COMPOSER=%composer%" %haslyrics%–tag-from-file=LYRICS="%lyricsfile%"%haslyrics% -T "DISCNUMBER=%cdnumber%" -T "TOTALDISCS=%totalcds%" -T "TOTALTRACKS=%numtracks%" %hascover%–picture="%coverfile%"%hascover% %source% -o %dest%


TOC of the extracted CD

Track | Start | Length | Start sector | End sector
––––––––––––––––––––––––––––-
1 | 0:00.00 | 4:18.40 | 0 | 19389
2 | 4:18.40 | 5:35.52 | 19390 | 44566
3 | 9:54.17 | 3:10.68 | 44567 | 58884
4 | 13:05.10 | 2:28.15 | 58885 | 69999
5 | 15:33.25 | 2:25.50 | 70000 | 80924
6 | 17:59.00 | 2:31.57 | 80925 | 92306
7 | 20:30.57 | 1:45.30 | 92307 | 100211
8 | 22:16.12 | 5:45.40 | 100212 | 126126
9 | 28:01.52 | 3:30.73 | 126127 | 141949
10 | 31:32.50 | 3:00.35 | 141950 | 155484
11 | 34:33.10 | 3:39.02 | 155485 | 171911
12 | 38:12.12 | 2:47.63 | 171912 | 184499
13 | 41:00.00 | 4:20.12 | 184500 | 204011
14 | 45:20.12 | 2:37.33 | 204012 | 215819
15 | 47:57.45 | 4:08.37 | 215820 | 234456


Range status and errors

Selected range

Filename C:\EACRip\DHM - 100 GREAT RECORDINGS (100CDs, DHM) (2017)\CD-080 - Zavateri - Concerti (1)\DHM - 100 Great Recordings (CD80) Zavateri - Concerti (1) - Freiburger Barockorchester.wav

Peak level 67.5 %
Extraction speed 8.0 X
Range quality 99.9 %
Test CRC EA8CD99E
Copy CRC EA8CD99E
Copy OK

No errors occurred


AccurateRip summary

Track 1 accurately ripped (confidence 13) [86B1B0F4] (AR v2)
Track 2 accurately ripped (confidence 13) [A3356B3E] (AR v2)
Track 3 accurately ripped (confidence 13) [FB9942C2] (AR v2)
Track 4 accurately ripped (confidence 13) [AFA8E5F8] (AR v2)
Track 5 accurately ripped (confidence 13) [96077F48] (AR v2)
Track 6 accurately ripped (confidence 13) [5B7C1E04] (AR v2)
Track 7 accurately ripped (confidence 13) [40DC8A19] (AR v2)
Track 8 accurately ripped (confidence 13) [7AD4E463] (AR v2)
Track 9 accurately ripped (confidence 13) [D9BE068D] (AR v2)
Track 10 accurately ripped (confidence 13) [60C2E93C] (AR v2)
Track 11 accurately ripped (confidence 13) [95DF83B7] (AR v2)
Track 12 accurately ripped (confidence 13) [BEFF56FB] (AR v2)
Track 13 accurately ripped (confidence 13) [95C62964] (AR v2)
Track 14 accurately ripped (confidence 13) [57C7E090] (AR v2)
Track 15 accurately ripped (confidence 13) [8027CC16] (AR v2)

All tracks accurately ripped

End of status report

–– CUETools DB Plugin V2.1.6

[CTDB TOCID: umRrFqPjWOnbHdT5rv4VBxiLSa4-] found
Submit result: umRrFqPjWOnbHdT5rv4VBxiLSa4- has been confirmed
Track | CTDB Status
1 | (146/146) Accurately ripped
2 | (146/146) Accurately ripped
3 | (146/146) Accurately ripped
4 | (146/146) Accurately ripped
5 | (146/146) Accurately ripped
6 | (146/146) Accurately ripped
7 | (146/146) Accurately ripped
8 | (146/146) Accurately ripped
9 | (146/146) Accurately ripped
10 | (146/146) Accurately ripped
11 | (146/146) Accurately ripped
12 | (146/146) Accurately ripped
13 | (146/146) Accurately ripped
14 | (146/146) Accurately ripped
15 | (143/146) Accurately ripped, or (2/146) differs in 1482 samples @04:08:17-04:08:19


==== Log checksum 0CA243316E7D5470EE8466E7FCDD7A5DF036473A3F31493963E74C9A3F874A25 ====


Deutsche Harmonia Mundi - 100 Great Recordings, Part 4 (2017)

Thanks to the original releaser