Subcategories
Tags
Language
Tags

Diana King - Think Like A Girl (1997)

Posted By: popsakov
Diana King - Think Like A Girl (1997)

Diana King - Think Like A Girl (1997)
EAC Rip | FLAC (Img) + Cue + Log ~ 394 Mb | MP3 CBR320 ~ 151 Mb
Full Scans | 00:50:20 | RAR 5% Recovery
Reggae Fusion / Dancehall / Dance-Pop / Urban / Funk / Soul
WORK / Sony Music #OK 67959

Diana King's sophomore outing Think Like a Girl is a well-crafted, diverse set of soul/pop/reggae that merited much more attention it received. The album contains several ultra catchy songs that have hit written all over them, namely the infectious title track and "Wicked." King is also an extremely earnest and sincere singer, and nowhere is that more evident than on the album's 30-second a cappella interlude "Mi Coffee." On some tunes, such as "Love Yourself" and the single "L-L-Lies," King sings in her trademark, powerful reggae style. On others, such as her sexy and breathy remake of Culture Club's classic "Do You Really Want to Hurt Me" and "Find My Way Back," King's performance is more traditional and subdued, yet just as effective. The album did spawn one Top 40 hit with her excellent, driving remake of "I Say a Little Prayer," which also became one of the year's biggest dance hits. Think Like a Girl does tend to wane towards the end, but, overall, this is a surprisingly well-crafted and engaging set, and only hints at what is to come for the talented and extremely photogenic Diana King.

~ Jose F. Promis, All Music

***************

Diana King - Think Like A Girl (1997)

Track List:

01. Think Like A Girl [0:03:04.63]
02. L-L-Lies [0:04:08.13]
03. Do You Really Want To Hurt Me [0:05:06.13]
04. Love Yourself [0:04:43.00]
05. Find My Way Back [0:04:08.73]
06. Mi Coffee [0:00:31.48]
07. Sweeter [0:04:06.73]
08. Supa-Lova-Bwoy [0:03:56.16]
09. Tenderness [0:04:18.29]
10. New Galfriend [0:04:53.19]
11. Wicked [0:04:16.56]
12. Still [0:03:34.48]
13. I Say A Little Prayer [0:03:31.43]
14. Bonus Track [0:06:43.00]

Exact Audio Copy V1.3 from 2. September 2016

EAC extraction logfile from 19. May 2019, 9:38

Diana King / Think Like A Girl

Used drive : PIONEER DVD-RW DVR-220L Adapter: 1 ID: 0

Read mode : Secure
Utilize accurate stream : Yes
Defeat audio cache : Yes
Make use of C2 pointers : No

Read offset correction : 6
Overread into Lead-In and Lead-Out : No
Fill up missing offset samples with silence : Yes
Delete leading and trailing silent blocks : No
Null samples used in CRC calculations : Yes
Used interface : Installed external ASPI interface

Used output format : User Defined Encoder
Selected bitrate : 1024 kBit/s
Quality : High
Add ID3 tag : No
Command line compressor : C:\Program Files (x86)\Exact Audio Copy\Flac\flac.exe
Additional command line options : -6 -V -T "ARTIST=%artist%" -T "TITLE=%title%" -T "ALBUM=%albumtitle%" -T "DATE=%year%" -T "TRACKNUMBER=%tracknr%" -T "GENRE=%genre%" -T "COMMENT=%comment%" -T "BAND=%albuminterpret%" -T "ALBUMARTIST=%albuminterpret%" -T "COMPOSER=%composer%" %haslyrics%–tag-from-file=LYRICS="%lyricsfile%"%haslyrics% -T "DISCNUMBER=%cdnumber%" -T "TOTALDISCS=%totalcds%" -T "TOTALTRACKS=%numtracks%" %hascover%–picture="%coverfile%"%hascover% %source% -o %dest%


TOC of the extracted CD

Track | Start | Length | Start sector | End sector
––––––––––––––––––––––––––––-
1 | 0:00.00 | 3:04.63 | 0 | 13862
2 | 3:04.63 | 4:08.13 | 13863 | 32475
3 | 7:13.01 | 5:06.13 | 32476 | 55438
4 | 12:19.14 | 4:43.00 | 55439 | 76663
5 | 17:02.14 | 4:08.73 | 76664 | 95336
6 | 21:11.12 | 0:31.48 | 95337 | 97709
7 | 21:42.60 | 4:06.73 | 97710 | 116232
8 | 25:49.58 | 3:56.16 | 116233 | 133948
9 | 29:45.74 | 4:18.29 | 133949 | 153327
10 | 34:04.28 | 4:53.19 | 153328 | 175321
11 | 38:57.47 | 4:16.56 | 175322 | 194577
12 | 43:14.28 | 3:34.48 | 194578 | 210675
13 | 46:49.01 | 3:31.43 | 210676 | 226543
14 | 52:52.44 | 6:43.00 | 237944 | 268168


Range status and errors

Selected range

Filename C:\mm\Diana King\1997 - Think Like A Girl [OK 67959]\Diana King - Think Like A Girl.wav

Peak level 99.4 %
Extraction speed 7.7 X
Range quality 100.0 %
Test CRC 18690C16
Copy CRC 18690C16
Copy OK

No errors occurred


AccurateRip summary

Track 1 accurately ripped (confidence 3) [80195542] (AR v2)
Track 2 accurately ripped (confidence 3) [8C265613] (AR v2)
Track 3 accurately ripped (confidence 3) [3A1258CE] (AR v2)
Track 4 accurately ripped (confidence 3) [4E7C76F5] (AR v2)
Track 5 accurately ripped (confidence 3) [12ABAD8E] (AR v2)
Track 6 accurately ripped (confidence 3) [5C800735] (AR v2)
Track 7 accurately ripped (confidence 3) [54BDD292] (AR v2)
Track 8 accurately ripped (confidence 3) [00DCC2ED] (AR v2)
Track 9 accurately ripped (confidence 3) [85C1CA99] (AR v2)
Track 10 accurately ripped (confidence 3) [900FB4BA] (AR v2)
Track 11 accurately ripped (confidence 3) [8C8C8D7C] (AR v2)
Track 12 accurately ripped (confidence 3) [239D5EA6] (AR v2)
Track 13 accurately ripped (confidence 3) [41D72E0C] (AR v2)

All tracks accurately ripped

End of status report

[CUETools log; Date: 20.06.2019 0:53:48; Version: 2.1.6]
CD-Extra data track length 06:43:00.
[CTDB TOCID: TkNKstnL0qvGvWRAkfi_cuS2gEw-] found.
Track | CTDB Status
1 | (30/30) Accurately ripped
2 | (30/30) Accurately ripped
3 | (30/30) Accurately ripped
4 | (30/30) Accurately ripped
5 | (29/30) Accurately ripped
6 | (30/30) Accurately ripped
7 | (30/30) Accurately ripped
8 | (30/30) Accurately ripped
9 | (30/30) Accurately ripped
10 | (29/30) Accurately ripped
11 | (29/30) Accurately ripped
12 | (30/30) Accurately ripped
13 | (30/30) Accurately ripped
[AccurateRip ID: 0018c6c0-00fa6b94-b60df70e] found.
Track [ CRC | V2 ] Status
01 [d284aaec|80195542] (3+5/8) Accurately ripped
02 [2f32d622|8c265613] (3+5/8) Accurately ripped
03 [7175db97|3a1258ce] (3+5/8) Accurately ripped
04 [7103b10a|4e7c76f5] (3+5/8) Accurately ripped
05 [6cc00c9d|12abad8e] (3+5/8) Accurately ripped
06 [c6e191da|5c800735] (3+5/8) Accurately ripped
07 [4cda4ad1|54bdd292] (3+5/8) Accurately ripped
08 [01e19ceb|00dcc2ed] (3+5/8) Accurately ripped
09 [3802dd6a|85c1ca99] (3+5/8) Accurately ripped
10 [1a13464c|900fb4ba] (3+5/8) Accurately ripped
11 [85062321|8c8c8d7c] (3+5/8) Accurately ripped
12 [9296ed78|239d5ea6] (3+5/8) Accurately ripped
13 [02c294cd|41d72e0c] (3+5/8) Accurately ripped
Offsetted by -659:
01 [ebe9ce67] (0/8) No match (V2 was not tested)
02 [15a2780f] (0/8) No match (V2 was not tested)
03 [6542b0f4] (0/8) No match (V2 was not tested)
04 [27d3b47e] (0/8) No match (V2 was not tested)
05 [fce5bab3] (0/8) No match (V2 was not tested)
06 [73d4800d] (0/8) No match (V2 was not tested)
07 [89ecd380] (0/8) No match (V2 was not tested)
08 [2424e2fd] (0/8) No match (V2 was not tested)
09 [a1e6084f] (0/8) No match (V2 was not tested)
10 [e852be6e] (0/8) No match (V2 was not tested)
11 [381450fa] (0/8) No match (V2 was not tested)
12 [dca0e7f3] (0/8) No match (V2 was not tested)
13 [06406683] (0/8) No match (V2 was not tested)

Track Peak [ CRC32 ] [W/O NULL] [ LOG ]
– 99,4 [18690C16] [CBF3EC22] CRC32
01 98,8 [74EEFCBF] [1A92E97D]
02 98,8 [7DD38A32] [E5900F9B]
03 98,8 [59A8C770] [572D19E7]
04 98,8 [88C650E0] [6A24DCF2]
05 98,8 [A8133672] [FC88A9BB]
06 98,8 [DEF8E414] [FDF011BA]
07 98,8 [D957EDE7] [1722A560]
08 98,8 [DD74EAF9] [B02B18FE]
09 98,8 [AA6E81C0] [E9B0831A]
10 98,8 [51D73D98] [3F6989A5]
11 98,8 [B7BF303F] [5CC0F741]
12 98,8 [8F430701] [EBD4572F]
13 99,4 [C06424D2] [0F38014B]

Diana King - Think Like A Girl (1997)


See also:

Diana King - Tougher Than Love (1995) {Japan 1st Press}

All thanks go to sergych

>>> My Blog <<<

Download from icerbox.com: