Subcategories

Didier Squiban - Adarre (2011) {L'Oz Production}

Posted By: tiburon
Didier Squiban - Adarre (2011) {L'Oz Production}

Didier Squiban - Adarre (2011) {L'Oz Production}
EAC 1.0b3 | FLAC tracks level 8 | Cue+Log+M3U | Full Scans 300dpi | 348MB + 5% Recovery
MP3 CBR 320 Kbps | 147MB + 5% Recovery
Genre: Jazz, Post-Bop, Classical
Didier Squiban - Adarre (2011) {L'Oz Production}

Didier Squiban a souhaité retrouver l'ambiance intimiste et proche de ses albums en piano solo. Il revisite pour notre plus grand plaisir ses thèmes préférés avec son percussionniste Jérôme Kerihuel. Didier Squiban transforme depuis bientôt une vingtaine d'années des thèmes celtiques en pièces pour piano jazz. Hormis la difficulté certaine de l’exercice réalisé par ce musicologue, force est de reconnaître que le jazz et la musique classique prennent le pas sur les rythmes celtiques, bien difficiles à percevoir pour les non érudits.
Track List
01. Angelus 3:48
02. Bangor 4:10
03. Ar Bambocher 6:39
04. Mer D'iroise 9:57
05. Enez Eusa 6:03
06. Suite De Plinn 3:33
07. Glenn & Johanna 7:16
08. Jackie's Tune 7:45
09. Rond De Rozbras 2:18
10. An Dro An Douar 6:41
11. Beg An Truc 4:35

musicians
Didier Squiban - piano
Jerome Kerihuel - percussions

Produced by Gilles Lozac'hmeue


Exact Audio Copy V1.0 beta 3 from 29. August 2011

EAC extraction logfile from 26. October 2011, 10:06

Didier Squiban / Adarre

Used drive : PLEXTOR DVDR PX-860A Adapter: 0 ID: 0

Read mode : Secure
Utilize accurate stream : Yes
Defeat audio cache : Yes
Make use of C2 pointers : No

Read offset correction : 96
Overread into Lead-In and Lead-Out : No
Fill up missing offset samples with silence : Yes
Delete leading and trailing silent blocks : No
Null samples used in CRC calculations : Yes
Used interface : Native Win32 interface for Win NT & 2000
Gap handling : Appended to previous track

Used output format : User Defined Encoder
Selected bitrate : 1024 kBit/s
Quality : High
Add ID3 tag : No
Command line compressor : C:\Program Files\Exact Audio Copy 3\Flac\flac.exe
Additional command line options : -8 -V -T "ARTIST=%artist%" -T "TITLE=%title%" -T "ALBUM=%albumtitle%" -T "DATE=%year%" -T "TRACKNUMBER=%tracknr%" -T "TOTALTRACKS=%numtracks%" -T "GENRE=%genre%" -T "ALBUM ARTIST=%albumartist%" -T "ALBUMARTIST=%albumartist%" -T "COMMENT=EAC V1.0 beta 3, Secure Mode, Test & Copy, AccurateRip, FLAC -8" %source%


TOC of the extracted CD

Track | Start | Length | Start sector | End sector
––––––––––––––––––––––––––––-
1 | 0:00.00 | 3:48.26 | 0 | 17125
2 | 3:48.26 | 4:10.50 | 17126 | 35925
3 | 7:59.01 | 6:39.68 | 35926 | 65918
4 | 14:38.69 | 9:57.38 | 65919 | 110731
5 | 24:36.32 | 6:03.38 | 110732 | 137994
6 | 30:39.70 | 3:33.01 | 137995 | 153970
7 | 34:12.71 | 7:16.23 | 153971 | 186693
8 | 41:29.19 | 7:45.45 | 186694 | 221613
9 | 49:14.64 | 2:18.62 | 221614 | 232025
10 | 51:33.51 | 6:41.04 | 232026 | 262104
11 | 58:14.55 | 4:35.08 | 262105 | 282737


Track 1

Filename S:\DL\Didier Squiban - Adarre (2011) [FLAC]\01 - Angelus.wav

Pre-gap length 0:00:02.00

Peak level 100.0 %
Extraction speed 4.2 X
Track quality 100.0 %
Test CRC 14487596
Copy CRC 14487596
Accurately ripped (confidence 2) [ACC69F42] (AR v1)
Copy OK

Track 2

Filename S:\DL\Didier Squiban - Adarre (2011) [FLAC]\02 - Bangor.wav

Pre-gap length 0:00:01.37

Peak level 100.0 %
Extraction speed 4.2 X
Track quality 99.9 %
Test CRC 43A3BB36
Copy CRC 43A3BB36
Accurately ripped (confidence 2) [DAB5E1D9] (AR v1)
Copy OK

Track 3

Filename S:\DL\Didier Squiban - Adarre (2011) [FLAC]\03 - Ar Bambocher.wav

Pre-gap length 0:00:02.28

Peak level 100.0 %
Extraction speed 5.5 X
Track quality 100.0 %
Test CRC A68B7B62
Copy CRC A68B7B62
Accurately ripped (confidence 2) [341FBA17] (AR v1)
Copy OK

Track 4

Filename S:\DL\Didier Squiban - Adarre (2011) [FLAC]\04 - Mer D'Iroise.wav

Pre-gap length 0:00:02.00

Peak level 100.0 %
Extraction speed 6.4 X
Track quality 100.0 %
Test CRC 637A18D2
Copy CRC 637A18D2
Accurately ripped (confidence 2) [91590979] (AR v1)
Copy OK

Track 5

Filename S:\DL\Didier Squiban - Adarre (2011) [FLAC]\05 - Enez Eusa.wav

Pre-gap length 0:00:01.25

Peak level 100.0 %
Extraction speed 6.2 X
Track quality 99.9 %
Test CRC 0DA4F31B
Copy CRC 0DA4F31B
Accurately ripped (confidence 2) [3DA79F41] (AR v1)
Copy OK

Track 6

Filename S:\DL\Didier Squiban - Adarre (2011) [FLAC]\06 - Suite De Plinn.wav

Pre-gap length 0:00:01.67

Peak level 100.0 %
Extraction speed 6.6 X
Track quality 100.0 %
Test CRC EB2B5CE4
Copy CRC EB2B5CE4
Accurately ripped (confidence 2) [FD9040FE] (AR v1)
Copy OK

Track 7

Filename S:\DL\Didier Squiban - Adarre (2011) [FLAC]\07 - Glenn & Johanna.wav

Pre-gap length 0:00:01.71

Peak level 100.0 %
Extraction speed 7.4 X
Track quality 100.0 %
Test CRC 1BB7C94F
Copy CRC 1BB7C94F
Accurately ripped (confidence 2) [219157B8] (AR v1)
Copy OK

Track 8

Filename S:\DL\Didier Squiban - Adarre (2011) [FLAC]\08 - Jackie's Tune.wav

Pre-gap length 0:00:01.56

Peak level 100.0 %
Extraction speed 8.0 X
Track quality 100.0 %
Test CRC 72066136
Copy CRC 72066136
Accurately ripped (confidence 2) [83282788] (AR v1)
Copy OK

Track 9

Filename S:\DL\Didier Squiban - Adarre (2011) [FLAC]\09 - Rond De Rozbras.wav

Pre-gap length 0:00:01.71

Peak level 100.0 %
Extraction speed 7.0 X
Track quality 100.0 %
Test CRC 7336E984
Copy CRC 7336E984
Accurately ripped (confidence 2) [3F7C60EB] (AR v1)
Copy OK

Track 10

Filename S:\DL\Didier Squiban - Adarre (2011) [FLAC]\10 - An Dro An Douar.wav

Pre-gap length 0:00:01.68

Peak level 100.0 %
Extraction speed 7.8 X
Track quality 99.9 %
Test CRC 4DB11B2D
Copy CRC 4DB11B2D
Accurately ripped (confidence 2) [5538182F] (AR v1)
Copy OK

Track 11

Filename S:\DL\Didier Squiban - Adarre (2011) [FLAC]\11 - Beg An Truc.wav

Peak level 100.0 %
Extraction speed 8.2 X
Track quality 100.0 %
Test CRC 9B1957F4
Copy CRC 9B1957F4
Accurately ripped (confidence 2) [DC231323] (AR v1)
Copy OK


All tracks accurately ripped

No errors occurred

End of status report

–– CUETools DB Plugin V2.1.3

[CTDB TOCID: 8cL7m1M3iHx4ezFrN7lHaORBb8o-] disk not present in database, Submit result: 8cL7m1M3iHx4ezFrN7lHaORBb8o- has been uploaded


==== Log checksum 4ACABDE79FAF9B5E4D8DE3CDC5236FA836F86EE499600F5FF1B10BE4DCA2E040 ====


––––––––––––––––––––––––––––––––––––––––
Analyzed: Didier Squiban / Adarre
––––––––––––––––––––––––––––––––––––––––

DR Peak RMS Duration Track
––––––––––––––––––––––––––––––––––––––––
DR11 0.00 dB -13.18 dB 3:48 01-Angelus
DR12 0.00 dB -14.29 dB 4:11 02-Bangor
DR10 0.00 dB -13.21 dB 6:40 03-Ar Bambocher
DR10 0.00 dB -13.25 dB 9:58 04-Mer D'Iroise
DR8 0.00 dB -11.74 dB 6:04 05-Enez Eusa
DR11 0.00 dB -13.86 dB 3:33 06-Suite De Plinn
DR11 0.00 dB -13.43 dB 7:16 07-Glenn & Johanna
DR12 0.00 dB -15.64 dB 7:46 08-Jackie's Tune
DR12 0.00 dB -13.88 dB 2:19 09-Rond De Rozbras
DR12 0.00 dB -15.83 dB 6:41 10-An Dro An Douar
DR16 0.00 dB -19.81 dB 4:35 11-Beg An Truc
––––––––––––––––––––––––––––––––––––––––

Number of tracks: 11
Official DR value: DR11

Samplerate: 44100 Hz
Channels: 2
Bits per sample: 16
Bitrate: 648 kbps
Codec: FLAC
================================================================================

Didier Squiban - Adarre (2011) {L'Oz Production}
Didier Squiban - Adarre (2011) {L'Oz Production}
Didier Squiban - Adarre (2011) {L'Oz Production}


Thanks to the original ripper