Subcategories

Dillinger - Dillinger (1974) [Reissue 1998]

Posted By: gribovar
Dillinger - Dillinger (1974) [Reissue 1998]

Dillinger - Dillinger (1974) [Reissue 1998]
EAC Rip | FLAC (image+.cue+log) - 211 MB | MP3 CBR 320 kbps (LAME 3.93) - 74 MB | Covers - 48 MB
Genre: Progressive Rock | RAR 3% Rec. | Label: Unidisc Music (AGEK-2155)

From Toronto, Ontario, Canada the band was formed in 1973 by the Harrison brothers, Jacques (keys, vocals, sax, flute, organ) and Robert (Drums, percussions) both from Quebec. Paul Cockburn and Terry Bramhall were eventually added, respectively on guitars and bass. The following year they signed with Canadian label Daffodil and released their first self-titled album. The album was an original mix of jazz and progressive blusey hard rock. It was made up of only four tracks including the side-long "Live and Return" as well as an interesting cover version of Spitit's "Nature's Way".

Tracklist:
01. People
02. City Man
03. Nature's Way
04. Live And Return

Total time: 31:34

Exact Audio Copy V1.1 from 23. June 2015

Отчёт EAC об извлечении, выполненном 6. февраля 2017, 16:52

Dillinger / Dillinger

Дисковод: ASUS DRW-24B3ST Adapter: 0 ID: 0

Режим чтения : Достоверность
Использование точного потока : Да
Отключение кэша аудио : Да
Использование указателей C2 : Нет

Коррекция смещения при чтении : 6
Способность читать области Lead-in и Lead-out : Нет
Заполнение пропущенных сэмплов тишиной : Да
Удаление блоков с тишиной в начале и конце : Нет
При вычислениях CRC использовались нулевые сэмплы : Да
Интерфейс : Установленный внешний ASPI-интерфейс

Выходной формат : Пользовательский кодировщик
Выбранный битрейт : 1024 kBit/s
Качество : Высокий
Добавление ID3-тега : Нет
Утилита сжатия : C:\Program Files (x86)\Exact Audio Copy\Flac\flac.exe
Дополнительные параметры : -V -8 -T "Date=%year%" -T "Genre=%genre%" %source%


TOC извлечённого CD

Трек | Старт | Длительность | Начальный сектор | Конечный сектор
––––––––––––––––––––––––––––––––––-
1 | 0:00.00 | 6:17.15 | 0 | 28289
2 | 6:17.15 | 4:53.02 | 28290 | 50266
3 | 11:10.17 | 3:20.38 | 50267 | 65304
4 | 14:30.55 | 17:03.12 | 65305 | 142041


Характеристики диапазона извлечения и сообщения об ошибках

Выбранный диапазон

Имя файла C:\Torrents - my\Dillinger - 1974 - Dillinger\Dillinger - Dillinger.wav

Пиковый уровень 100.0 %
Скорость извлечения 2.7 X
Качество диапазона 100.0 %
CRC теста A841DA74
CRC копии A841DA74
Копирование… OK

Ошибок не произошло


AccurateRip: сводка

Трек 1 : извлечено точно (доверие 1) [D5C73974] (AR v2)
Трек 2 : извлечено точно (доверие 1) [46A7999A] (AR v2)
Трек 3 : извлечено точно (доверие 1) [6D0CE947] (AR v2)
Трек 4 : извлечено точно (доверие 1) [F5785F50] (AR v2)

Все треки извлечены точно

Конец отчёта

==== Контрольная сумма отчёта 5B09762EE0AA60FFCC58F5CA202CEAFAEE835FFA66F205244925089971E80106 ====

[CUETools log; Date: 07.02.2017 15:45:04; Version: 2.1.4]
[CTDB TOCID: VGSWuXbtD2Y3UZK0VSp18tc1T6A-] found.
Track | CTDB Status
1 | (1/1) Accurately ripped
2 | (1/1) Accurately ripped
3 | (1/1) Accurately ripped
4 | (1/1) Accurately ripped
[AccurateRip ID: 00045cd0-0011fcbc-35076504] found.
Track [ CRC | V2 ] Status
01 [f710dd66|d5c73974] (0+1/1) Accurately ripped
02 [1f22a3fe|46a7999a] (0+1/1) Accurately ripped
03 [3d386a21|6d0ce947] (0+1/1) Accurately ripped
04 [d2ce7680|f5785f50] (0+1/1) Accurately ripped

Track Peak [ CRC32 ] [W/O NULL] [ LOG ]
– 100,0 [A841DA74] [81E9525A] CRC32
01 100,0 [BB0F7451] [2E60C3DE]
02 70,3 [05E9953A] [C9672D5B]
03 100,0 [6E9862DA] [461A689C]
04 79,6 [F96111F9] [DA303B5E]

Thanks to Копысов