Subcategories

Dino Saluzzi Group - El Valle De La Infancia (2014) {ECM 2370}

Posted By: tiburon
Dino Saluzzi Group - El Valle De La Infancia (2014) {ECM 2370}

Dino Saluzzi Group - El Valle De La Infancia (2014) {ECM 2370}
EAC 1.0b3 | FLAC tracks level 8 | Cue+Log+M3U | Full Scans 300dpi | 303MB + 5% Recovery
Genre: Jazz, World Fusion
Dino Saluzzi Group - El Valle De La Infancia (2014) {ECM 2370}

Argentinean bandoneonist-composer-improviser Dino Saluzzi returns to his roots with El Valle de la Infancia. Recorded at Saluzzi Music Studios in Buenos Aires, it’s the first of his discs to feature his “family band” since 2005’s Juan Condori. Here Dino is heard with his brother Felix on tenor sax and clarinet, his son José María on guitars, and nephew Matías on basses.
Track List
01. Sombras 7:44
02. La Polvadera 6:29
Pueblo
03. Part I – Labrador (José M. Saluzzi) 2:31
04. Part II – Salavina (Mario Arnedo Gallo) 4:04
05. Part III - La Tristecita (Ariel Ramírez) 2:44
06. A mi Padre y a mi Hijo 10:41
07. Churqui 5:28
Urkupiña
08. Part I – Salida del Templo 3:25
09. Part II – Ruego, procesión y entronación 4:30
La Fiesta Popular
10. Part I – La Danza 1:23
11. Part II – Galanteo 0:49
12. Part III – La perseguida 1:31
13. Part IV – Atardecer 0:25
14. Part V – En la quebrada de Lules 1:49
Tiempos Primeros
15. Part I – La Arribeña (Atahualpa Yupanqui) 2:25
16. Part II – La casa paterna 6:25

All compositions by Dino Saluzzi except as indicated

musicians
Dino Saluzzi - bandoneon
José Maria Saluzzi - guitar, requinto guitar
Nicolás ´Colacho´ Brizuela - guitar
Felix ´Cuchara´ Saluzzi - tenor saxophone, clarinet
Matias Saluzzi - electric bass, double bass
Quintino Cinalli - drums, percussion

Produced by Manfred Eicher


Exact Audio Copy V1.0 beta 3 from 29. August 2011

EAC extraction logfile from 23. June 2014, 17:41

Dino Saluzzi Group / El Valle de la Infancia [ECM 2370]

Used drive : PLEXTOR DVDR PX-L890SA Adapter: 2 ID: 1

Read mode : Secure
Utilize accurate stream : Yes
Defeat audio cache : Yes
Make use of C2 pointers : No

Read offset correction : 6
Overread into Lead-In and Lead-Out : No
Fill up missing offset samples with silence : Yes
Delete leading and trailing silent blocks : No
Null samples used in CRC calculations : Yes
Used interface : Native Win32 interface for Win NT & 2000
Gap handling : Appended to previous track

Used output format : User Defined Encoder
Selected bitrate : 768 kBit/s
Quality : High
Add ID3 tag : No
Command line compressor : C:\Program Files (x86)\Exact Audio Copy\FLAC\FLAC.EXE
Additional command line options : -8 -V -T "ARTIST=%artist%" -T "TITLE=%title%" -T "ALBUM=%albumtitle%" -T "DATE=%year%" -T "TRACKNUMBER=%tracknr%" -T "TOTALTRACKS=%numtracks%" -T "GENRE=%genre%" -T "ALBUMARTIST=%albumartist%" -T "ALBUM ARTIST=%albumartist%" -T "COMMENT=EAC Secure Mode, Test & Copy, AccurateRip, FLAC -8" %source%


TOC of the extracted CD

Track | Start | Length | Start sector | End sector
––––––––––––––––––––––––––––-
1 | 0:00.00 | 7:44.70 | 0 | 34869
2 | 7:44.70 | 6:25.50 | 34870 | 63794
3 | 14:10.45 | 2:31.47 | 63795 | 75166
4 | 16:42.17 | 4:04.06 | 75167 | 93472
5 | 20:46.23 | 2:44.26 | 93473 | 105798
6 | 23:30.49 | 10:41.39 | 105799 | 153912
7 | 34:12.13 | 5:28.26 | 153913 | 178538
8 | 39:40.39 | 3:25.56 | 178539 | 193969
9 | 43:06.20 | 4:30.22 | 193970 | 214241
10 | 47:36.42 | 1:23.27 | 214242 | 220493
11 | 48:59.69 | 0:49.38 | 220494 | 224206
12 | 49:49.32 | 1:31.70 | 224207 | 231101
13 | 51:21.27 | 0:25.04 | 231102 | 232980
14 | 51:46.31 | 1:49.70 | 232981 | 241225
15 | 53:36.26 | 2:25.37 | 241226 | 252137
16 | 56:01.63 | 6:25.25 | 252138 | 281037


Track 1

Filename H:\Flac Rips\01 - Sombras.wav

Pre-gap length 0:00:02.00

Peak level 98.4 %
Extraction speed 3.9 X
Track quality 100.0 %
Test CRC B0764BDA
Copy CRC B0764BDA
Accurately ripped (confidence 2) [CABEAE12] (AR v2)
Copy OK

Track 2

Filename H:\Flac Rips\02 - La Polvareda.wav

Peak level 78.9 %
Extraction speed 4.6 X
Track quality 100.0 %
Test CRC 0C3014E9
Copy CRC 0C3014E9
Accurately ripped (confidence 2) [403D847E] (AR v2)
Copy OK

Track 3

Filename H:\Flac Rips\03 - Pueblo, Part I, Labrador.wav

Peak level 35.0 %
Extraction speed 4.3 X
Track quality 100.0 %
Test CRC 209A21C2
Copy CRC 209A21C2
Accurately ripped (confidence 2) [7E7ADA72] (AR v2)
Copy OK

Track 4

Filename H:\Flac Rips\04 - Pueblo, Part II, Salavina.wav

Peak level 76.4 %
Extraction speed 4.9 X
Track quality 100.0 %
Test CRC 672F2AEB
Copy CRC 672F2AEB
Accurately ripped (confidence 2) [9BA97015] (AR v2)
Copy OK

Track 5

Filename H:\Flac Rips\05 - Pueblo, Part III, La Tristecita.wav

Peak level 75.0 %
Extraction speed 3.6 X
Track quality 99.9 %
Test CRC D796B32F
Copy CRC D796B32F
Accurately ripped (confidence 2) [550F7417] (AR v2)
Copy OK

Track 6

Filename H:\Flac Rips\06 - A mi Padre y a mi Hijo.wav

Peak level 96.7 %
Extraction speed 6.1 X
Track quality 100.0 %
Test CRC C437C0C7
Copy CRC C437C0C7
Accurately ripped (confidence 2) [9B47F597] (AR v2)
Copy OK

Track 7

Filename H:\Flac Rips\07 - Churqui.wav

Peak level 70.6 %
Extraction speed 5.3 X
Track quality 99.9 %
Test CRC 818546ED
Copy CRC 818546ED
Accurately ripped (confidence 2) [DA17AA2A] (AR v2)
Copy OK

Track 8

Filename H:\Flac Rips\08 - Urkupina, Part I, Salida del Templo.wav

Peak level 56.9 %
Extraction speed 6.1 X
Track quality 100.0 %
Test CRC FFA5B77D
Copy CRC FFA5B77D
Accurately ripped (confidence 2) [116D7783] (AR v2)
Copy OK

Track 9

Filename H:\Flac Rips\09 - Urkupina, Part II, Ruego, Procesion y Entonacion.wav

Peak level 66.7 %
Extraction speed 6.6 X
Track quality 100.0 %
Test CRC B86843A6
Copy CRC B86843A6
Accurately ripped (confidence 2) [CFEA0B01] (AR v2)
Copy OK

Track 10

Filename H:\Flac Rips\10 - La Fiesta Popular, Part I, La Danza.wav

Peak level 58.5 %
Extraction speed 5.1 X
Track quality 100.0 %
Test CRC 3BCAD6AF
Copy CRC 3BCAD6AF
Accurately ripped (confidence 2) [372F2E0B] (AR v2)
Copy OK

Track 11

Filename H:\Flac Rips\11 - La Fiesta Popular, Part II, Galanteo.wav

Peak level 32.1 %
Extraction speed 4.3 X
Track quality 100.0 %
Test CRC 47523BD4
Copy CRC 47523BD4
Accurately ripped (confidence 2) [3E8FFC2B] (AR v2)
Copy OK

Track 12

Filename H:\Flac Rips\12 - La Fiesta Popular, Part III, La Perseguida.wav

Peak level 58.2 %
Extraction speed 3.6 X
Track quality 99.8 %
Test CRC B101D644
Copy CRC B101D644
Accurately ripped (confidence 2) [49F424A3] (AR v2)
Copy OK

Track 13

Filename H:\Flac Rips\13 - La Fiesta Popular, Part IV, Atardecer.wav

Peak level 34.4 %
Extraction speed 3.1 X
Track quality 100.0 %
Test CRC 5421F6C4
Copy CRC 5421F6C4
Accurately ripped (confidence 2) [D5B33F48] (AR v2)
Copy OK

Track 14

Filename H:\Flac Rips\14 - La Fiesta Popular, Part V, En la Quebrada de Lules.wav

Peak level 58.1 %
Extraction speed 5.8 X
Track quality 100.0 %
Test CRC FA8E04F4
Copy CRC FA8E04F4
Accurately ripped (confidence 2) [296A5AD9] (AR v2)
Copy OK

Track 15

Filename H:\Flac Rips\15 - Tiempos Primeros, Part I, La Arribena.wav

Peak level 58.1 %
Extraction speed 6.4 X
Track quality 100.0 %
Test CRC 26E6AC27
Copy CRC 26E6AC27
Accurately ripped (confidence 2) [893D21EF] (AR v2)
Copy OK

Track 16

Filename H:\Flac Rips\16 - Tiempos Primeros, Part II, La Casa Paterna.wav

Peak level 58.7 %
Extraction speed 7.6 X
Track quality 100.0 %
Test CRC B748256D
Copy CRC B748256D
Accurately ripped (confidence 2) [A6D72CC6] (AR v2)
Copy OK


All tracks accurately ripped

No errors occurred

End of status report

==== Log checksum 24F896BADDEA90C530CA4FF63D63785736A2F93E1E5DB9333AE656FD1F76C073 ====


––––––––––––––––––––––––––––––––––––––––
Analyzed: Dino Saluzzi Group / El Valle de la Infancia [ECM 2370]
––––––––––––––––––––––––––––––––––––––––

DR Peak RMS Duration Track
––––––––––––––––––––––––––––––––––––––––
DR16 -0.14 dB -20.51 dB 7:45 01-Sombras
DR14 -2.06 dB -21.98 dB 6:26 02-La Polvareda
DR13 -9.10 dB -24.96 dB 2:32 03-Pueblo, Part I, Labrador
DR14 -2.33 dB -21.86 dB 4:04 04-Pueblo, Part II, Salavina
DR13 -2.50 dB -21.85 dB 2:44 05-Pueblo, Part III, La Tristecita
DR15 -0.29 dB -20.13 dB 10:42 06-A mi Padre y a mi Hijo
DR14 -3.01 dB -20.87 dB 5:28 07-Churqui
DR12 -4.89 dB -21.50 dB 3:26 08-Urkupina, Part I, Salida del Templo
DR12 -3.51 dB -20.52 dB 4:30 09-Urkupina, Part II, Ruego, Procesion y Entonacion
DR13 -4.65 dB -20.83 dB 1:23 10-La Fiesta Popular, Part I, La Danza
DR14 -9.85 dB -28.33 dB 0:50 11-La Fiesta Popular, Part II, Galanteo
DR12 -4.70 dB -19.36 dB 1:32 12-La Fiesta Popular, Part III, La Perseguida
DR9 -9.25 dB -25.48 dB 0:25 13-La Fiesta Popular, Part IV, Atardecer
DR12 -4.72 dB -22.34 dB 1:50 14-La Fiesta Popular, Part V, En la Quebrada de Lules
DR13 -4.72 dB -22.09 dB 2:25 15-Tiempos Primeros, Part I, La Arribena
DR15 -4.62 dB -24.30 dB 6:25 16-Tiempos Primeros, Part II, La Casa Paterna
––––––––––––––––––––––––––––––––––––––––

Number of tracks: 16
Official DR value: DR13

Samplerate: 44100 Hz
Channels: 2
Bits per sample: 16
Bitrate: 478 kbps
Codec: FLAC
================================================================================

Dino Saluzzi Group - El Valle De La Infancia (2014) {ECM 2370}
Dino Saluzzi Group - El Valle De La Infancia (2014) {ECM 2370}
Dino Saluzzi Group - El Valle De La Infancia (2014) {ECM 2370}


Rip by jlgt