Subcategories

Dio - The Singles Box Set (2012, 15CD)

Posted By: Necromandus
Dio - The Singles Box Set (2012, 15CD)

Dio - The Singles Box Set (2012, 15CD)
EAC Rip | FLAC, IMG+CUE+LOG | 2.0 GB | MP3 CBR 320 Kbps | 650 MB | Complete HQ Scans | PNG -> 200 MB
DVD -> Folder | PAL 720x576, 4:3, 29.970 fps | ~ 45 min | English AC3 48000Hz 2ch 192Kbps | 2.5 GB
Heavy Metal/Hard Rock | Label: Universal Music #006025 2799275 4 | RAR 3% Rec. | FilePost
… 14 x CD Singles + DVD + 32-page Complete Discography of The Vertigo Years …

After leaving Black Sabbath, the legendary Ronnie James Dio formed the self-titled super group with a string of seminal releases that continue to influence the hard rock and heavy metal worlds to this day. This Complete Singles Collection gathers all of the band’s classic singles on Vertigo/Universal in replicas of the original release, a DVD featuring all of the corresponding promo videos, plus a book featuring the complete Vertigo discography.
Dio - The Singles Box Set (2012, 15CD)

The set you are viewing and are about to purchase, is one of the BEST box sets I have ever purchased! Yes, I am a huge DIO fan, but still, the packaging, cd sleeves and all, are of a truly high quality and should hold up quite well over the years that you own this product. A nice booklet, outlining each single; some with various alternate covers from various countries and the DVD of the videos is a must have in itself. I was too young at the time to collect the singles, as they came out, let alone see the official videos that accompanied them. The sad fact is, that Ronnie is no longer with us; but with this collection, you can imagine that he is still with us and still just as vibrant a performer as when he was alive. The cost is a little pricey, but if you do not purchase another item by DIO, other than his studio albums, then this is the one that should be purchased. It felt like the eighties and early nineties all over again when I opened this set and feel the youth and vitality that should be felt when you do the same. Thank you, Wendy Dio, for allowing such extremely high quality items to surface, and I hope and do believe there will be many more to come. I personally miss you Ronnie, but with items such as these, ones that have not been seen in years, will remind you that he will never die, so long as us fans keep him in our hearts and minds forever! The Holy Diver, is now truly, The Man on the Silver Mountain! Items like this prove, beyond a shadow of a doubt, that he will truly come back to us, and stay there forever. Long Live Rock and Roll!




Dio - The Singles Box Set (2012, 15CD)

Disc 1 - Holy Diver
EAC Rip | FLAC, IMG+CUE+LOG | 120 MB | MP3 CBR 320 Kbps | 40 MB
Label: Universal Music #00602537091355 | RAR 3% Rec. | FilePost

Tracklist :

1. Holy Diver - 5:53
2. Evil Eyes - 3:39
3. Don't Talk To Strangers - 4:53

Exact Audio Copy V1.0 beta 3 from 29. August 2011

EAC extraction logfile from 26. October 2012, 19:16

Dio / Holy Diver (The Singles Collection, Disc 1)

Used drive : PIONEER DVD-RW DVR-219L Adapter: 1 ID: 0

Read mode : Secure
Utilize accurate stream : Yes
Defeat audio cache : Yes
Make use of C2 pointers : No

Read offset correction : 6
Overread into Lead-In and Lead-Out : No
Fill up missing offset samples with silence : Yes
Delete leading and trailing silent blocks : No
Null samples used in CRC calculations : Yes
Used interface : Native Win32 interface for Win NT & 2000

Used output format : Internal WAV Routines
Sample format : 44.100 Hz; 16 Bit; Stereo


TOC of the extracted CD

Track | Start | Length | Start sector | End sector
––––––––––––––––––––––––––––-
1 | 0:00.00 | 5:52.38 | 0 | 26437
2 | 5:52.38 | 3:39.13 | 26438 | 42875
3 | 9:31.51 | 4:53.14 | 42876 | 64864


Range status and errors

Selected range

Filename D:\.www.AvaxHome.ru\Dio - Holy Diver (The Singles Collection, Disc 1).wav

Peak level 96.5 %
Extraction speed 5.2 X
Range quality 99.9 %
Test CRC 358FAA60
Copy CRC 358FAA60
Copy OK

No errors occurred


AccurateRip summary

Track 1 accurately ripped (confidence 1) [11D462AD] (AR v1)
Track 2 accurately ripped (confidence 1) [08938060] (AR v1)
Track 3 accurately ripped (confidence 1) [0C9F5393] (AR v1)

All tracks accurately ripped

End of status report

–– CUETools DB Plugin V2.1.4

[CTDB TOCID: trVlGLSaWJQlmJSNVb.SbqI6ZmQ-] found
Submit result: trVlGLSaWJQlmJSNVb.SbqI6ZmQ- has been confirmed
Track | CTDB Status
1 | (1/1) Accurately ripped
2 | (1/1) Accurately ripped
3 | (1/1) Accurately ripped


==== Log checksum 8EAD4D648F8304F8BFD7EFA648D90AE0486564A1A665B11AF7CC3DB5FFD25BDE ====





Dio - The Singles Box Set (2012, 15CD)

Disc 2 - Rainbow In The Dark
EAC Rip | FLAC, IMG+CUE+LOG | 125 MB | MP3 CBR 320 Kbps | 40 MB
Label: Universal Music #00602537091362 | RAR 3% Rec. | FilePost

Tracklist :

1. Rainbow In The Dark - 4:16
2. Stand Up And Shout (Live at Donnington Castle, 1983) - 4:24
3. Straight Through The Heart (Live at Donnington Castle, 1983) - 4:45

Exact Audio Copy V1.0 beta 3 from 29. August 2011

EAC extraction logfile from 26. October 2012, 19:26

Dio / Rainbow In The Dark (The Singles Collection, Disc 2)

Used drive : PIONEER DVD-RW DVR-219L Adapter: 1 ID: 0

Read mode : Secure
Utilize accurate stream : Yes
Defeat audio cache : Yes
Make use of C2 pointers : No

Read offset correction : 6
Overread into Lead-In and Lead-Out : No
Fill up missing offset samples with silence : Yes
Delete leading and trailing silent blocks : No
Null samples used in CRC calculations : Yes
Used interface : Native Win32 interface for Win NT & 2000

Used output format : Internal WAV Routines
Sample format : 44.100 Hz; 16 Bit; Stereo


TOC of the extracted CD

Track | Start | Length | Start sector | End sector
––––––––––––––––––––––––––––-
1 | 0:00.00 | 4:16.00 | 0 | 19199
2 | 4:16.00 | 4:23.65 | 19200 | 38989
3 | 8:39.65 | 4:45.28 | 38990 | 60392


Range status and errors

Selected range

Filename D:\.www.AvaxHome.ru\Dio - Rainbow In The Dark (The Singles Collection, Disc 2).wav

Peak level 97.0 %
Extraction speed 5.3 X
Range quality 100.0 %
Test CRC CE622172
Copy CRC CE622172
Copy OK

No errors occurred


AccurateRip summary

Track 1 accurately ripped (confidence 1) [76E06FE0] (AR v1)
Track 2 accurately ripped (confidence 1) [550DA310] (AR v1)
Track 3 accurately ripped (confidence 1) [17C5C3CC] (AR v1)

All tracks accurately ripped

End of status report

–– CUETools DB Plugin V2.1.4

[CTDB TOCID: prBJ.Hcqavqa3wHjTN.4eLVe2mo-] found
Submit result: prBJ.Hcqavqa3wHjTN.4eLVe2mo- has been confirmed
Track | CTDB Status
1 | (1/1) Accurately ripped
2 | (1/1) Accurately ripped
3 | (1/1) Accurately ripped


==== Log checksum 2A382CB2ECE2FCDEC6A5A7243C1B4591236E39708AB0EBD325FB940177197303 ====





Dio - The Singles Box Set (2012, 15CD)

Disc 3 - The Last in Line
EAC Rip | FLAC, IMG+CUE+LOG | 135 MB | MP3 CBR 320 Kbps | 45 MB
Label: Universal Music #00602537091379 | RAR 3% Rec. | FilePost

Tracklist :

1. The Last In Line - 5:48
2. Stand Up And Shout (Live at Donnington Castle, 1983) - 4:24
3. Straight Through The Heart (Live at Donnington Castle, 1983) - 4:45

Exact Audio Copy V1.0 beta 3 from 29. August 2011

EAC extraction logfile from 26. October 2012, 19:40

Dio / The Last in Line (The Singles Collection, Disc 3)

Used drive : PIONEER DVD-RW DVR-219L Adapter: 1 ID: 0

Read mode : Secure
Utilize accurate stream : Yes
Defeat audio cache : Yes
Make use of C2 pointers : No

Read offset correction : 6
Overread into Lead-In and Lead-Out : No
Fill up missing offset samples with silence : Yes
Delete leading and trailing silent blocks : No
Null samples used in CRC calculations : Yes
Used interface : Native Win32 interface for Win NT & 2000

Used output format : Internal WAV Routines
Sample format : 44.100 Hz; 16 Bit; Stereo


TOC of the extracted CD

Track | Start | Length | Start sector | End sector
––––––––––––––––––––––––––––-
1 | 0:00.00 | 5:47.69 | 0 | 26093
2 | 5:47.69 | 4:24.21 | 26094 | 45914
3 | 10:12.15 | 4:45.35 | 45915 | 67324


Range status and errors

Selected range

Filename D:\.www.AvaxHome.ru\Dio - The Last in Line (The Singles Collection, Disc 3).wav

Peak level 96.4 %
Extraction speed 5.4 X
Range quality 100.0 %
Test CRC 654DECD0
Copy CRC 654DECD0
Copy OK

No errors occurred


AccurateRip summary

Track 1 accurately ripped (confidence 1) [51079A04] (AR v1)
Track 2 accurately ripped (confidence 1) [A3577D62] (AR v1)
Track 3 accurately ripped (confidence 1) [8848F77E] (AR v1)

All tracks accurately ripped

End of status report

–– CUETools DB Plugin V2.1.4

[CTDB TOCID: 2VS8O7km8oKnp8BrjdXxfvJFrBE-] found
Submit result: 2VS8O7km8oKnp8BrjdXxfvJFrBE- has been confirmed
Track | CTDB Status
1 | (1/1) Accurately ripped
2 | (1/1) Accurately ripped
3 | (1/1) Accurately ripped


==== Log checksum 012D724FB4EDB579F83541BFDA4603F69F766372921FF2168D99EC6F96EDD258 ====





Dio - The Singles Box Set (2012, 15CD)

Disc 4 - We Rock
EAC Rip | FLAC, IMG+CUE+LOG | 130 MB | MP3 CBR 320 Kbps | 40 MB
Label: Universal Music #00602537091386 | RAR 3% Rec. | FilePost

Tracklist :

1. We Rock - 4:34
2. Holy Diver (Live at Donnington Castle, 1983) - 4:30
3. Rainbow In The Dark (Live at Donnington Castle, 1983) - 4:49

Exact Audio Copy V1.0 beta 3 from 29. August 2011

EAC extraction logfile from 26. October 2012, 20:43

Dio / We Rock (The Singles Collection, Disc 4)

Used drive : PIONEER DVD-RW DVR-219L Adapter: 1 ID: 0

Read mode : Secure
Utilize accurate stream : Yes
Defeat audio cache : Yes
Make use of C2 pointers : No

Read offset correction : 6
Overread into Lead-In and Lead-Out : No
Fill up missing offset samples with silence : Yes
Delete leading and trailing silent blocks : No
Null samples used in CRC calculations : Yes
Used interface : Native Win32 interface for Win NT & 2000

Used output format : Internal WAV Routines
Sample format : 44.100 Hz; 16 Bit; Stereo


TOC of the extracted CD

Track | Start | Length | Start sector | End sector
––––––––––––––––––––––––––––-
1 | 0:00.00 | 4:34.30 | 0 | 20579
2 | 4:34.30 | 4:29.44 | 20580 | 40798
3 | 9:03.74 | 4:48.69 | 40799 | 62467


Range status and errors

Selected range

Filename D:\.www.AvaxHome.ru\Dio - We Rock (The Singles Collection, Disc 4).wav

Peak level 97.0 %
Extraction speed 5.3 X
Range quality 100.0 %
Test CRC 2ECF8B62
Copy CRC 2ECF8B62
Copy OK

No errors occurred


AccurateRip summary

Track 1 accurately ripped (confidence 1) [E9E9C63D] (AR v1)
Track 2 accurately ripped (confidence 1) [AB597F40] (AR v1)
Track 3 accurately ripped (confidence 1) [4478D08A] (AR v1)

All tracks accurately ripped

End of status report

–– CUETools DB Plugin V2.1.4

[CTDB TOCID: F_dpgcuBw7lMRdDz8y8uNtypefw-] found
Submit result: F_dpgcuBw7lMRdDz8y8uNtypefw- has been confirmed
Track | CTDB Status
1 | (1/1) Accurately ripped
2 | (1/1) Accurately ripped
3 | (1/1) Accurately ripped


==== Log checksum 61A0FC5FC80326108E3CE0C76A9DCA02F277D5D5B4C441CDAA463731420002A9 ====





Dio - The Singles Box Set (2012, 15CD)

Disc 5 - Mystery
EAC Rip | FLAC, IMG+CUE+LOG | 150 MB | MP3 CBR 320 Kbps | 45 MB
Label: Universal Music #00602537091393 | RAR 3% Rec. | FilePost

Tracklist :

1. Mystery - 3:42
2. Eat Your Heart Out (Live at Spokane Coliseum, 1984) - 5:13
3. Don t Talk To Strangers (Live at Spokane Coliseum, 1984) - 6:06

Exact Audio Copy V1.0 beta 3 from 29. August 2011

EAC extraction logfile from 26. October 2012, 20:54

Dio / Mystery (The Singles Collection, Disc 5)

Used drive : PIONEER DVD-RW DVR-219L Adapter: 1 ID: 0

Read mode : Secure
Utilize accurate stream : Yes
Defeat audio cache : Yes
Make use of C2 pointers : No

Read offset correction : 6
Overread into Lead-In and Lead-Out : No
Fill up missing offset samples with silence : Yes
Delete leading and trailing silent blocks : No
Null samples used in CRC calculations : Yes
Used interface : Native Win32 interface for Win NT & 2000

Used output format : Internal WAV Routines
Sample format : 44.100 Hz; 16 Bit; Stereo


TOC of the extracted CD

Track | Start | Length | Start sector | End sector
––––––––––––––––––––––––––––-
1 | 0:00.00 | 3:41.56 | 0 | 16630
2 | 3:41.56 | 5:12.38 | 16631 | 40068
3 | 8:54.19 | 6:06.05 | 40069 | 67523


Range status and errors

Selected range

Filename D:\.www.AvaxHome.ru\Dio - Mystery (The Singles Collection, Disc 5).wav

Peak level 97.0 %
Extraction speed 5.4 X
Range quality 100.0 %
Test CRC C9C02A5B
Copy CRC C9C02A5B
Copy OK

No errors occurred


AccurateRip summary

Track 1 accurately ripped (confidence 1) [C3926DB6] (AR v1)
Track 2 accurately ripped (confidence 1) [DAB2D8CB] (AR v1)
Track 3 accurately ripped (confidence 1) [4EDA301F] (AR v1)

All tracks accurately ripped

End of status report

–– CUETools DB Plugin V2.1.4

[CTDB TOCID: cVD2BL8vHK9GsifHYvy9AQ2oz8k-] found
Submit result: cVD2BL8vHK9GsifHYvy9AQ2oz8k- has been confirmed
Track | CTDB Status
1 | (1/1) Accurately ripped
2 | (1/1) Accurately ripped
3 | (1/1) Accurately ripped


==== Log checksum 1997203909B99A42D3B185FD6A13C335CDDE03740E89D730618B4CE48D295C45 ====






Dio - The Singles Box Set (2012, 15CD)

Disc 6 - Rock 'N' Roll Children
EAC Rip | FLAC, IMG+CUE+LOG | 130 MB | MP3 CBR 320 Kbps | 45 MB
Label: Universal Music #00602537091409 | RAR 3% Rec. | FilePost

Tracklist :

1. Rock 'N' Roll Children - 4:34
2. We Rock (Live at The Spectrum, 1985) - 4:49
3. The Last In Line (Live at The Spectrum, 1985) - 5:20

Exact Audio Copy V1.0 beta 3 from 29. August 2011

EAC extraction logfile from 26. October 2012, 21:11

Dio / Rock 'N' Roll Children (The Singles Collection, Disc 6)

Used drive : PIONEER DVD-RW DVR-219L Adapter: 1 ID: 0

Read mode : Secure
Utilize accurate stream : Yes
Defeat audio cache : Yes
Make use of C2 pointers : No

Read offset correction : 6
Overread into Lead-In and Lead-Out : No
Fill up missing offset samples with silence : Yes
Delete leading and trailing silent blocks : No
Null samples used in CRC calculations : Yes
Used interface : Native Win32 interface for Win NT & 2000

Used output format : Internal WAV Routines
Sample format : 44.100 Hz; 16 Bit; Stereo


TOC of the extracted CD

Track | Start | Length | Start sector | End sector
––––––––––––––––––––––––––––-
1 | 0:00.00 | 4:34.11 | 0 | 20560
2 | 4:34.11 | 4:49.26 | 20561 | 42261
3 | 9:23.37 | 5:19.60 | 42262 | 66246


Range status and errors

Selected range

Filename D:\.www.AvaxHome.ru\Dio - Rock 'N' Roll Children (The Singles Collection, Disc 6).wav

Peak level 96.5 %
Extraction speed 5.3 X
Range quality 100.0 %
Test CRC 6F78D101
Copy CRC 6F78D101
Copy OK

No errors occurred


AccurateRip summary

Track 1 accurately ripped (confidence 1) [DBB10F84] (AR v1)
Track 2 accurately ripped (confidence 1) [25A4922C] (AR v1)
Track 3 accurately ripped (confidence 1) [B1680A37] (AR v1)

All tracks accurately ripped

End of status report

–– CUETools DB Plugin V2.1.4

[CTDB TOCID: 9HLdbiGBt_GdjSHCbEH0gOau5m0-] found
Submit result: 9HLdbiGBt_GdjSHCbEH0gOau5m0- has been confirmed
Track | CTDB Status
1 | (1/1) Accurately ripped
2 | (1/1) Accurately ripped
3 | (1/1) Accurately ripped


==== Log checksum EABC687F084CB4FD2F47DE172FD2F4735808884F9D06C02FA46D8551178183AC ====






Dio - The Singles Box Set (2012, 15CD)

Disc 7 - Hungry For Heaven
EAC Rip | FLAC, IMG+CUE+LOG | 110 MB | MP3 CBR 320 Kbps | 40 MB
Label: Universal Music #00602537091416 | RAR 3% Rec. | FilePost

Tracklist :

1. Hungry For Heaven - 4:11
2. King Of Rock N Roll (Live at The Spectrum, 1985) - 3:35
3. Like The Beat Of A Heart (Live at The Spectrum, 1985) - 5:04

Exact Audio Copy V1.0 beta 3 from 29. August 2011

EAC extraction logfile from 26. October 2012, 21:28

Dio / Hungry For Heaven (The Singles Collection, Disc 7)

Used drive : PIONEER DVD-RW DVR-219L Adapter: 1 ID: 0

Read mode : Secure
Utilize accurate stream : Yes
Defeat audio cache : Yes
Make use of C2 pointers : No

Read offset correction : 6
Overread into Lead-In and Lead-Out : No
Fill up missing offset samples with silence : Yes
Delete leading and trailing silent blocks : No
Null samples used in CRC calculations : Yes
Used interface : Native Win32 interface for Win NT & 2000

Used output format : Internal WAV Routines
Sample format : 44.100 Hz; 16 Bit; Stereo


TOC of the extracted CD

Track | Start | Length | Start sector | End sector
––––––––––––––––––––––––––––-
1 | 0:00.00 | 4:10.41 | 0 | 18790
2 | 4:10.41 | 3:35.07 | 18791 | 34922
3 | 7:45.48 | 5:03.70 | 34923 | 57717


Range status and errors

Selected range

Filename D:\.www.AvaxHome.ru\Dio - Hungry For Heaven (The Singles Collection, Disc 7).wav

Peak level 97.0 %
Extraction speed 5.0 X
Range quality 99.9 %
Test CRC 59FA24E5
Copy CRC 59FA24E5
Copy OK

No errors occurred


AccurateRip summary

Track 1 accurately ripped (confidence 1) [6B7F4A6E] (AR v1)
Track 2 accurately ripped (confidence 1) [561A1AA3] (AR v1)
Track 3 accurately ripped (confidence 1) [BBBB1DE4] (AR v1)

All tracks accurately ripped

End of status report

–– CUETools DB Plugin V2.1.4

[CTDB TOCID: aMdM7O76x.P3rrP3TSZPYs4E.RA-] found
Submit result: aMdM7O76x.P3rrP3TSZPYs4E.RA- has been confirmed
Track | CTDB Status
1 | (1/1) Accurately ripped
2 | (1/1) Accurately ripped
3 | (1/1) Accurately ripped


==== Log checksum F6A979D60C5DB19D9702290E7D473F9532C370BEDA8433BB76422227841ACE5C ====





Dio - The Singles Box Set (2012, 15CD)

Disc 8 - Like The Beat Of A Heart
EAC Rip | FLAC, IMG+CUE+LOG | 135 MB | MP3 CBR 320 Kbps | 40 MB
Label: Universal Music #00602537092321 | RAR 3% Rec. | FilePost

Tracklist :

1. Like The Beat Of A Heart (Live at The Spectrum, 1985) - 5:05
2. We Rock (Live at The Spectrum, 1984) - 4:45
3. Holy Diver (Live at Donnington Castle, 1983) - 4:30

Exact Audio Copy V1.0 beta 3 from 29. August 2011

EAC extraction logfile from 26. October 2012, 22:48

Dio / Like The Beat Of A Heart (The Singles Collection, Disc 8)

Used drive : PIONEER DVD-RW DVR-219L Adapter: 1 ID: 0

Read mode : Secure
Utilize accurate stream : Yes
Defeat audio cache : Yes
Make use of C2 pointers : No

Read offset correction : 6
Overread into Lead-In and Lead-Out : No
Fill up missing offset samples with silence : Yes
Delete leading and trailing silent blocks : No
Null samples used in CRC calculations : Yes
Used interface : Native Win32 interface for Win NT & 2000

Used output format : Internal WAV Routines
Sample format : 44.100 Hz; 16 Bit; Stereo


TOC of the extracted CD

Track | Start | Length | Start sector | End sector
––––––––––––––––––––––––––––-
1 | 0:00.00 | 5:04.54 | 0 | 22853
2 | 5:04.54 | 4:44.38 | 22854 | 44191
3 | 9:49.17 | 4:29.55 | 44192 | 64421


Range status and errors

Selected range

Filename D:\.www.AvaxHome.ru\Dio - Like The Beat Of A Heart (The Singles Collection, Disc 8).wav

Peak level 97.0 %
Extraction speed 5.3 X
Range quality 100.0 %
Test CRC 2641AA41
Copy CRC 2641AA41
Copy OK

No errors occurred


AccurateRip summary

Track 1 accurately ripped (confidence 1) [C61F21BD] (AR v1)
Track 2 accurately ripped (confidence 1) [65182DB4] (AR v1)
Track 3 accurately ripped (confidence 1) [51ADC723] (AR v1)

All tracks accurately ripped

End of status report

–– CUETools DB Plugin V2.1.4

[CTDB TOCID: FLsi3KbzYZPq2f6.QspW0UTgNaU-] found
Submit result: FLsi3KbzYZPq2f6.QspW0UTgNaU- has been confirmed
Track | CTDB Status
1 | (1/1) Accurately ripped
2 | (1/1) Accurately ripped
3 | (1/1) Accurately ripped


==== Log checksum 7D2B37F4278EC39787EF1C961739E246EAB68515199E02072909D99F6D471CB5 ====





Dio - The Singles Box Set (2012, 15CD)

Disc 9 - The Dio E.P.
EAC Rip | FLAC, IMG+CUE+LOG | 200 MB | MP3 CBR 320 Kbps | 60 MB
Label: Universal Music #00602537092338 | RAR 3% Rec. | FilePost

Tracklist :

1. Hide In The Rainbow - 3:59
2. Hungry For Heaven - 4:10
3. Shame On The Night - 5:17
4. Egypt (The Chains Are On) - 6:57

Exact Audio Copy V1.0 beta 3 from 29. August 2011

EAC extraction logfile from 26. October 2012, 23:03

Dio / The Dio E.P. (The Singles Collection, Disc 9)

Used drive : PIONEER DVD-RW DVR-219L Adapter: 1 ID: 0

Read mode : Secure
Utilize accurate stream : Yes
Defeat audio cache : Yes
Make use of C2 pointers : No

Read offset correction : 6
Overread into Lead-In and Lead-Out : No
Fill up missing offset samples with silence : Yes
Delete leading and trailing silent blocks : No
Null samples used in CRC calculations : Yes
Used interface : Native Win32 interface for Win NT & 2000

Used output format : Internal WAV Routines
Sample format : 44.100 Hz; 16 Bit; Stereo


TOC of the extracted CD

Track | Start | Length | Start sector | End sector
––––––––––––––––––––––––––––-
1 | 0:00.00 | 3:58.48 | 0 | 17897
2 | 3:58.48 | 4:10.25 | 17898 | 36672
3 | 8:08.73 | 5:16.74 | 36673 | 60446
4 | 13:25.72 | 6:57.02 | 60447 | 91723


Range status and errors

Selected range

Filename D:\.www.AvaxHome.ru\Dio - The Dio E.P. (The Singles Collection, Disc 9).wav

Peak level 97.0 %
Extraction speed 5.6 X
Range quality 100.0 %
Test CRC 60FD57FA
Copy CRC 60FD57FA
Copy OK

No errors occurred


AccurateRip summary

Track 1 accurately ripped (confidence 1) [4F1541E8] (AR v1)
Track 2 accurately ripped (confidence 1) [BD9DDC44] (AR v1)
Track 3 accurately ripped (confidence 1) [879A95E2] (AR v1)
Track 4 accurately ripped (confidence 1) [B0AC4E1F] (AR v1)

All tracks accurately ripped

End of status report

–– CUETools DB Plugin V2.1.4

[CTDB TOCID: m__eppyyBxjR00xRKIL8bri9lik-] found
Submit result: m__eppyyBxjR00xRKIL8bri9lik- has been confirmed
Track | CTDB Status
1 | (1/1) Accurately ripped
2 | (1/1) Accurately ripped
3 | (1/1) Accurately ripped
4 | (1/1) Accurately ripped


==== Log checksum 391D8FBB3C6291322E3770BF20985760EF1923F8A773DAB1BC7B48253BBFDEE0 ====






Dio - The Singles Box Set (2012, 15CD)

Disc 10 - I Could Have Been A Dreamer
EAC Rip | FLAC, IMG+CUE+LOG | 125 MB | MP3 CBR 320 Kbps | 45 MB
Label: Universal Music #00602537092345 | RAR 3% Rec. | FilePost

Tracklist :

1. I Could Have Been A Dreamer - 4:46
2. Night People - 4:08
3. Sunset Superman - 5:47

Exact Audio Copy V1.0 beta 3 from 29. August 2011

EAC extraction logfile from 26. October 2012, 23:18

Dio / I Could Have Been A Dreamer (The Singles Collection, Disc 10)

Used drive : PIONEER DVD-RW DVR-219L Adapter: 1 ID: 0

Read mode : Secure
Utilize accurate stream : Yes
Defeat audio cache : Yes
Make use of C2 pointers : No

Read offset correction : 6
Overread into Lead-In and Lead-Out : No
Fill up missing offset samples with silence : Yes
Delete leading and trailing silent blocks : No
Null samples used in CRC calculations : Yes
Used interface : Native Win32 interface for Win NT & 2000

Used output format : Internal WAV Routines
Sample format : 44.100 Hz; 16 Bit; Stereo


TOC of the extracted CD

Track | Start | Length | Start sector | End sector
––––––––––––––––––––––––––––-
1 | 0:00.00 | 4:45.59 | 0 | 21433
2 | 4:45.59 | 4:07.58 | 21434 | 40016
3 | 8:53.42 | 5:47.20 | 40017 | 66061


Range status and errors

Selected range

Filename D:\.www.AvaxHome.ru\Dio - I Could Have Been A Dreamer (The Singles Collection, Disc 10).wav

Peak level 95.6 %
Extraction speed 5.2 X
Range quality 99.9 %
Test CRC 4A95E815
Copy CRC 4A95E815
Copy OK

No errors occurred


AccurateRip summary

Track 1 accurately ripped (confidence 1) [017D21FF] (AR v1)
Track 2 accurately ripped (confidence 1) [40FEB601] (AR v1)
Track 3 accurately ripped (confidence 1) [737BA45B] (AR v1)

All tracks accurately ripped

End of status report

–– CUETools DB Plugin V2.1.4

[CTDB TOCID: OQPOOx7SXhEtZy0Dtx1BSjATCUE-] found
Submit result: OQPOOx7SXhEtZy0Dtx1BSjATCUE- has been confirmed
Track | CTDB Status
1 | (1/1) Accurately ripped
2 | (1/1) Accurately ripped
3 | (1/1) Accurately ripped


==== Log checksum 3871B2B4E1386E4BD65D9ED4D0FD085375BBC3371F6721C265FFD28877B97AD4 ====






Dio - The Singles Box Set (2012, 15CD)

Disc 11 - All The Fools Sailed Away
EAC Rip | FLAC, IMG+CUE+LOG | 100 MB | MP3 CBR 320 Kbps | 35 MB
Label: Universal Music #00602537092369 | RAR 3% Rec. | FilePost

Tracklist :

1. All The Fools Sailed Away (7" Version) - 7:14
2. Overlove - 3:46

Exact Audio Copy V1.0 beta 3 from 29. August 2011

EAC extraction logfile from 26. October 2012, 23:48

Dio / All The Fools Sailed Away (The Singles Collection, Disc 11)

Used drive : PIONEER DVD-RW DVR-219L Adapter: 1 ID: 0

Read mode : Secure
Utilize accurate stream : Yes
Defeat audio cache : Yes
Make use of C2 pointers : No

Read offset correction : 6
Overread into Lead-In and Lead-Out : No
Fill up missing offset samples with silence : Yes
Delete leading and trailing silent blocks : No
Null samples used in CRC calculations : Yes
Used interface : Native Win32 interface for Win NT & 2000

Used output format : Internal WAV Routines
Sample format : 44.100 Hz; 16 Bit; Stereo


TOC of the extracted CD

Track | Start | Length | Start sector | End sector
––––––––––––––––––––––––––––-
1 | 0:00.00 | 7:14.13 | 0 | 32562
2 | 7:14.13 | 3:45.62 | 32563 | 49499


Range status and errors

Selected range

Filename D:\.www.AvaxHome.ru\Dio - All The Fools Sailed Away (The Singles Collection, Disc 11).wav

Peak level 97.0 %
Extraction speed 4.9 X
Range quality 99.9 %
Test CRC 568DBBD6
Copy CRC 568DBBD6
Copy OK

No errors occurred


AccurateRip summary

Track 1 accurately ripped (confidence 1) [C45CA2A6] (AR v1)
Track 2 accurately ripped (confidence 1) [4778B442] (AR v1)

All tracks accurately ripped

End of status report

–– CUETools DB Plugin V2.1.4

[CTDB TOCID: jE0tZ5gXunASoKhuIVBozBhKM8g-] found
Submit result: jE0tZ5gXunASoKhuIVBozBhKM8g- has been confirmed
Track | CTDB Status
1 | (1/1) Accurately ripped
2 | (1/1) Accurately ripped


==== Log checksum D86B661695FA961EF9AD38ABF02F9F87EA06B1879BB052552708A2995DF685F3 ====





Dio - The Singles Box Set (2012, 15CD)

Disc 12 - Hey Angel
EAC Rip | FLAC, IMG+CUE+LOG | 160 MB | MP3 CBR 320 Kbps | 50 MB
Label: Universal Music #00602537092376 | RAR 3% Rec. | FilePost

Tracklist :

1. Hey Angel - 4:54
2. Why Are They Watching Me - 4:49
3. Rock N Roll Children (Single Edit) - 4:13
4. Mystery - 3:41

Exact Audio Copy V1.0 beta 3 from 29. August 2011

EAC extraction logfile from 27. October 2012, 9:51

Dio / Hey Angel (The Singles Collection, Disc 12)

Used drive : PIONEER DVD-RW DVR-219L Adapter: 1 ID: 0

Read mode : Secure
Utilize accurate stream : Yes
Defeat audio cache : Yes
Make use of C2 pointers : No

Read offset correction : 6
Overread into Lead-In and Lead-Out : No
Fill up missing offset samples with silence : Yes
Delete leading and trailing silent blocks : No
Null samples used in CRC calculations : Yes
Used interface : Native Win32 interface for Win NT & 2000

Used output format : Internal WAV Routines
Sample format : 44.100 Hz; 16 Bit; Stereo


TOC of the extracted CD

Track | Start | Length | Start sector | End sector
––––––––––––––––––––––––––––-
1 | 0:00.00 | 4:53.57 | 0 | 22031
2 | 4:53.57 | 4:48.65 | 22032 | 43696
3 | 9:42.47 | 4:13.02 | 43697 | 62673
4 | 13:55.49 | 3:41.05 | 62674 | 79253


Range status and errors

Selected range

Filename D:\.www.AvaxHome.ru\Dio - Hey Angel (The Singles Collection, Disc 12).wav

Peak level 97.0 %
Extraction speed 5.4 X
Range quality 99.9 %
Test CRC 3B6CCA7A
Copy CRC 3B6CCA7A
Copy OK

No errors occurred


AccurateRip summary

Track 1 accurately ripped (confidence 1) [6DDA4B23] (AR v1)
Track 2 accurately ripped (confidence 1) [B3F18016] (AR v1)
Track 3 accurately ripped (confidence 1) [E28EA481] (AR v1)
Track 4 accurately ripped (confidence 1) [51F20CC1] (AR v1)

All tracks accurately ripped

End of status report

–– CUETools DB Plugin V2.1.4

[CTDB TOCID: J3E.J741BqubKAQ4HMeTo8icOBM-] found
Submit result: J3E.J741BqubKAQ4HMeTo8icOBM- has been confirmed
Track | CTDB Status
1 | (1/1) Accurately ripped
2 | (1/1) Accurately ripped
3 | (1/1) Accurately ripped
4 | (1/1) Accurately ripped


==== Log checksum CD1E9B11CC007950F12A7A43F8A2B28A223974B112342E73EE8F704201E40FE0 ====





Dio - The Singles Box Set (2012, 15CD)

Disc 13 - Jesus, Mary And The Holy Ghost
EAC Rip | FLAC, IMG+CUE+LOG | 125 MB | MP3 CBR 320 Kbps | 40 MB
Label: Universal Music #00602537092383 | RAR 3% Rec. | FilePost

Tracklist :

1. Jesus, Mary And The Holy Ghost - 4:10
2. Straight Through The Heart - 4:46
3. Shame On The Night (Live Version) - 4:38

Exact Audio Copy V1.0 beta 3 from 29. August 2011

EAC extraction logfile from 27. October 2012, 9:59

Dio / Jesus, Mary And The Holy Ghost (The Singles Collection, Disc 13)

Used drive : PIONEER DVD-RW DVR-219L Adapter: 1 ID: 0

Read mode : Secure
Utilize accurate stream : Yes
Defeat audio cache : Yes
Make use of C2 pointers : No

Read offset correction : 6
Overread into Lead-In and Lead-Out : No
Fill up missing offset samples with silence : Yes
Delete leading and trailing silent blocks : No
Null samples used in CRC calculations : Yes
Used interface : Native Win32 interface for Win NT & 2000

Used output format : Internal WAV Routines
Sample format : 44.100 Hz; 16 Bit; Stereo


TOC of the extracted CD

Track | Start | Length | Start sector | End sector
––––––––––––––––––––––––––––-
1 | 0:00.00 | 4:09.50 | 0 | 18724
2 | 4:09.50 | 4:46.36 | 18725 | 40210
3 | 8:56.11 | 4:38.12 | 40211 | 61072


Range status and errors

Selected range

Filename D:\.www.AvaxHome.ru\Dio - Jesus, Mary And The Holy Ghost (The Singles Collection, Disc 13).wav

Peak level 97.0 %
Extraction speed 5.3 X
Range quality 100.0 %
Test CRC D3F75A2D
Copy CRC D3F75A2D
Copy OK

No errors occurred


AccurateRip summary

Track 1 accurately ripped (confidence 1) [A50EF6E7] (AR v2)
Track 2 accurately ripped (confidence 1) [20840FF6] (AR v2)
Track 3 accurately ripped (confidence 1) [A35258B7] (AR v2)

All tracks accurately ripped

End of status report

–– CUETools DB Plugin V2.1.4

[CTDB TOCID: vZKRiebrKboxHKWP34FQj8ciXsA-] found
Submit result: vZKRiebrKboxHKWP34FQj8ciXsA- has been confirmed
Track | CTDB Status
1 | (1/1) Accurately ripped
2 | (1/1) Accurately ripped
3 | (1/1) Accurately ripped


==== Log checksum C8E01F09203BC54D3C507185B57FDBBA274F38D2E446DF5A67394D1C1903BAF5 ====





Dio - The Singles Box Set (2012, 15CD)

Disc 14 - Intermission
EAC Rip | FLAC, IMG+CUE+LOG | 280 MB | MP3 CBR 320 Kbps | 90 MB
Label: Universal Music #00602537103430 | RAR 3% Rec. | FilePost

Tracklist :

1. King Of Rock N Roll (Live at Intermission, 1986) - 3:43
2. Rainbow In The Dark (Live at Intermission, 1986 - 4:43
3. Sacred Heart (Live at Intermission, 1986) - 6:29
4. Time To Burn (Live at Intermission, 1986) - 4:26
5. Rock 'N' Roll Children (Live at Intermission, 1986) - 9:40
6. We Rock (Live at Intermission, 1986) - 4:59

Exact Audio Copy V1.0 beta 3 from 29. August 2011

EAC extraction logfile from 27. October 2012, 18:56

Dio / Intermission (The Singles Collection, Disc 14)

Used drive : PIONEER DVD-RW DVR-219L Adapter: 1 ID: 0

Read mode : Secure
Utilize accurate stream : Yes
Defeat audio cache : Yes
Make use of C2 pointers : No

Read offset correction : 6
Overread into Lead-In and Lead-Out : No
Fill up missing offset samples with silence : Yes
Delete leading and trailing silent blocks : No
Null samples used in CRC calculations : Yes
Used interface : Native Win32 interface for Win NT & 2000

Used output format : Internal WAV Routines
Sample format : 44.100 Hz; 16 Bit; Stereo


TOC of the extracted CD

Track | Start | Length | Start sector | End sector
––––––––––––––––––––––––––––-
1 | 0:00.00 | 3:42.60 | 0 | 16709
2 | 3:42.60 | 4:42.42 | 16710 | 37901
3 | 8:25.27 | 6:29.16 | 37902 | 67092
4 | 14:54.43 | 4:26.34 | 67093 | 87076
5 | 19:21.02 | 9:40.02 | 87077 | 130578
6 | 29:01.04 | 4:58.63 | 130579 | 152991


Range status and errors

Selected range

Filename D:\.www.AvaxHome.ru\Dio - Intermission (The Singles Collection, Disc 14).wav

Peak level 97.0 %
Extraction speed 6.4 X
Range quality 100.0 %
Test CRC D6AC39D2
Copy CRC D6AC39D2
Copy OK

No errors occurred


AccurateRip summary

Track 1 accurately ripped (confidence 1) [B191CF88] (AR v1)
Track 2 accurately ripped (confidence 1) [77DA5A7A] (AR v1)
Track 3 accurately ripped (confidence 1) [800EAB24] (AR v1)
Track 4 accurately ripped (confidence 1) [F0D62AE1] (AR v1)
Track 5 accurately ripped (confidence 1) [70BB1ADC] (AR v1)
Track 6 accurately ripped (confidence 1) [2554FD7B] (AR v1)

All tracks accurately ripped

End of status report

–– CUETools DB Plugin V2.1.4

[CTDB TOCID: c6NOyV9r3Jv8ecYH.YDVuuMWKG4-] found
Submit result: c6NOyV9r3Jv8ecYH.YDVuuMWKG4- has been confirmed
Track | CTDB Status
1 | (1/1) Accurately ripped
2 | (1/1) Accurately ripped
3 | (1/1) Accurately ripped
4 | (1/1) Accurately ripped
5 | (1/1) Accurately ripped
6 | (1/1) Accurately ripped


==== Log checksum 530568238ABAE8E26C20CC22F3BDDD53FBB5DB334CF214C9C77DC0E2D93DC3EF ====





Dio - The Singles Box Set (2012, 15CD)

Disc 15 - The Videos (1983-1993)
DVD -> Folder | PAL 720x576, 4:3, 29.970 fps | ~ 45 min | English AC3 48000Hz 2ch 192Kbps | 2.5 GB
Label: Universal Music #00602537089697 | RAR 3% Rec. | FilePost

Tracklist :

1. Holy Diver - 4:30
2. Rainbow In The Dark - 4:08
3. The Last In Line - 3:52
4. Mystery - 3:25
5. We Rock - 4:35
6. Hungry For Heaven - 4:07
7. Rock 'N' Roll Children - 5:40
8. King Of Rock 'N' Roll - 3:43
9. I Could Have Been A Dreamer - 3:47
10. All The Fools Sailed Away - 4:28
11. Stand Up And Shout - 3:58
12. Hey Angel - 4:16

Please, do not write these links at any web pages. Enjoy & keep the files alive!
* - EAC Image, standard LOG, embedded cuesheet, Foobar2000 ready
Download lossless* (flac) + covers + DVD via FilePost.com:
***
Disc 01 - Holy Diver -> Lossless.rar | Lossy HQ (320 Kbps CBR).rar
Disc 02 - Rainbow In The Dark -> Lossless.rar | Lossy HQ (320 Kbps CBR).rar
Disc 03 - The Last in Line -> Lossless.rar | Lossy HQ (320 Kbps CBR).rar
Disc 04 - We Rock -> Lossless.rar | Lossy HQ (320 Kbps CBR).rar
Disc 05 - Mystery -> Lossless.rar | Lossy HQ (320 Kbps CBR).rar
Disc 06 - Rock 'N' Roll Children -> Lossless.rar | Lossy HQ (320 Kbps CBR).rar
Disc 07 - Hungry For Heaven -> Lossless.rar | Lossy HQ (320 Kbps CBR).rar
Disc 08 - Like The Beat Of A Heart -> Lossless.rar | Lossy HQ (320 Kbps CBR).rar
Disc 09 - The Dio E.P. -> Lossless.rar | Lossy HQ (320 Kbps CBR).rar
Disc 10 - I Could Have Been A Dreamer -> Lossless.rar | Lossy HQ (320 Kbps CBR).rar
Disc 11 - All The Fools Sailed Away -> Lossless.rar | Lossy HQ (320 Kbps CBR).rar
Disc 12 - Hey Angel -> Lossless.rar | Lossy HQ (320 Kbps CBR).rar
Disc 13 - Jesus, Mary And The Holy Ghost -> Lossless.rar | Lossy HQ (320 Kbps CBR).rar
Disc 14 - Intermission -> Lossless.rar | Lossy HQ (320 Kbps CBR).rar
***
Disc 15 - The Videos (1983-1993)
DVD part1.rar | DVD part2.rar | DVD part3.rar | DVD part4.rar | DVD part5.rar
***
Box Covers + Book.rar