Subcategories

Dire Straits: Discography (1978 - 1991) [Vinyl Rip 16/44 & mp3-320]

Posted By: v3122
Dire Straits: Discography (1978 - 1991) [Vinyl Rip 16/44 & mp3-320]

Dire Straits: Discography (1978 - 1991)
6 x Vinyl Rip 16/44 | Flac(Image + Cue) > 1643 Mb
MP3 CBR 320Kbps > 664 Mb | Artwork(jpg) > 647 Mb
2013 | Mercury Records Ltd | Remastered
Blues Rock / Classic Rock / Pop Rock

Dire Straits emerged during the post-punk era of the late '70s, and while their sound was minimalistic and stripped down, they owed little to punk. If anything, the band was a direct outgrowth of the roots revivalism of pub rock, but where pub rock celebrated good times, Dire Straits were melancholy. Led by guitarist/vocalist Mark Knopfler, the group built their sound upon the laid-back blues-rock of J.J. Cale, but they also had jazz and country inflections, occasionally dipping into the epic song structures of progressive rock. The band's music was offset by Knopfler's lyrics, which approximated the winding, stream-of-conscious narratives of Bob Dylan. As their career progressed, Dire Straits became more refined and their new maturity happened to coincide with the rise of MTV and the compact disc. These two musical revolutions from the mid-'80s helped make Dire Straits' sixth album, Brothers in Arms, an international blockbuster. The band – along with Eric Clapton, Phil Collins, and Steve Winwood – become one of the leaders of a group of self-consciously mature veteran rock & rollers in the late '80s that designed their music to appeal to aging baby boomers. Despite the band's international success, they couldn't sustain their stardom, waiting a full six years to deliver a follow-up to Brothers in Arms, by which time their audience had shrunk significantly.

Knopfler (born August 12, 1949) was always the main force behind Dire Straits. The son of an architect, Knopfler studied English literature at Leeds University and worked briefly as a rock critic for the Yorkshire Evening Post while at college. He began teaching English after his graduation, leading a pub rock band called Brewer's Droop at night. By 1977, Mark was playing with his brother David (guitar) and his roommate John Illsley (bass). During the summer of 1977, the trio cut a demo with drummer Pick Withers. A London DJ named Charlie Gillett heard the demo and began playing "Sultans of Swing" on his BBC show Honky Tonkin'. Following a tour opening for Talking Heads, the band began recording their debut for Vertigo Records with producer Muff Winwood in early 1978. By the summer, they had signed with Warner in America, releasing their eponymous debut in the fall. Thanks to the Top Ten hit "Sultans of Swing," Dire Straits was a major success in both Britain and America, with the single and album climbing into the Top Ten on both sides of the Atlantic.

Dire Straits established Dire Straits as a major force on album-oriented radio in America, and their second album, Communique (1979), consolidated their audience, selling three million copies worldwide. As the group was recording its third album, David Knopfler left the band to pursue a solo career; he was replaced by former Darling member Hal Lindes. Like its predecessor, Making Movies was a sizable hit in America and Britain, even though the band was criticized for musically treading water. Nevertheless, the record went gold on the strength of the radio and MTV hits "Romeo and Juliet" and "Skateaway." Dire Straits followed the album two years later with Love Over Gold, an album filled with long, experimental passages, plus the single "Private Investigations," which became a number two hit in the U.K. The album went gold in America and spent four weeks at number one in Britain. Shortly after the release of Love Over Gold, former Rockpile drummer Terry Williams replaced Withers.

During 1982, Knopfler began exploring musical avenues outside of Dire Straits, scoring the Bill Forsyth film Local Hero and playing on Van Morrison's Beautiful Vision. Apart from releasing the Twisting by the Pool EP early in 1983, Dire Straits were quiet for the majority of 1983 and 1984, as Knopfler produced Bob Dylan's Infidels, as well as Aztec Camera and Willy DeVille; he also wrote "Private Dancer for Tina Turner's comeback album. In the spring of 1984, the band released the double album Alchemy: Dire Straits Live and by the end of the year, they had begun recording their fifth studio album with their new keyboardist, Guy Fletcher.

Released in the summer of 1985, Brothers in Arms was Dire Straits' breakthrough album, making the band international stars. Supported by the groundbreaking computer-animated video for "Money for Nothing," a song which mocked music videos, the album became a blockbuster, spending nine weeks at the top of the American charts and selling over nine million copies; in England, the album became the biggest-selling album of the '80s. "Walk of Life" and "So Far Away" kept Brothers in Arms in the charts through 1986, and Dire Straits played over 200 dates in support of the album. Once the tour was completed, Dire Straits went on hiatus for several years, as Knopfler produced records by Randy Newman and Joan Armatrading, scored films, toured with Eric Clapton, and recorded a duet album with Chet Atkins (Neck and Neck, 1990). In 1989, he formed the country-rock group Notting Hillbillies, whose sole album, Missing…Presumed Having a Good Time, became a British hit upon its spring 1990 release. During the extended time off, John Illsley recorded his second album; the first appeared in 1984.

In 1990, Knopfler reconvened Dire Straits, which now featured Illsley, Clark, Fletcher, and various session musicians. The band released On Every Street in the fall of 1991 to great anticipation. However, the album failed to meet expectations – it only went platinum in America and it didn't crack the U.K. Top 40 – and failed to generate a hit single. Similarly, the tour was a disappointment, with many tickets going unsold in both the U.S. and Europe. Once the tour was completed, the live album On the Night was released in the spring of 1993 and the band again went on hiatus. In 1996, Knopfler launched his solo career with Golden Heart.

by Stephen Thomas Erlewine, allmusic
Dire Straits: Discography (1978 - 1991) [Vinyl Rip 16/44 & mp3-320]


Dire Straits: Discography (1978 - 1991) [Vinyl Rip 16/44 & mp3-320]:

Dire Straits: Discography (1978 - 1991) [Vinyl Rip 16/44 & mp3-320]

Tracklist VNL01 - Dire Straits (1978):
DE LP 2013 Mercury Records Ltd. • 375 290-2

A1. Down To The Waterline [04:00]
A2. Water Of Love [05:27]
A3. Setting Me Up [03:19]
A4. Six Blade Knife [04:12]
A5. Southbound Again [03:00]
B1. Sultans Of Swing [05:49]
B2. In The Gallery [06:17]
B3. Wild West End [04:42]
B4. Lions [05:07]

foobar2000 1.2.9 / Dynamic Range Meter 1.1.1
log date: 2016-12-20 13:24:32

––––––––––––––––––––––––––––––––––––––––
Analyzed: DIRE STRAITS / Dire Straits
––––––––––––––––––––––––––––––––––––––––

DR Peak RMS Duration Track
––––––––––––––––––––––––––––––––––––––––
DR14 -3.56 dB -19.98 dB 4:00 01-Down To The Waterline
DR13 -3.82 dB -19.78 dB 5:27 02-Water Of Love
DR13 -3.97 dB -19.38 dB 3:19 03-Setting Me Up
DR15 -4.87 dB -22.65 dB 4:12 04-Six Blade Knife
DR14 -4.73 dB -20.86 dB 3:00 05-Southbound Again
DR14 -3.94 dB -19.06 dB 5:49 06-Sultans Of Swing
DR15 -3.51 dB -20.20 dB 6:17 07-In The Gallery
DR15 -2.58 dB -20.15 dB 4:42 08-Wild West End
DR15 -2.60 dB -19.54 dB 5:07 09-Lions
––––––––––––––––––––––––––––––––––––––––

Number of tracks: 9
Official DR value: DR14

Samplerate: 44100 Hz
Channels: 2
Bits per sample: 16
Bitrate: 782 kbps
Codec: FLAC
================================================================================



Dire Straits: Discography (1978 - 1991) [Vinyl Rip 16/44 & mp3-320]

Tracklist VNL02 - Communiqué (1979):
DE LP 2013 Mercury Records Ltd. • 375 290-4

A1. Once Upon A Time In The West [05:25]
A2. News [04:13]
A3. Where Do You Think You're Going? [03:49]
A4. Communiqué [05:49]
B1. Lady Writer [03:45]
B2. Angel Of Mercy [04:35]
B3. Portobello Belle [04:30]
B4. Single-Handed Sailor [04:41]
B5. Follow Me Home [05:55]

foobar2000 1.2.9 / Dynamic Range Meter 1.1.1
log date: 2016-12-20 13:37:43

––––––––––––––––––––––––––––––––––––––––
Analyzed: DIRE STRAITS / Communique
––––––––––––––––––––––––––––––––––––––––

DR Peak RMS Duration Track
––––––––––––––––––––––––––––––––––––––––
DR13 -1.06 dB -17.06 dB 5:25 01-Once Upon A Time In The West
DR12 -2.37 dB -17.75 dB 4:13 02-News
DR12 -2.12 dB -18.64 dB 3:49 03-Where Do You Think You're Going?
DR14 -1.96 dB -18.47 dB 5:50 04-Communique
DR14 -1.46 dB -17.17 dB 3:45 05-Lady Writer
DR11 -3.62 dB -17.85 dB 4:35 06-Angel Of Mercy
DR14 -2.69 dB -19.91 dB 4:30 07-Portobello Belle
DR12 -2.89 dB -17.50 dB 4:41 08-Single-Handed Sailor
DR12 -5.15 dB -21.68 dB 5:55 09-Follow Me Home
––––––––––––––––––––––––––––––––––––––––

Number of tracks: 9
Official DR value: DR13

Samplerate: 44100 Hz
Channels: 2
Bits per sample: 16
Bitrate: 732 kbps
Codec: FLAC
================================================================================



Dire Straits: Discography (1978 - 1991) [Vinyl Rip 16/44 & mp3-320]

Tracklist VNL03 - Making Movies (1980):
DE LP 2013 Mercury Records Ltd. • 375 290-5

A1. Tunnel Of Love [08:13]
A2. Romeo And Juliet [06:01]
A3. Skateaway [06:42]
B1. Expresso Love [05:13]
B2. Hand In Hand [04:50]
B3. Solid Rock [03:27]
B4. Les Boys [04:15]

foobar2000 1.2.9 / Dynamic Range Meter 1.1.1
log date: 2016-12-20 13:38:01

––––––––––––––––––––––––––––––––––––––––
Analyzed: DIRE STRAITS / Making Movies
––––––––––––––––––––––––––––––––––––––––

DR Peak RMS Duration Track
––––––––––––––––––––––––––––––––––––––––
DR13 -1.60 dB -18.21 dB 8:13 01-Tunnel Of Love
DR14 -1.61 dB -20.75 dB 6:01 02-Romeo And Juliet
DR13 -2.13 dB -18.11 dB 6:42 03-Skateaway
DR13 -2.01 dB -17.81 dB 5:13 04-Expresso Love
DR14 -2.02 dB -20.80 dB 4:50 05-Hand In Hand
DR12 -1.39 dB -15.76 dB 3:27 06-Solid Rock
DR15 -2.42 dB -20.71 dB 4:15 07-Les Boys
––––––––––––––––––––––––––––––––––––––––

Number of tracks: 7
Official DR value: DR13

Samplerate: 44100 Hz
Channels: 2
Bits per sample: 16
Bitrate: 766 kbps
Codec: FLAC
================================================================================



Dire Straits: Discography (1978 - 1991) [Vinyl Rip 16/44 & mp3-320]

Tracklist VNL04 - Love Over Gold (1982):
DE LP 2013 Mercury Records Ltd. • 375 290-6

A1. Telegraph Road [14:20]
A2. Private Investigations [06:51]
B1. Industrial Disease [05:55]
B2. Love Over Gold [06:20]
B3. It Never Rains [08:07]

foobar2000 1.2.9 / Dynamic Range Meter 1.1.1
log date: 2016-12-20 13:38:15

––––––––––––––––––––––––––––––––––––––––
Analyzed: DIRE STRAITS / Love Over Gold
––––––––––––––––––––––––––––––––––––––––

DR Peak RMS Duration Track
––––––––––––––––––––––––––––––––––––––––
DR13 0.00 dB -18.01 dB 14:20 01-Telegraph Road
DR17 -3.03 dB -26.14 dB 6:51 02-Private Investigations
DR13 -0.79 dB -16.31 dB 5:55 03-Industrial Disease
DR14 -0.66 dB -20.60 dB 6:20 04-Love Over Gold
DR12 -1.56 dB -18.35 dB 8:07 05-It Never Rains
––––––––––––––––––––––––––––––––––––––––

Number of tracks: 5
Official DR value: DR14

Samplerate: 44100 Hz
Channels: 2
Bits per sample: 16
Bitrate: 726 kbps
Codec: FLAC
================================================================================



Dire Straits: Discography (1978 - 1991) [Vinyl Rip 16/44 & mp3-320]

Tracklist VNL05 - Brothers In Arms (1985):
DE 2 x LP 2013 Mercury Records Ltd. • 375 290-7

A1. So Far Away [05:08]
A2. Money For Nothing [08:30]
B1. Walk Of Life [04:10]
B2. Your Latest Trick [06:39]
C1. Why Worry [08:30]
C2. Ride Across The River [07:00]
D1. The Man's Too Strong [04:48]
D2. One World [03:38]
D3. Brothers In Arms [07:09]

foobar2000 1.2.9 / Dynamic Range Meter 1.1.1
log date: 2016-12-20 13:38:31

––––––––––––––––––––––––––––––––––––––––
Analyzed: DIRE STRAITS / Brothers In Arms
––––––––––––––––––––––––––––––––––––––––

DR Peak RMS Duration Track
––––––––––––––––––––––––––––––––––––––––
DR13 -1.10 dB -17.52 dB 5:08 01-So Far Away
DR12 -2.95 dB -17.87 dB 8:30 02-Money For Nothing
DR10 -4.28 dB -16.46 dB 4:10 03-Walk Of Life
DR11 -3.99 dB -17.90 dB 6:39 04-Your Latest Trick
DR11 -7.02 dB -21.57 dB 8:30 05-Why Worry
DR12 -5.45 dB -20.92 dB 7:00 06-Ride Across The River
DR10 -3.52 dB -19.48 dB 4:48 07-The Man's Too Strong
DR12 -3.33 dB -17.88 dB 3:38 08-One World
DR10 -5.56 dB -19.28 dB 7:09 09-Brothers In Arms
––––––––––––––––––––––––––––––––––––––––

Number of tracks: 9
Official DR value: DR11

Samplerate: 44100 Hz
Channels: 2
Bits per sample: 16
Bitrate: 729 kbps
Codec: FLAC
================================================================================



Dire Straits: Discography (1978 - 1991) [Vinyl Rip 16/44 & mp3-320]

Tracklist VNL06 - On Every Street (1991):
DE 2 x LP 2013 Mercury Records Ltd. • 375 291-4

A1. Calling Elvis [06:27]
A2. On Every Street [05:04]
A3. When It Comes To You [05:02]
B1. Fade To Black [03:50]
B2. The Bug [04:17]
B3. You And Your Friend [05:59]
C1. Heavy Fuel [05:11]
C2. Iron Hand [03:09]
C3. Ticket To Heaven [04:28]
D1. My Parties [05:37]
D2. Planet Of New Orleans [07:47]
D3. How Long [03:58]

foobar2000 1.2.9 / Dynamic Range Meter 1.1.1
log date: 2016-12-20 13:38:48

––––––––––––––––––––––––––––––––––––––––
Analyzed: DIRE STRAITS / On Every Street
––––––––––––––––––––––––––––––––––––––––

DR Peak RMS Duration Track
––––––––––––––––––––––––––––––––––––––––
DR11 -3.25 dB -18.38 dB 6:27 01-Calling Elvis
DR11 -3.15 dB -21.29 dB 5:04 02-On Every Street
DR12 -4.10 dB -17.66 dB 5:02 03-When It Comes To You
DR11 -4.69 dB -19.06 dB 3:50 04-Fade To Black
DR12 -4.28 dB -17.73 dB 4:17 05-The Bug
DR11 -4.17 dB -19.38 dB 6:00 06-You And Your Friend
DR13 -3.36 dB -18.06 dB 5:11 07-Heavy Fuel
DR12 -3.94 dB -18.10 dB 3:09 08-Iron Hand
DR12 -3.72 dB -17.71 dB 4:28 09-Ticket To Heaven
DR14 -3.31 dB -19.61 dB 5:37 10-My Parties
DR11 -3.74 dB -18.02 dB 7:47 11-Planet Of New Orleans
DR10 -3.56 dB -16.97 dB 3:58 12-How Long
––––––––––––––––––––––––––––––––––––––––

Number of tracks: 12
Official DR value: DR12

Samplerate: 44100 Hz
Channels: 2
Bits per sample: 16
Bitrate: 743 kbps
Codec: FLAC
================================================================================



All thanks goes to bazar & KoGGaN