Subcategories

Dire Straits & Mark Knopfler - Private Investigations: The Best Of Dire Straits & Mark Knopfler (2005)

Posted By: popsakov
Dire Straits & Mark Knopfler - Private Investigations: The Best Of Dire Straits & Mark Knopfler (2005)

Dire Straits & Mark Knopfler - Private Investigations: The Best Of Dire Straits & Mark Knopfler (2005)
2CD | EAC Rip | FLAC (Img) + Cue + Log ~ 897 Mb | MP3 CBR320 ~ 408 Mb
Full Scans (JPG, 600 dpi) ~ 33 Mb | RAR 5% Recovery
Country Rock, Soft Rock, Classic Rock | Mercury Records #9873054

This 22-cut double-disc set finally gets at it. Issuing a single disc of Dire Straits and Mark Knopfler would be a silly thing at best and a hopelessly frustrating one at worst. When the band burst on the scene with "Sultans of Swing," there was a lot happening in rock music, but most of it was under the radar and remains forgotten except in the historic annals of music fanatics. Knopfler and his band were full of rock & roll romance and proved it through their first four recordings time and again. They couldn't help but become superstars and mainstays of MTV. But there is another story told on this best-of, which begins with "Telegraph Road." The story-songs Knopfler wrote were always the best anyway, and this set is full of them, from "Sultans" to "Romeo & Juliet," "Skateaway," "So Far Away," "Walk of Life," and (of course) "Brothers in Arms," which made for the most dramatic marriage of the little screen and rock music when it was featured in the closing sequence of an episode of Miami Vice. But there are many other stops along the way, like "Private Investigations," "Sailing to Philadelphia," "Going Home" (from Local Hero), and "The Long Road" (from Cal). But "On Every Street," "Calling Elvis," and "What It Is" are here, too, making for a wonderfully rounded if argumentative best-of collection that goes the distance and explains sonically what all the fuss was about in the first place. There's the guitar sound that's as much Tony Joe White as it is J.J. Cale and Billy Gibbons, and the elegance of James Burton and Chet Atkins. There is soul, pathos, drama, and a bittersweet memory that Van Morrison first evoked on Astral Weeks and Saint Dominic's Preview. There is a new cut here as well, a duet with Emmylou Harris called "All the Roadrunning," taken from an upcoming collaborative album, and it's nice – beautiful, in fact – and keeps the line of continuity and excellence in perspective. This is not only a fine collection for fans because of its wonderful sequencing, but the best introduction to the man and the band that one could ask for.
~ Thom Jurek, All Music
Dire Straits & Mark Knopfler - Private Investigations: The Best Of Dire Straits & Mark Knopfler (2005)


***************

Dire Straits & Mark Knopfler - Private Investigations: The Best Of Dire Straits & Mark Knopfler (2005)

Dire Straits & Mark Knopfler - Private Investigations: The Best Of Dire Straits & Mark Knopfler (2005)

Track List CD1:

01. Telegraph Road (Album Version) [14:20]
02. Sultans of Swing (Single Version) [5:49]
03. Love Over Gold [6:19]
04. Romeo and Juliet [6:01]
05. Tunnel of Love (Album Version) [8:12]
06. Private Investigations (Single Version) [5:59]
07. So Far Away [5:08]
08. Money For Nothing [8:24]
09. Brothers in Arms (Album Version) [6:59]
10. Walk of Life [4:10]
11. Your Latest Trick [6:30]

Exact Audio Copy V1.3 from 2. September 2016

EAC extraction logfile from 13. August 2017, 16:58

Dire Straits & Mark Knopfler / Private Investigations • The Best of (CD 1)

Used drive : ATAPI iHAS122 C Adapter: 1 ID: 0

Read mode : Secure
Utilize accurate stream : Yes
Defeat audio cache : Yes
Make use of C2 pointers : No

Read offset correction : 6
Overread into Lead-In and Lead-Out : No
Fill up missing offset samples with silence : Yes
Delete leading and trailing silent blocks : No
Null samples used in CRC calculations : Yes
Used interface : Native Win32 interface for Win NT & 2000

Used output format : Internal WAV Routines
Sample format : 44.100 Hz; 16 Bit; Stereo


TOC of the extracted CD

Track | Start | Length | Start sector | End sector
––––––––––––––––––––––––––––-
1 | 0:00.00 | 14:20.25 | 0 | 64524
2 | 14:20.25 | 5:48.39 | 64525 | 90663
3 | 20:08.64 | 6:18.42 | 90664 | 119055
4 | 26:27.31 | 6:00.44 | 119056 | 146099
5 | 32:28.00 | 8:11.65 | 146100 | 182989
6 | 40:39.65 | 5:59.13 | 182990 | 209927
7 | 46:39.03 | 5:07.40 | 209928 | 232992
8 | 51:46.43 | 8:24.23 | 232993 | 270815
9 | 60:10.66 | 6:59.33 | 270816 | 302273
10 | 67:10.24 | 4:10.07 | 302274 | 321030
11 | 71:20.31 | 6:29.50 | 321031 | 350255


Range status and errors

Selected range

Filename C:\Users\London\Desktop\Dire Straits & Mark Knopfler - Private Investigations • The Best of (CD 1).wav

Peak level 100.0 %
Extraction speed 9.6 X
Range quality 100.0 %
Test CRC 76FD9705
Copy CRC 76FD9705
Copy OK

No errors occurred


AccurateRip summary

Track 1 accurately ripped (confidence 200) [9A584A80] (AR v2)
Track 2 accurately ripped (confidence 200) [59640C83] (AR v2)
Track 3 accurately ripped (confidence 200) [0D6E428B] (AR v2)
Track 4 accurately ripped (confidence 200) [1C4652FB] (AR v2)
Track 5 accurately ripped (confidence 200) [BFB55336] (AR v2)
Track 6 accurately ripped (confidence 200) [600530D6] (AR v2)
Track 7 accurately ripped (confidence 200) [EBDAC2D1] (AR v2)
Track 8 accurately ripped (confidence 200) [0DB44746] (AR v2)
Track 9 accurately ripped (confidence 200) [555FCF25] (AR v2)
Track 10 accurately ripped (confidence 200) [A2C1F776] (AR v2)
Track 11 accurately ripped (confidence 200) [DC5D7946] (AR v2)

All tracks accurately ripped

End of status report

–– CUETools DB Plugin V2.1.6

[CTDB TOCID: JSf9W69hhwvrmWF5novbf_.U6ko-] found
Submit result: JSf9W69hhwvrmWF5novbf_.U6ko- has been confirmed
Track | CTDB Status
1 | (818/829) Accurately ripped
2 | (815/829) Accurately ripped
3 | (820/829) Accurately ripped
4 | (815/829) Accurately ripped
5 | (810/829) Accurately ripped
6 | (805/829) Accurately ripped
7 | (814/829) Accurately ripped
8 | (811/829) Accurately ripped
9 | (812/829) Accurately ripped
10 | (814/829) Accurately ripped
11 | (795/829) Accurately ripped


==== Log checksum 06DE90E2632488A02F647C0BC5A4002FF2EAF7E6704854F298A615A1EBB7D364 ====

foobar2000 1.2.6 / Dynamic Range Meter 1.1.1
log date: 2017-08-19 14:49:02

––––––––––––––––––––––––––––––––––––––––
Analyzed: Dire Straits / Private Investigations • The Best of (CD 1)
––––––––––––––––––––––––––––––––––––––––

DR Peak RMS Duration Track
––––––––––––––––––––––––––––––––––––––––
DR7 0.00 dB -12.49 dB 14:20 01-Telegraph Road (Album Version)
DR8 -0.04 dB -8.70 dB 5:49 02-Sultans of Swing (Single Version)
DR8 -0.04 dB -11.81 dB 6:19 03-Love Over Gold
DR9 -0.04 dB -13.74 dB 6:01 04-Romeo and Juliet
DR8 -0.04 dB -10.72 dB 8:12 05-Tunnel of Love (Album Version)
DR11 -0.04 dB -15.83 dB 5:59 06-Private Investigations (Single Version)
DR8 -0.10 dB -9.46 dB 5:08 07-So Far Away
DR7 -0.10 dB -9.59 dB 8:24 08-Money For Nothing
DR8 0.00 dB -11.05 dB 6:59 09-Brothers in Arms (Album Version)
DR6 -0.10 dB -8.13 dB 4:10 10-Walk of Life
DR8 -0.07 dB -9.77 dB 6:30 11-Your Latest Trick
––––––––––––––––––––––––––––––––––––––––

Number of tracks: 11
Official DR value: DR8

Samplerate: 44100 Hz
Channels: 2
Bits per sample: 16
Bitrate: 858 kbps
Codec: FLAC
================================================================================

[CUETools log; Date: 19.08.2017 14:49:16; Version: 2.1.5]
HDCD: peak extend: none, transient filter: none, gain: none
[CTDB TOCID: JSf9W69hhwvrmWF5novbf_.U6ko-] found.
Track | CTDB Status
1 | (821/832) Accurately ripped, or (3/832) differs in 14 samples @00:00:50-00:00:52,00:00:70,00:02:74-00:03:04,00:03:15,00:04:27,00:04:44,00:05:42
2 | (818/832) Accurately ripped, or (3/832) differs in 2 samples @05:47:37-05:47:39
3 | (823/832) Accurately ripped
4 | (818/832) Accurately ripped
5 | (813/832) Accurately ripped, or (3/832) differs in 1 samples @00:00:72
6 | (808/832) Accurately ripped, or (3/832) differs in 10 samples @05:51:44,05:53:02-05:53:03,05:53:16-05:53:18,05:53:42-05:53:43,05:53:69,05:57:01
7 | (817/832) Accurately ripped
8 | (814/832) Accurately ripped, or (3/832) differs in 9 samples @08:17:20-08:17:22,08:17:35,08:19:06-08:19:07,08:21:67-08:21:69
9 | (815/832) Accurately ripped
10 | (817/832) Accurately ripped
11 | (798/832) Accurately ripped, or (3/832) differs in 2 samples @06:27:08,06:27:15
[AccurateRip ID: 0022f3c9-01257b6c-83123e0b] found.
Track [ CRC | V2 ] Status
01 [2ebd6666|9a584a80] (135+200/574) Accurately ripped
02 [7d3c0cd1|59640c83] (136+200/580) Accurately ripped
03 [e8cafb35|0d6e428b] (137+200/576) Accurately ripped
04 [963259f3|1c4652fb] (136+200/574) Accurately ripped
05 [76c71657|bfb55336] (137+200/574) Accurately ripped
06 [44f363ec|600530d6] (136+200/571) Accurately ripped
07 [f278f829|ebdac2d1] (136+200/566) Accurately ripped
08 [a6593913|0db44746] (134+200/566) Accurately ripped
09 [dd980d50|555fcf25] (134+200/561) Accurately ripped
10 [58146bee|a2c1f776] (136+200/571) Accurately ripped
11 [7df0a2ab|dc5d7946] (133+200/558) Accurately ripped
Offsetted by -1328:
01 [3cb31ed0] (041/574) Accurately ripped
02 [049ff90e] (041/580) Accurately ripped
03 [bf14f783] (041/576) Accurately ripped
04 [65bfd1ec] (040/574) Accurately ripped
05 [4102a18c] (040/574) Accurately ripped
06 [253c8312] (041/571) Accurately ripped
07 [f6be94f4] (039/566) Accurately ripped
08 [0f8d0981] (041/566) Accurately ripped
09 [de69aba5] (041/561) Accurately ripped
10 [813b390d] (042/571) Accurately ripped
11 [965c0431] (039/558) Accurately ripped
Offsetted by -890:
01 [a9324dd7] (006/574) Accurately ripped
02 [8e4a55a6] (007/580) Accurately ripped
03 [b3226556] (007/576) Accurately ripped
04 [0f6fe79c] (006/574) Accurately ripped
05 [1b0489ea] (007/574) Accurately ripped
06 [da2a6c88] (007/571) Accurately ripped
07 [3b63e0c2] (007/566) Accurately ripped
08 [5c59303b] (007/566) Accurately ripped
09 [ec0be10d] (007/561) Accurately ripped
10 [9a481ff4] (007/571) Accurately ripped
11 [22f2f97c] (005/558) Accurately ripped
Offsetted by -664:
01 [8b0e8304] (048/574) Accurately ripped
02 [99ff9172] (051/580) Accurately ripped
03 [25e34c37] (046/576) Accurately ripped
04 [696e525f] (048/574) Accurately ripped
05 [768fd7aa] (048/574) Accurately ripped
06 [20d04a9d] (044/571) Accurately ripped
07 [49ec2b12] (044/566) Accurately ripped
08 [5f6a45c3] (045/566) Accurately ripped
09 [e170326c] (044/561) Accurately ripped
10 [9941338e] (044/571) Accurately ripped
11 [37141e51] (043/558) Accurately ripped
Offsetted by 10:
01 [7c819247] (003/574) Accurately ripped
02 [3e078bf3] (003/580) Accurately ripped
03 [2d6a2fbd] (003/576) Accurately ripped
04 [a6f67fa1] (003/574) Accurately ripped
05 [11842f4e] (003/574) Accurately ripped
06 [21061d05] (003/571) Accurately ripped
07 [234f2faa] (003/566) Accurately ripped
08 [7e1b21a0] (003/566) Accurately ripped
09 [84a42231] (003/561) Accurately ripped
10 [4b7b78f4] (003/571) Accurately ripped
11 [52ec66a9] (003/558) Accurately ripped
Offsetted by -1620:
01 [b8021dc8] (004/574) Accurately ripped
02 [d7bcb01f] (004/580) Accurately ripped
03 [5010113a] (004/576) Accurately ripped
04 [bb3973ac] (004/574) Accurately ripped
05 [a68692a5] (004/574) Accurately ripped
06 [f05bc4a6] (004/571) Accurately ripped
07 [7ab7a7ec] (004/566) Accurately ripped
08 [f7630d72] (004/566) Accurately ripped
09 [2b422116] (004/561) Accurately ripped
10 [34ed8ade] (004/571) Accurately ripped
11 [fa28e181] (000/558) No match (V2 was not tested)
Offsetted by -658:
01 [5b0c03c2] (000/574) No match (V2 was not tested)
02 [0a4ebd3a] (000/580) No match (V2 was not tested)
03 [91d06953] (000/576) No match (V2 was not tested)
04 [b985693a] (000/574) No match (V2 was not tested)
05 [c9981deb] (000/574) No match (V2 was not tested)
06 [752560db] (000/571) No match (V2 was not tested)
07 [33add49b] (000/566) No match (V2 was not tested)
08 [d567bc97] (000/566) No match (V2 was not tested)
09 [484c6674] (000/561) No match (V2 was not tested)
10 [41974a8b] (002/571) Accurately ripped
11 [b29d2ee3] (000/558) No match (V2 was not tested)
Offsetted by -654:
01 [b9f196c2] (000/574) No match (V2 was not tested)
02 [d96165e7] (000/580) No match (V2 was not tested)
03 [db486260] (000/576) No match (V2 was not tested)
04 [7a9c7876] (000/574) No match (V2 was not tested)
05 [1160f047] (000/574) No match (V2 was not tested)
06 [fedd002c] (000/571) No match (V2 was not tested)
07 [5092e1b3] (000/566) No match (V2 was not tested)
08 [f3a02a10] (000/566) No match (V2 was not tested)
09 [cac0891c] (000/561) No match (V2 was not tested)
10 [44158b8c] (000/571) No match (V2 was not tested)
11 [04fee496] (000/558) No match (V2 was not tested)
Offsetted by -90:
01 [7b9d3bda] (000/574) No match (V2 was not tested)
02 [671ae29a] (000/580) No match (V2 was not tested)
03 [4c874907] (000/576) No match (V2 was not tested)
04 [c64672dc] (000/574) No match (V2 was not tested)
05 [e18c35ca] (000/574) No match (V2 was not tested)
06 [46b4d144] (000/571) No match (V2 was not tested)
07 [e9c532db] (000/566) No match (V2 was not tested)
08 [d30feb7a] (000/566) No match (V2 was not tested)
09 [74e44f04] (000/561) No match (V2 was not tested)
10 [3e560e54] (000/571) No match (V2 was not tested)
11 [0627bc99] (000/558) No match (V2 was not tested)
Offsetted by -80:
01 [a090a9a3] (000/574) No match (V2 was not tested)
02 [6b3b0ff1] (000/580) No match (V2 was not tested)
03 [571a0cfe] (000/576) No match (V2 was not tested)
04 [33273d64] (000/574) No match (V2 was not tested)
05 [7e69573b] (000/574) No match (V2 was not tested)
06 [734cec6f] (000/571) No match (V2 was not tested)
07 [0c9d86df] (000/566) No match (V2 was not tested)
08 [997e7979] (000/566) No match (V2 was not tested)
09 [df24e28c] (000/561) No match (V2 was not tested)
10 [e8d3b04f] (000/571) No match (V2 was not tested)
11 [da3980f0] (000/558) No match (V2 was not tested)
Offsetted by -18:
01 [bd0de366] (000/574) No match (V2 was not tested)
02 [34583424] (000/580) No match (V2 was not tested)
03 [4bfbed04] (000/576) No match (V2 was not tested)
04 [6ffa7145] (000/574) No match (V2 was not tested)
05 [60214fd1] (000/574) No match (V2 was not tested)
06 [39d07d76] (000/571) No match (V2 was not tested)
07 [547d4275] (000/566) No match (V2 was not tested)
08 [2dfb175f] (000/566) No match (V2 was not tested)
09 [aa2fb509] (000/561) No match (V2 was not tested)
10 [15f3dd5b] (000/571) No match (V2 was not tested)
11 [fef574f9] (000/558) No match (V2 was not tested)
Offsetted by 147:
01 [7258fd1b] (000/574) No match (V2 was not tested)
02 [20458390] (000/580) No match (V2 was not tested)
03 [aedd1fae] (000/576) No match (V2 was not tested)
04 [2d6d94be] (000/574) No match (V2 was not tested)
05 [46dded6d] (000/574) No match (V2 was not tested)
06 [18263cf3] (000/571) No match (V2 was not tested)
07 [d8951fca] (000/566) No match (V2 was not tested)
08 [5d5b163f] (000/566) No match (V2 was not tested)
09 [13b227ee] (000/561) No match (V2 was not tested)
10 [ca72bb1c] (000/571) No match (V2 was not tested)
11 [c39f13bd] (000/558) No match (V2 was not tested)

Track Peak [ CRC32 ] [W/O NULL] [ LOG ]
– 100,0 [76FD9705] [A193D42D] CRC32
01 100,0 [6FD8923D] [B5326340]
02 99,5 [98FE58B2] [F3B9C101]
03 99,4 [C6C6C5F6] [8BB45EF2]
04 99,4 [8AF3040A] [9B736656]
05 99,5 [AACE2007] [422C01B2]
06 99,5 [9304F90A] [E28A0FC3]
07 98,8 [B474C740] [07A5AF9B]
08 98,8 [32BB8C6E] [6A179DB0]
09 100,0 [12287D13] [4BA2F517]
10 98,8 [9A21EC8B] [B4E1250E]
11 99,1 [BE375E25] [D6B0C288]

Dire Straits & Mark Knopfler - Private Investigations: The Best Of Dire Straits & Mark Knopfler (2005)

Dire Straits & Mark Knopfler - Private Investigations: The Best Of Dire Straits & Mark Knopfler (2005)

Track List CD2:

01. Calling Elvis (Album Version) [6:24]
02. On Every Street (Album Version) [5:04]
03. Going Home (Theme from ''The Local Hero'') [5:02]
04. Darling Pretty (Album Version) [4:44]
05. The Long Road (Theme from ''Cal'') (Full Version) [7:19]
06. Why Aye Man [4:09]
07. Sailing to Philadelphia [5:53]
08. What It Is (Album Version) [4:56]
09. The Trawlerman's Song [5:02]
10. Boom, Like That (Album Version) [5:49]
11. All the Roadrunning (Album Version) [4:50]

Exact Audio Copy V1.3 from 2. September 2016

EAC extraction logfile from 13. August 2017, 15:24

Dire Straits & Mark Knopfler / Private Investigations • The Best of (CD 2)

Used drive : ATAPI iHAS122 C Adapter: 1 ID: 0

Read mode : Secure
Utilize accurate stream : Yes
Defeat audio cache : Yes
Make use of C2 pointers : No

Read offset correction : 6
Overread into Lead-In and Lead-Out : No
Fill up missing offset samples with silence : Yes
Delete leading and trailing silent blocks : No
Null samples used in CRC calculations : Yes
Used interface : Native Win32 interface for Win NT & 2000

Used output format : Internal WAV Routines
Sample format : 44.100 Hz; 16 Bit; Stereo


TOC of the extracted CD

Track | Start | Length | Start sector | End sector
––––––––––––––––––––––––––––-
1 | 0:00.00 | 6:24.30 | 0 | 28829
2 | 6:24.30 | 5:03.60 | 28830 | 51614
3 | 11:28.15 | 5:02.22 | 51615 | 74286
4 | 16:30.37 | 4:43.65 | 74287 | 95576
5 | 21:14.27 | 7:19.15 | 95577 | 128516
6 | 28:33.42 | 4:09.24 | 128517 | 147215
7 | 32:42.66 | 5:53.09 | 147216 | 173699
8 | 38:36.00 | 4:55.62 | 173700 | 195886
9 | 43:31.62 | 5:02.25 | 195887 | 218561
10 | 48:34.12 | 5:49.08 | 218562 | 244744
11 | 54:23.20 | 4:49.54 | 244745 | 266473


Range status and errors

Selected range

Filename C:\Users\London\Desktop\Dire Straits & Mark Knopfler - Private Investigations • The Best of (CD 2).wav

Peak level 99.5 %
Extraction speed 8.5 X
Range quality 100.0 %
Test CRC DF5D2373
Copy CRC DF5D2373
Copy OK

No errors occurred


AccurateRip summary

Track 1 accurately ripped (confidence 200) [BFF62F01] (AR v2)
Track 2 accurately ripped (confidence 200) [BCDBC8F6] (AR v2)
Track 3 accurately ripped (confidence 200) [67EB8E7E] (AR v2)
Track 4 accurately ripped (confidence 200) [9E6BA54C] (AR v2)
Track 5 accurately ripped (confidence 200) [C597B10E] (AR v2)
Track 6 accurately ripped (confidence 200) [0DD995A6] (AR v2)
Track 7 accurately ripped (confidence 200) [B57A6FF4] (AR v2)
Track 8 accurately ripped (confidence 200) [64D8706B] (AR v2)
Track 9 accurately ripped (confidence 200) [8B8E3563] (AR v2)
Track 10 accurately ripped (confidence 200) [D548BAD0] (AR v2)
Track 11 accurately ripped (confidence 200) [D285AFFD] (AR v2)

All tracks accurately ripped

End of status report

–– CUETools DB Plugin V2.1.6

[CTDB TOCID: MvMARa.WQzPm3VbVkql3BnvFxvo-] found
Submit result: MvMARa.WQzPm3VbVkql3BnvFxvo- has been confirmed
Track | CTDB Status
1 | (813/820) Accurately ripped
2 | (819/820) Accurately ripped
3 | (812/820) Accurately ripped
4 | (814/820) Accurately ripped
5 | (807/820) Accurately ripped
6 | (814/820) Accurately ripped
7 | (796/820) Accurately ripped
8 | (812/820) Accurately ripped
9 | (818/820) Accurately ripped
10 | (815/820) Accurately ripped
11 | (811/820) Accurately ripped


==== Log checksum B620AD3A50BFB5B88E8BAD0BEB459E3C5F89D8A6FB5F499DE7B26A3221A870B2 ====

foobar2000 1.2.6 / Dynamic Range Meter 1.1.1
log date: 2017-08-19 14:49:30

––––––––––––––––––––––––––––––––––––––––
Analyzed: Dire Straits / Private Investigations • The Best of (CD 2) (1-2)
Mark Knopfler & Emmylou Harris / Private Investigations • The Best of (CD 2) (3)
––––––––––––––––––––––––––––––––––––––––

DR Peak RMS Duration Track
––––––––––––––––––––––––––––––––––––––––
DR7 -0.10 dB -10.37 dB 6:24 01-Calling Elvis (Album Version)
DR6 -0.10 dB -11.11 dB 5:04 02-On Every Street (Album Version)
DR7 -0.10 dB -9.18 dB 4:50 11-All the Roadrunning (Album Version)
––––––––––––––––––––––––––––––––––––––––

Number of tracks: 3
Official DR value: DR6

Samplerate: 44100 Hz
Channels: 2
Bits per sample: 16
Bitrate: 888 kbps
Codec: FLAC
================================================================================

––––––––––––––––––––––––––––––––––––––––
Analyzed: Mark Knopfler / Private Investigations • The Best of (CD 2)
––––––––––––––––––––––––––––––––––––––––

DR Peak RMS Duration Track
––––––––––––––––––––––––––––––––––––––––
DR6 -0.10 dB -9.96 dB 5:02 03-Going Home (Theme from ''The Local Hero'')
DR6 -0.10 dB -7.47 dB 4:44 04-Darling Pretty (Album Version)
DR9 -0.04 dB -10.91 dB 7:19 05-The Long Road (Theme from ''Cal'') (Full Version)
DR7 -0.09 dB -9.36 dB 4:09 06-Why Aye Man
DR6 -0.04 dB -8.05 dB 5:53 07-Sailing to Philadelphia
DR7 -0.04 dB -8.77 dB 4:56 08-What It Is (Album Version)
DR8 -0.13 dB -9.63 dB 5:02 09-The Trawlerman's Song
DR7 -0.11 dB -7.95 dB 5:49 10-Boom, Like That (Album Version)
––––––––––––––––––––––––––––––––––––––––

Number of tracks: 8
Official DR value: DR7

Samplerate: 44100 Hz
Channels: 2
Bits per sample: 16
Bitrate: 888 kbps
Codec: FLAC
================================================================================

[CUETools log; Date: 19.08.2017 14:49:49; Version: 2.1.5]
HDCD: peak extend: none, transient filter: none, gain: none
[CTDB TOCID: MvMARa.WQzPm3VbVkql3BnvFxvo-] found.
Track | CTDB Status
1 | (818/825) Accurately ripped, or (3/825) differs in 19 samples @06:22:23-06:22:32,06:22:43-06:22:46,06:22:58,06:22:71-06:23:05
2 | (824/825) Accurately ripped
3 | (817/825) Accurately ripped, or (3/825) differs in 4 samples @04:59:37-04:59:39,04:59:45
4 | (819/825) Accurately ripped, or (3/825) differs in 1 samples @04:38:26
5 | (812/825) Accurately ripped, or (3/825) differs in 1 samples @07:14:60
6 | (819/825) Accurately ripped
7 | (801/825) Accurately ripped, or (3/825) differs in 3 samples @05:51:70,05:52:10,05:52:21
8 | (817/825) Accurately ripped, or (3/825) differs in 1 samples @04:54:00
9 | (823/825) Accurately ripped
10 | (820/825) Accurately ripped
11 | (816/825) Accurately ripped
[AccurateRip ID: 0018cd42-00d5e2d7-a40de00b] found.
Track [ CRC | V2 ] Status
01 [9d97bebd|bff62f01] (123+200/519) Accurately ripped
02 [953cf855|bcdbc8f6] (125+200/521) Accurately ripped
03 [05a1bfca|67eb8e7e] (125+200/521) Accurately ripped
04 [a41b0937|9e6ba54c] (125+200/522) Accurately ripped
05 [8acd4624|c597b10e] (126+200/522) Accurately ripped
06 [6d451081|0dd995a6] (125+200/520) Accurately ripped
07 [95f31d52|b57a6ff4] (127+200/522) Accurately ripped
08 [ad9253b0|64d8706b] (123+200/514) Accurately ripped
09 [4c7b4c68|8b8e3563] (124+200/517) Accurately ripped
10 [f19b3b45|d548bad0] (126+200/515) Accurately ripped
11 [91f44f45|d285affd] (124+200/516) Accurately ripped
Offsetted by -664:
01 [63615b1f] (003/519) Accurately ripped
02 [ecc2bb1d] (003/521) Accurately ripped
03 [5872bc4d] (003/521) Accurately ripped
04 [0eb9dd39] (003/522) Accurately ripped
05 [a3789a21] (003/522) Accurately ripped
06 [9feb7a47] (003/520) Accurately ripped
07 [17bafd3d] (003/522) Accurately ripped
08 [ff1f27ae] (002/514) Accurately ripped
09 [94d5055e] (002/517) Accurately ripped
10 [d44714be] (003/515) Accurately ripped
11 [05cfe09f] (003/516) Accurately ripped
Offsetted by 411:
01 [c52478d9] (007/519) Accurately ripped
02 [f93631e5] (005/521) Accurately ripped
03 [79b1a611] (006/521) Accurately ripped
04 [5591cc21] (006/522) Accurately ripped
05 [17dd3a26] (006/522) Accurately ripped
06 [801e7b9a] (005/520) Accurately ripped
07 [4a74be45] (006/522) Accurately ripped
08 [9e86dba6] (006/514) Accurately ripped
09 [12c7b024] (006/517) Accurately ripped
10 [4061104c] (006/515) Accurately ripped
11 [20d7d608] (006/516) Accurately ripped
Offsetted by 664:
01 [3f4cc770] (091/519) Accurately ripped
02 [443c947f] (092/521) Accurately ripped
03 [df61affd] (092/521) Accurately ripped
04 [aec49358] (093/522) Accurately ripped
05 [12151ad5] (092/522) Accurately ripped
06 [7fd0a698] (092/520) Accurately ripped
07 [2afb5bcb] (093/522) Accurately ripped
08 [3b1e0f6d] (089/514) Accurately ripped
09 [d62998bc] (091/517) Accurately ripped
10 [f08b1f9a] (088/515) Accurately ripped
11 [be7f8bad] (090/516) Accurately ripped
Offsetted by 674:
01 [ff089c79] (003/519) Accurately ripped
02 [c55f43ee] (003/521) Accurately ripped
03 [9d29b4ed] (003/521) Accurately ripped
04 [f7158380] (003/522) Accurately ripped
05 [19065849] (003/522) Accurately ripped
06 [2d0bdd46] (003/520) Accurately ripped
07 [3275d8c7] (003/522) Accurately ripped
08 [b0373e0f] (003/514) Accurately ripped
09 [4c777722] (003/517) Accurately ripped
10 [c99c6ee4] (003/515) Accurately ripped
11 [96ec100f] (003/516) Accurately ripped
Offsetted by -319:
01 [e4197c00] (000/519) No match (V2 was not tested)
02 [9495d9c7] (000/521) No match (V2 was not tested)
03 [4299dd72] (000/521) No match (V2 was not tested)
04 [0e83ee9f] (000/522) No match (V2 was not tested)
05 [2af89aef] (000/522) No match (V2 was not tested)
06 [1b0accca] (000/520) No match (V2 was not tested)
07 [1db70a49] (000/522) No match (V2 was not tested)
08 [b41967a0] (000/514) No match (V2 was not tested)
09 [47c32ee3] (000/517) No match (V2 was not tested)
10 [7791b47a] (000/515) No match (V2 was not tested)
11 [e816e5f2] (000/516) No match (V2 was not tested)
Offsetted by 6:
01 [004c7350] (000/519) No match (V2 was not tested)
02 [1ceb6e58] (000/521) No match (V2 was not tested)
03 [4e655d6c] (000/521) No match (V2 was not tested)
04 [3785381c] (000/522) No match (V2 was not tested)
05 [cdac459a] (000/522) No match (V2 was not tested)
06 [3a91c266] (000/520) No match (V2 was not tested)
07 [a5506bd7] (000/522) No match (V2 was not tested)
08 [4e63a404] (000/514) No match (V2 was not tested)
09 [24f026a6] (000/517) No match (V2 was not tested)
10 [7fdbc7b4] (000/515) No match (V2 was not tested)
11 [daf4d24d] (000/516) No match (V2 was not tested)
Offsetted by 10:
01 [255240e8] (000/519) No match (V2 was not tested)
02 [18f87910] (000/521) No match (V2 was not tested)
03 [d0435ead] (000/521) No match (V2 was not tested)
04 [f01c07fb] (000/522) No match (V2 was not tested)
05 [8f9cf74e] (000/522) No match (V2 was not tested)
06 [192cbc80] (000/520) No match (V2 was not tested)
07 [8e33fbde] (000/522) No match (V2 was not tested)
08 [b07363e5] (000/514) No match (V2 was not tested)
09 [5ebb0e0a] (000/517) No match (V2 was not tested)
10 [5fcec909] (000/515) No match (V2 was not tested)
11 [6103d44e] (000/516) No match (V2 was not tested)
Offsetted by 532:
01 [4b0b26ff] (000/519) No match (V2 was not tested)
02 [dd7f4481] (000/521) No match (V2 was not tested)
03 [c253090a] (000/521) No match (V2 was not tested)
04 [6418dfe8] (000/522) No match (V2 was not tested)
05 [dd7b9930] (000/522) No match (V2 was not tested)
06 [0159dca0] (000/520) No match (V2 was not tested)
07 [d98a050b] (000/522) No match (V2 was not tested)
08 [6a06c129] (000/514) No match (V2 was not tested)
09 [0467f7f0] (000/517) No match (V2 was not tested)
10 [fb2c2568] (000/515) No match (V2 was not tested)
11 [0719500e] (000/516) No match (V2 was not tested)
Offsetted by 634:
01 [a6a09b6c] (000/519) No match (V2 was not tested)
02 [6f4432fe] (000/521) No match (V2 was not tested)
03 [247e8dec] (000/521) No match (V2 was not tested)
04 [d0c9c2e5] (000/522) No match (V2 was not tested)
05 [d6088eed] (000/522) No match (V2 was not tested)
06 [05bcdcd5] (000/520) No match (V2 was not tested)
07 [766d1976] (000/522) No match (V2 was not tested)
08 [f2a40ad7] (000/514) No match (V2 was not tested)
09 [31d7791b] (000/517) No match (V2 was not tested)
10 [7cc207fb] (000/515) No match (V2 was not tested)
11 [358ffe5a] (000/516) No match (V2 was not tested)
Offsetted by 646:
01 [f327ad32] (000/519) No match (V2 was not tested)
02 [df864cb9] (000/521) No match (V2 was not tested)
03 [1bf7c74a] (000/521) No match (V2 was not tested)
04 [f4b51646] (000/522) No match (V2 was not tested)
05 [e6b2041f] (000/522) No match (V2 was not tested)
06 [a10a0626] (000/520) No match (V2 was not tested)
07 [f4fb1ef3] (000/522) No match (V2 was not tested)
08 [5a861a15] (000/514) No match (V2 was not tested)
09 [3b517e8e] (000/517) No match (V2 was not tested)
10 [dac5cd7b] (000/515) No match (V2 was not tested)
11 [d29b03b5] (000/516) No match (V2 was not tested)

Track Peak [ CRC32 ] [W/O NULL] [ LOG ]
– 99,5 [DF5D2373] [84F90ECF] CRC32
01 98,8 [EADB8272] [4DDA3852]
02 98,8 [BA9DB9E8] [DA93808B]
03 98,8 [110D004F] [EC8D6896]
04 98,8 [2DF6F762] [ED986E10]
05 99,5 [5D54AA49] [1ADD5D51]
06 98,9 [5DA14D4E] [A9560522]
07 99,4 [63C28370] [2B63A16D]
08 99,5 [ACA8CA7D] [64798513]
09 98,5 [A9155CD7] [869C76B7]
10 98,7 [B3856259] [A95532B0]
11 98,8 [BFFB0CA8] [31251A7A]

Dire Straits & Mark Knopfler - Private Investigations: The Best Of Dire Straits & Mark Knopfler (2005)

All thanks go to London

>>> Dire Straits & Mark Knopfler in my Blog <<<

Download from icerbox.com: